#TITLE:Gypsytronic;
#SUBTITLE:;
#ARTIST:M2U;
#TITLETRANSLIT:;
#SUBTITLETRANSLIT:;
#ARTISTTRANSLIT:;
#GENRE:;
#CREDIT:;
#BANNER:[Round 1] - Gypsytronic-bn.png;
#BACKGROUND:[Round 1] - Gypsytronic-bg.png;
#LYRICSPATH:;
#CDTITLE:;
#MUSIC:[Round 1] - Gypsytronic.mp3;
#OFFSET:-0.026000;
#SAMPLESTART:112.845993;
#SAMPLELENGTH:15.339999;
#SELECTABLE:YES;
#DISPLAYBPM:250.000000;
#BPMS:0.000000=249.999985
;
#STOPS:
;
#BGCHANGES:;
#KEYSOUNDS:;
#ATTACKS:;

//---------------dance-single - X Scale 16----------------
#NOTES:
     dance-single:
     X Scale 16:
     Challenge:
     10:
     0.841053,1.008978,0.492834,0.133198,0.036630,884.000000,810.000000,74.000000,20.000000,0.000000,0.000000,0.841053,1.008978,0.492834,0.133198,0.036630,884.000000,810.000000,74.000000,20.000000,0.000000,0.000000:
// measure 0
0000
0000
0000
0000
,  // measure 1
0000
0000
0000
0000
,  // measure 2
1100
0000
1001
0000
1100
0000
0010
0001
,  // measure 3
0000
0011
0000
0000
1100
0000
1010
0000
,  // measure 4
0101
0000
1001
0000
0101
0000
0010
1000
,  // measure 5
0000
0000
1010
0000
0000
0101
0000
0000
,  // measure 6
0100
0000
0001
1000
0000
1000
0002
0000
,  // measure 7
0000
0000
0000
0000
0000
0000
0013
0001
,  // measure 8
1000
0000
0000
0000
0100
0000
0000
0100
,  // measure 9
1000
0000
0000
0000
0010
0100
0001
0100
,  // measure 10
0020
0000
0000
2030
0000
0000
3200
0000
,  // measure 11
0000
0000
1300
0010
,  // measure 12
0100
0000
0000
0000
0001
0010
0001
0010
,  // measure 13
0001
0000
0000
0000
1000
0000
0010
1000
,  // measure 14
0200
0000
0000
0310
0000
0010
0200
0000
,  // measure 15
0000
0000
0000
1300
,  // measure 16
0001
0000
0000
0000
0010
0000
0000
0010
,  // measure 17
0001
0000
0000
0000
0100
0000
0000
0100
,  // measure 18
0001
0000
1001
0000
0000
0110
0000
0000
,  // measure 19
1001
0000
0010
0001
,  // measure 20
0010
0000
1001
0000
0000
0110
0000
0000
,  // measure 21
1001
0000
0000
1000
,  // measure 22
2000
0000
0000
0000
3001
0100
0001
0100
,  // measure 23
0001
0000
0000
1000
0001
0010
0100
1000
,  // measure 24
0010
0000
0100
0000
0001
0000
0000
0010
,  // measure 25
0100
0000
0000
0000
0000
0000
1000
0010
,  // measure 26
1000
0000
0100
0000
1100
0000
1000
0100
,  // measure 27
0010
0001
0010
0100
1000
0000
0001
0010
,  // measure 28
0100
1000
0100
0010
0001
0000
0100
0010
,  // measure 29
1000
0000
1000
0000
0001
0100
0001
0100
,  // measure 30
0002
0000
0000
0000
1003
0010
1000
0010
,  // measure 31
1000
0000
0000
0001
1000
0100
0010
0001
,  // measure 32
0100
0000
0010
0000
1000
0000
0000
0100
,  // measure 33
0010
0000
0000
0000
0000
0000
0001
0100
,  // measure 34
0001
0000
0010
0000
0011
0000
0001
0010
,  // measure 35
0100
1000
0100
0010
0001
0010
0100
1000
,  // measure 36
0100
0000
0000
0100
0010
0100
1000
0010
,  // measure 37
0100
0000
0010
0000
0010
0100
1000
0100
,  // measure 38
0001
0000
1000
0000
0110
0000
0001
1000
,  // measure 39
0010
0000
0100
0000
1001
0000
0010
0100
,  // measure 40
0001
0000
1000
0000
0110
0000
0100
0010
,  // measure 41
0110
0000
1000
0001
1001
0000
0100
1000
,  // measure 42
0001
0000
0010
0000
1100
0000
0010
0001
,  // measure 43
1000
0000
0100
0000
0011
0000
0100
0001
,  // measure 44
0100
0010
1000
0010
0100
0000
0010
1000
,  // measure 45
0001
0000
0010
0000
0100
0001
0100
1000
,  // measure 46
0001
0000
1000
0000
0110
0000
0001
1000
,  // measure 47
0010
0000
0100
0000
1001
0000
0010
0100
,  // measure 48
0001
0000
1000
0000
0110
0000
0100
0010
,  // measure 49
0110
0000
1000
0001
1001
0000
0100
1000
,  // measure 50
0001
0000
0010
0000
1100
0000
0010
0001
,  // measure 51
1000
0000
0100
0000
0011
0000
0100
0001
,  // measure 52
0100
0010
1000
0010
1010
0000
0110
0000
,  // measure 53
0101
0000
1001
0000
,  // measure 54
0020
0000
0000
0000
0130
0001
0100
0001
,  // measure 55
2000
0000
0000
3100
0001
0100
1000
0010
,  // measure 56
0100
0000
1000
0000
0100
0000
0000
0010
,  // measure 57
1000
0000
0000
0000
0000
0000
1000
0010
,  // measure 58
1000
0000
0100
0000
1100
0000
1000
0100
,  // measure 59
0010
0001
0010
0100
1000
0000
0001
0100
,  // measure 60
0010
0000
1000
0000
0100
0000
0010
0100
,  // measure 61
0010
0000
0110
0110
,  // measure 62
0002
0000
0000
0000
1003
0100
1000
0100
,  // measure 63
1000
0000
0000
0100
0010
0001
0010
0001
,  // measure 64
0010
0000
0100
0000
1000
0000
0000
0010
,  // measure 65
0100
0000
0000
0000
0000
0000
0001
0100
,  // measure 66
0001
0000
0010
0000
0011
0000
0001
0010
,  // measure 67
0100
1000
0100
0010
0001
0010
0100
1000
,  // measure 68
0100
0000
1000
0100
0010
0001
0010
0100
,  // measure 69
1000
0000
0001
0000
1001
0000
1000
0100
,  // measure 70
1000
0100
0010
0001
1000
0100
0001
0100
,  // measure 71
1000
0100
0010
0001
1000
0100
0001
0100
,  // measure 72
0010
0001
0100
0010
0100
0001
1000
0001
,  // measure 73
0010
0001
0100
0010
0100
0001
1000
0001
,  // measure 74
0010
0100
1000
0100
0010
0001
0100
0010
,  // measure 75
1000
0010
0100
0010
1000
0001
0100
0010
,  // measure 76
1000
0100
0010
0001
1000
0100
0001
0100
,  // measure 77
1100
0000
0011
0000
0100
0001
0010
0001
,  // measure 78
0200
0000
0000
0000
0000
0000
0000
0000
0310
0000
0000
0000
1000
0100
1000
0100
,  // measure 79
0020
0000
0000
0000
0130
0000
0010
0001
,  // measure 80
0100
0000
0001
1000
0001
0100
0010
0100
,  // measure 81
0010
0000
0000
0000
0100
0010
1000
0010
0100
0000
0000
0000
0010
0000
1000
0000
,  // measure 82
0100
0000
0010
0001
0000
0100
0001
0000
,  // measure 83
1000
0010
0000
0100
0010
0000
1000
0010
,  // measure 84
0100
0010
0100
0010
1000
0000
0100
0010
,  // measure 85
0100
0000
0110
0000
,  // measure 86
0010
0000
0001
0000
0100
0001
0100
0010
,  // measure 87
0200
0000
0000
0301
0000
0000
0010
0100
,  // measure 88
1000
0010
1000
0100
0010
0001
0010
0100
,  // measure 89
1000
0100
1000
0000
0010
0000
0100
0000
0001
0010
0001
0000
1000
0000
0100
0000
,  // measure 90
2000
0000
0000
0000
0000
0000
3010
0100
,  // measure 91
1000
0000
0100
0010
1000
0000
0100
0010
,  // measure 92
0000
0001
0000
1000
0000
0010
0100
1000
,  // measure 93
0100
0010
1000
0010
1000
0000
0100
0010
,  // measure 94
0002
0000
0000
0000
0103
0000
0100
0010
,  // measure 95
0000
1000
0100
0001
0100
0000
0000
0000
,  // measure 96
1000
0000
0010
0000
0100
0000
0001
0000
0010
0100
0010
0000
0001
0000
0100
0000
,  // measure 97
0010
1000
0100
0001
0100
1000
0010
0001
,  // measure 98
0010
1000
0100
0001
0100
0001
0100
1000
,  // measure 99
0010
0001
0010
0100
0001
0010
0100
0010
,  // measure 100
0001
1000
0010
0001
0010
0001
0010
0100
,  // measure 101
0001
0010
0100
0010
0100
0000
1000
0000
,  // measure 102
2000
0000
0000
0000
3001
0100
0001
0100
,  // measure 103
0001
0000
0000
1000
0001
0010
0100
1000
,  // measure 104
0010
0000
0100
0000
0001
0000
0000
0010
,  // measure 105
0100
0000
0000
0000
0000
0000
1000
0010
,  // measure 106
1000
0000
0100
0000
1100
0000
1000
0100
,  // measure 107
0010
0001
0010
0100
1000
0000
0001
0010
,  // measure 108
0100
1000
0100
0010
0001
0000
0100
0010
,  // measure 109
1000
0000
1000
0000
0001
0100
0001
0100
,  // measure 110
0002
0000
0000
0000
1003
0010
1000
0010
,  // measure 111
1000
0000
0000
0001
1000
0100
0010
0001
,  // measure 112
0100
0000
0010
0000
1000
0000
0000
0100
,  // measure 113
0010
0000
0000
0000
0000
0000
0001
0100
,  // measure 114
0001
0000
0010
0000
0011
0000
0001
0010
,  // measure 115
0100
1000
0100
0010
0001
0010
0100
1000
,  // measure 116
0100
0000
0000
0100
0010
0100
1000
0010
,  // measure 117
0100
0000
0010
0000
0010
0100
1000
0100
,  // measure 118
0001
0000
1000
0000
0110
0000
0001
1000
,  // measure 119
0010
0000
0100
0000
1001
0000
0010
0100
,  // measure 120
0001
0000
1000
0000
0110
0000
0100
0010
,  // measure 121
0110
0000
1000
0001
1001
0000
0100
1000
,  // measure 122
0001
0000
0010
0000
1100
0000
0010
0001
,  // measure 123
1000
0000
0100
0000
0011
0000
0100
0001
,  // measure 124
0100
0010
1000
0010
0100
0000
0010
1000
,  // measure 125
0001
0000
0010
0000
0100
0001
0100
1000
,  // measure 126
0001
0000
1000
0000
0110
0000
0001
1000
,  // measure 127
0010
0000
0100
0000
1001
0000
0010
0100
,  // measure 128
0001
0000
1000
0000
0110
0000
0100
0010
,  // measure 129
0110
0000
1000
0001
1001
0000
0100
1000
,  // measure 130
0001
0000
0010
0000
1100
0000
0010
0001
,  // measure 131
1000
0000
0100
0000
0011
0000
0100
0001
,  // measure 132
0100
0010
1000
0010
1010
0000
0110
0000
,  // measure 133
0101
0000
0000
0000
1001
0000
0100
0010
,  // measure 134
1000
0010
0100
0010
1000
0001
0100
0001
,  // measure 135
0010
0100
1000
0100
0010
0001
0100
0010
,  // measure 136
1000
0010
0100
0010
1000
0100
0010
0001
,  // measure 137
0100
0010
1000
0010
0100
0001
0010
0100
,  // measure 138
1000
0001
0100
0010
1000
0001
0100
0010
,  // measure 139
0001
0010
0100
0010
1000
0010
0100
0010
,  // measure 140
1000
0100
0010
0100
0010
0001
0100
0010
,  // measure 141
1001
0000
0110
0000
0100
0001
0010
0001
,  // measure 142
1100
0000
0000
0000
0011
0000
0000
0000
1100
0000
0000
0000
0001
1000
0001
1000
,  // measure 143
0001
0000
0000
0000
1010
0000
0000
0000
0101
0000
0000
0000
0100
0001
0100
0001
,  // measure 144
0100
0010
1000
0010
0001
0010
0100
0001
,  // measure 145
0010
0100
1000
0010
0100
0000
0100
0000
,  // measure 146
0001
0000
0010
0100
0000
0100
0010
0000
,  // measure 147
0001
0010
0000
0010
0001
0000
0001
1000
,  // measure 148
0010
0100
0010
1000
0001
0100
0010
1000
,  // measure 149
0001
0110
0220
0000
,  // measure 150
0000
0000
0000
0000
,  // measure 151
0000
0000
0330
0000
;
