#TITLE:Dreams Come True;
#SUBTITLE:;
#ARTIST:TWO-B-FREE feat. Robbie Danzie;
#TITLETRANSLIT:;
#SUBTITLETRANSLIT:;
#ARTISTTRANSLIT:;
#GENRE:;
#CREDIT:;
#BANNER:[Round 1] - Dreams Come True.png;
#BACKGROUND:[Round 1] - Dreams Come True-bg.png;
#LYRICSPATH:;
#CDTITLE:;
#MUSIC:[Round 1] - Dreams Come True.ogg;
#OFFSET:0.000000;
#SAMPLESTART:89.464996;
#SAMPLELENGTH:14.634008;
#SELECTABLE:YES;
#DISPLAYBPM:109.000000;
#BPMS:0.000000=109.000000
;
#STOPS:
;
#BGCHANGES:;
#KEYSOUNDS:;
#ATTACKS:;

//---------------dance-single - ----------------
#NOTES:
     dance-single:
     :
     Hard:
     7:
     0.352413,0.437786,0.145929,0.187622,0.055592,355.000000,334.000000,21.000000,27.000000,0.000000,0.000000,0.352413,0.437786,0.145929,0.187622,0.055592,355.000000,334.000000,21.000000,27.000000,0.000000,0.000000:
// measure 0
0000
0000
0000
0000
,  // measure 1
0000
0000
0000
0000
,  // measure 2
0000
0000
0000
0000
,  // measure 3
0000
0000
0000
0000
,  // measure 4
0000
0000
0000
0000
,  // measure 5
0002
0000
0000
0000
0000
0000
0000
0000
0000
0000
0000
1000
1000
0000
0000
1000
0000
0000
0000
0000
0000
0000
0000
0000
,  // measure 6
2003
0000
0000
0000
0000
0000
0000
0000
0000
0000
0000
0100
0100
0000
0000
0100
0000
0000
0000
0000
0000
0000
0000
0000
,  // measure 7
3200
0000
0000
0000
0000
0000
0000
0000
0000
0000
0000
0010
0010
0000
0000
0010
0000
0000
0000
0000
0000
0000
0000
0000
,  // measure 8
0310
0000
0000
0010
0000
0000
0010
0000
0000
0010
0000
0000
0000
0000
0001
0020
0000
0000
0000
0000
0000
0030
0000
0000
,  // measure 9
0001
0000
1000
0001
0100
0000
0001
0010
,  // measure 10
0000
0010
0000
0010
0100
0010
0001
0001
,  // measure 11
1000
0000
1000
0100
0010
0000
0100
1000
,  // measure 12
0000
0000
0000
1000
0000
0000
0000
0000
0000
0001
0000
0010
0001
0000
0000
0010
0000
0000
0001
0000
0000
0100
0000
0000
,  // measure 13
0010
0000
0010
0100
1000
0100
0010
0100
,  // measure 14
0000
0100
0000
0100
0001
0010
0001
0001
,  // measure 15
1000
0000
1000
0010
0001
0000
0010
1000
,  // measure 16
1000
0100
0010
0001
,  // measure 17
0011
0000
0000
0000
0000
0000
0101
0000
0000
0000
0000
0001
0100
0000
0000
0100
0000
0000
0010
0000
0000
0000
0000
0000
,  // measure 18
0010
1000
0100
1000
0001
0001
1000
0000
,  // measure 19
1000
0100
1000
0010
0001
0010
1000
0001
,  // measure 20
0010
0000
0000
0010
0000
0000
0001
0000
0000
0000
0000
0001
0010
0000
0000
0001
0000
0000
0001
0000
0000
0000
0000
0000
,  // measure 21
0001
1000
0010
0100
0001
0001
0010
0001
,  // measure 22
2000
0000
0000
0000
0000
0000
3001
0000
0000
0000
0000
0001
1000
0000
0000
1000
0000
0000
0001
0000
0000
0001
0000
0000
,  // measure 23
0010
0100
1000
0010
0100
0001
0001
0010
,  // measure 24
0001
1000
0200
0000
0320
0000
0031
0000
,  // measure 25
1100
0000
0000
0000
0000
0000
1010
0000
0000
0000
0000
1000
0010
0000
0000
0010
0000
0000
0100
0000
0000
0000
0000
0000
,  // measure 26
0100
0000
0000
0001
0000
0000
0010
0000
0000
0001
0000
0001
1000
0000
0000
1000
0000
0000
0001
0000
0000
0000
0000
0000
,  // measure 27
0001
0000
0000
0010
0000
0000
0001
0000
0000
1000
0000
0010
1000
0000
0000
0100
0000
0000
0010
0000
0000
0100
0000
0000
,  // measure 28
1000
0000
0000
0001
0000
0000
1000
0000
0000
0000
0000
1000
0001
0000
0000
1000
0000
0000
0100
0000
0000
0000
0000
0000
,  // measure 29
0010
0001
0100
0010
1000
1000
0100
1000
,  // measure 30
0002
0000
0000
0000
0000
0000
1003
0000
0000
0000
0000
1000
0001
0000
0000
0001
0000
0000
1000
0000
0000
1000
0000
0000
,  // measure 31
0100
0010
0001
0100
0010
1000
1000
0100
,  // measure 32
1000
0001
0020
0000
0230
0000
2300
0000
,  // measure 33
3002
0100
0103
0000
0002
0100
0103
0000
,  // measure 34
0020
1000
1030
0000
0020
1000
1030
0000
,  // measure 35
2000
0100
3100
0000
2000
0100
3100
0000
,  // measure 36
0020
0000
1000
0000
0100
0001
0031
0100
,  // measure 37
0001
0100
0001
0101
0000
1010
0000
1100
,  // measure 38
0000
1000
0100
0010
0000
0001
1000
1000
,  // measure 39
0000
1000
1000
1000
1000
0001
1000
0010
,  // measure 40
0110
0000
0000
0110
0000
0000
0110
0000
0000
0110
0000
0000
0110
0000
0000
0000
0000
0001
1000
0000
0000
0000
0000
0000
,  // measure 41
0100
0010
0001
0100
0100
0000
0001
1000
,  // measure 42
0001
0001
1010
0000
0001
0001
1010
0000
,  // measure 43
0100
0010
1000
0100
1000
1000
0010
0200
,  // measure 44
0000
0000
0000
0301
0000
0000
0010
0000
0000
0000
0000
0001
1000
0000
0000
0100
0000
0000
0010
0000
0000
0001
0000
0000
,  // measure 45
1000
1000
0001
0000
1000
1000
0001
0020
,  // measure 46
0000
0030
0011
0000
0100
0100
1001
0000
,  // measure 47
0001
1000
0100
1000
0001
0001
0100
0010
,  // measure 48
0200
0302
0023
2030
,  // measure 49
3010
0001
1000
0000
0001
0001
1000
0001
,  // measure 50
0000
0000
0110
0000
0100
0010
1000
0000
,  // measure 51
0100
0100
1000
0000
0100
0100
1000
0002
,  // measure 52
0000
0000
0000
0103
0000
0000
0010
0000
0000
0000
0000
0010
0100
0000
0000
0100
0000
0000
0010
0000
0000
0000
0000
0000
,  // measure 53
0010
1000
0100
0000
0010
1000
0001
0010
,  // measure 54
0000
0100
1100
0000
0011
0001
0101
0000
,  // measure 55
0100
0010
1000
0001
0001
0100
0010
1000
,  // measure 56
0100
0010
0001
0010
0100
1000
0010
0100
,  // measure 57
2002
0000
0000
0000
,  // measure 58
0000
0000
0000
0000
,  // measure 59
0000
0000
0000
0000
,  // measure 60
3003
0000
0000
0000
;
