#VERSION:0.83;
#TITLE:Cristalisia;
#SUBTITLE:;
#ARTIST:onoken;
#TITLETRANSLIT:;
#SUBTITLETRANSLIT:;
#ARTISTTRANSLIT:;
#GENRE:;
#CREDIT:;
#MUSIC:[Round 1] - Cristalisia.ogg;
#BANNER:[Round 1] - Cristalisia.png;
#BACKGROUND:[Round 1] - Cristalisia-bg.png;
#CDTITLE:;
#SAMPLESTART:78.809;
#SAMPLELENGTH:15.000;
#SELECTABLE:YES;
#OFFSET:1.340;
#BPMS:0.000=134.000;
#STOPS:178.000=0.448;
#TIMESIGNATURES:176.000=3=4,
179.000=4=4
;
#BGCHANGES:;
#FGCHANGES:;

//--------------- dance-single - Talkion (X-Scale 2) ----------------
#NOTEDATA:;
#STEPSTYPE:dance-single;
#DESCRIPTION:Talkion (X-Scale 2);
#DIFFICULTY:Beginner;
#METER:1;
#RADARVALUES:0,0,0,0,0;
#NOTES:
0000
0000
0000
0000
,
0000
0000
0000
0000
,
0000
0000
0000
0000
,
0000
0000
0000
0000
,
0000
0000
0000
0000
,
0001
0000
0000
0000
,
0000
0000
1000
0000
,
1000
0000
0000
0000
,
0002
0000
0003
0000
,
1000
0000
1000
0000
,
1000
0000
0010
0000
,
0001
0000
0001
0000
,
0001
0000
0010
0000
,
1000
0000
1000
0000
,
1000
0000
0100
0000
,
0010
0000
0010
0000
,
0020
0000
0030
0000
,
0001
0000
0001
0000
,
0010
0000
0100
0000
,
1000
0000
1000
0000
,
0010
0000
0100
0000
,
0001
0000
0001
0000
,
1000
0000
0100
0000
,
1000
0000
1000
0000
,
0001
0000
0100
0000
,
0002
0000
0000
0000
,
0000
0003
0020
0030
,
0200
0000
0000
0300
,
1000
0001
1000
0001
,
2000
0000
0000
0000
,
0000
3000
0020
0030
,
0200
0000
0000
0000
,
0000
0300
1001
0000
,
0020
0000
0000
0000
,
0000
0000
0030
0000
,
0200
0000
0000
0000
,
0000
0000
0300
0000
,
0020
0000
0000
0000
,
0000
0000
0030
0000
,
2000
0000
0000
3000
,
0002
0000
0000
0003
,
2000
0000
0000
3000
,
0002
0000
0000
0000
,
0000
0000
0000
0000
,
0000
0003
0000
1000
,
0000
1000
0000
0100
,
0000
0100
0000
0010
,
0000
0010
0000
0001
,
1000
0001
0000
1000
,
0000
1000
0000
0010
,
0000
0010
0000
0100
,
0000
0100
0000
0001
,
1000
0001
0000
1000
,
0000
0100
0000
1000
,
0000
0100
0000
0010
,
0000
0001
0000
0010
,
0000
0001
0000
0100
,
0000
0010
0000
0100
,
0000
0010
0000
1000
,
0000
0001
0000
1000
,
0000
0001
0000
0010
,
0000
0010
0000
0100
,
0000
0100
0000
1000
,
0000
1000
0000
0001
,
1000
0001
0000
0100
,
0000
0100
0000
0010
,
0000
0010
0000
1000
,
0000
1000
0000
0001
,
1000
0001
0000
0010
,
0000
0010
0000
0100
,
0000
0000
2002
0000
,
0000
0000
0000
0000
,
0000
0000
3003
0000
;

//--------------- dance-single - Talkion (X-Scale 5) ----------------
#NOTEDATA:;
#STEPSTYPE:dance-single;
#DESCRIPTION:Talkion (X-Scale 5);
#DIFFICULTY:Easy;
#METER:3;
#RADARVALUES:0,0,0,0,0;
#NOTES:
0000
0000
0000
0000
,
0000
0000
0000
0000
,
0000
0000
0000
0000
,
0000
0000
0000
0000
,
0000
0000
0000
0000
,
0001
0000
0011
0000
,
1000
0000
1010
0000
,
0001
0000
1001
0000
,
0200
0000
0000
0300
,
0001
0001
1000
1000
,
0010
0010
0200
0300
,
0010
0010
1000
1000
,
0001
0001
0020
0030
,
0100
0100
0010
0010
,
0001
0001
2000
3000
,
0010
0010
0100
0100
,
0020
0000
0000
0030
,
1000
0100
0001
0100
,
1000
0100
0020
0030
,
0001
0100
1000
0100
,
0001
0100
0020
0030
,
1000
0100
0010
1000
,
0010
0100
2000
3000
,
0001
0100
0010
0001
,
0010
0100
0002
0003
,
1000
0100
0010
0001
,
1000
0001
2002
3003
,
0001
0100
0010
1000
,
0001
1000
2002
3003
,
1000
0100
0001
0100
,
1000
0001
0220
0330
,
0100
0000
0000
0110
0000
0000
1001
0000
,
0000
0110
0000
0000
2002
0000
3003
0000
,
0002
0000
0000
0010
0000
0000
0010
0000
,
0000
0010
0000
0000
0020
0000
0033
0000
,
2000
0000
0000
0010
0000
0000
0010
0000
,
0000
0010
0000
0000
0020
0000
3030
0000
,
0002
0000
0000
0100
0000
0000
0100
0000
,
0000
0100
0000
0000
0200
0000
0303
0000
,
0020
0000
0000
0030
2000
0000
0000
3000
,
0002
0000
0000
0003
0020
0000
0000
0030
,
0200
0000
0000
0300
2000
0000
0000
0000
,
0002
0000
0000
0000
,
0000
0000
0000
0000
,
0000
0000
3003
0001
,
0001
0100
0100
1000
,
0100
0002
0003
1000
,
0100
0010
0001
0100
,
0010
0110
0000
1000
,
1000
0100
0100
0001
,
0100
2000
3000
0001
,
0100
0010
1000
0100
,
0010
0110
0000
0001
,
1000
0001
0100
0010
,
0001
0020
0030
1000
,
0001
1000
0100
0010
,
1000
0020
0030
0001
,
0100
1000
0100
0001
,
0100
0020
0030
1000
,
0100
0001
0100
1000
,
0100
0020
0030
0001
,
0001
0010
0010
1000
,
0010
0002
0003
1000
,
1000
0100
0100
0010
,
0001
1001
0000
1000
,
1000
0010
0010
0001
,
0010
2000
3000
0001
,
0000
0011
0000
0000
1100
0000
1000
0000
,
0001
1000
1001
0110
,
0000
0110
0000
0000
0110
0000
0002
0000
,
0000
0000
2000
0000
,
0000
0000
0000
0000
,
0000
0000
3003
0000
;

//--------------- dance-single - Talkion (X-Scale 9) ----------------
#NOTEDATA:;
#STEPSTYPE:dance-single;
#DESCRIPTION:Talkion (X-Scale 9);
#DIFFICULTY:Medium;
#METER:6;
#RADARVALUES:0,0,0,0,0;
#NOTES:
0000
0000
0000
0000
,
0000
0000
0000
0000
,
0000
0000
0000
0000
,
0000
0000
0000
0000
,
0000
0000
0000
0000
,
0001
0000
0001
0000
0010
0001
0000
0000
,
1000
0000
1000
0000
0010
1000
0000
0000
,
0001
0000
0001
0000
0010
0001
0000
0000
,
1000
0010
0100
1001
,
0001
0011
0010
1010
,
1000
0000
1100
0000
0100
0001
0100
0000
,
0001
0101
0100
1100
,
1000
0000
1010
0000
0010
0001
0010
0000
,
0001
0011
0010
1010
,
1000
0000
1100
0000
0100
0001
0100
0000
,
0001
0011
1000
1010
,
0002
0000
0000
0003
,
1000
0100
1000
0000
0100
0001
0100
0000
,
1000
0100
1000
0000
0100
0010
0001
0000
,
0001
0100
0001
0000
0100
1000
0100
0000
,
0001
0100
0001
0000
0100
0010
1000
0000
,
1000
0100
1000
0000
0100
0010
0001
0000
,
0010
0100
0010
0000
0100
1000
0001
0000
,
0001
0010
0001
0000
0010
1000
0010
0000
,
0001
0010
0001
0000
0010
0100
1000
0000
,
1000
0001
0100
0000
0001
1000
0100
0000
,
0010
0001
0010
1000
0010
0000
1001
0000
,
0001
1000
0010
0000
1000
0001
0010
0000
,
0100
0001
0100
1000
0100
0000
1001
0000
,
1000
0010
0100
0000
1000
0100
0010
0000
,
1000
0001
0010
0100
1000
0000
0110
0000
,
0001
0001
0000
1000
1000
0000
0010
0010
,
0000
0100
0100
0000
0010
0000
1001
0000
,
0002
0000
0000
0023
0000
0000
0230
0000
,
0000
2300
0000
0000
0010
0000
3100
0000
,
2000
0000
0000
3020
0000
0000
0230
0000
,
0000
0302
0000
0000
0010
0000
0103
0000
,
0002
0000
0000
0023
0000
0000
2030
0000
,
0000
3020
0000
0000
0001
0000
0130
0000
,
0200
2300
3020
0032
,
0203
0302
0023
2030
,
3200
0320
0032
2003
,
3020
0230
0302
0000
,
0000
0000
0000
0000
,
0000
0000
0000
0000
0003
0000
1000
0100
,
1000
0100
0001
0000
1000
0000
0001
0100
,
1000
0000
0001
0000
0100
0000
0000
0000
0010
0000
0000
0000
0100
0000
0000
0001
,
0000
0000
1000
0000
0100
0000
0000
1000
0000
0000
0001
0000
0100
0000
0000
0010
,
0000
0100
0000
0010
0000
0000
0000
1001
0000
0000
0000
0000
0001
0000
0010
0000
,
0001
0010
1000
0000
0001
0000
1000
0010
,
0001
0000
1000
0000
0010
0000
0000
0000
0100
0000
0000
0000
0010
0000
0000
1000
,
0000
0000
0100
0000
0000
0010
0000
0000
0001
0000
0000
0000
1000
0000
0000
0001
,
0000
1000
0000
0001
0000
0000
0000
0110
0000
0000
0000
0000
1000
0000
0100
0000
,
0010
0000
0001
0100
0010
0000
1000
0001
,
0010
0000
1000
0010
0001
0000
0001
0010
,
0100
0000
1000
0010
0100
0000
0001
1000
,
0100
0000
0001
0100
1000
0000
1000
0001
,
0010
0000
0100
0001
0100
0000
0010
0001
,
1000
0000
0010
0100
0001
0000
0001
1000
,
0100
0000
0010
1000
0010
0000
0100
1000
,
0001
0000
0100
0010
1000
0000
1000
0100
,
0010
0001
0100
0000
1000
0000
0100
0010
,
0100
0001
1000
0000
0001
0000
0001
0010
,
0100
1000
0010
0000
0001
0000
0010
0100
,
0010
1000
0001
0000
1000
0000
1000
0100
,
0001
0100
0010
0000
0001
0000
0010
0100
,
1000
0000
0001
0000
0100
0000
0000
0000
0010
0000
0000
0000
0100
0000
0000
0001
,
0000
0000
1000
0000
0000
0100
0000
0000
0010
0000
0000
0000
0001
0000
0000
1000
,
0000
0001
0000
1000
0000
0001
0000
1000
0000
0000
0000
0000
0010
0000
0000
0110
,
0000
0000
0100
0000
0000
0110
0000
0000
1001
0000
0000
0000
0020
0000
0000
0000
,
0000
0000
0000
0000
0000
0000
0000
0200
0000
0000
0000
0000
0000
0000
0000
0000
,
0000
0000
0000
0000
,
0000
0000
0330
0000
;

//--------------- dance-single - Talkion (X-Scale 13) ----------------
#NOTEDATA:;
#STEPSTYPE:dance-single;
#DESCRIPTION:Talkion (X-Scale 13);
#DIFFICULTY:Hard;
#METER:9;
#RADARVALUES:0,0,0,0,0;
#NOTES:
0000
0000
0000
0000
,
0000
0000
0000
0000
,
0000
0000
0000
0000
,
0000
0000
0000
0000
,
0000
0000
0000
0000
,
0100
0000
0001
0000
0100
1000
0000
0000
,
0100
0000
0001
0000
0100
1000
0000
0000
,
0100
0000
0001
0000
0010
0100
0000
0000
,
0010
0000
0001
0000
1000
0010
0110
0000
,
0001
0020
0000
0030
0010
0000
0100
0000
0010
0002
0000
0003
0001
0000
1000
0000
,
0010
2000
0000
3000
1000
0000
0010
0100
0000
0200
0000
0300
0100
0000
0010
0000
,
1000
0200
0000
0300
0100
0000
0010
0000
0100
2000
0000
3000
1000
0000
0001
0000
,
0100
0002
0000
0003
0001
0000
0100
0010
0000
0020
0000
0030
0010
0000
0100
0000
,
0001
0020
0000
0030
0010
0000
0100
0000
1000
0200
0000
0300
0100
0000
0010
0000
,
0001
2000
0000
3000
1000
0000
0001
0100
0000
0200
0000
0300
0100
0000
0010
0000
,
1000
0200
0000
0300
0100
0000
0010
0000
0001
0020
0000
0030
0010
0000
0100
0000
,
2000
0000
0000
3020
0000
0000
0032
0000
0000
0203
0000
0000
1300
0000
0000
0000
,
0001
0000
0001
0100
0000
0000
0100
0000
0100
0010
0000
0000
0010
0000
0010
1000
,
0000
0000
1000
0000
1000
0100
0000
0000
0100
0010
0100
0000
0010
0000
0001
0000
,
1000
0000
1000
0010
0000
0000
0010
0000
0010
0100
0000
0000
0100
0000
0100
0001
,
0000
0000
0001
0000
0001
1000
0000
0000
1000
0001
1000
0000
0001
0000
0010
0000
,
0100
0000
0100
0010
0000
0000
0010
0000
0010
0001
0000
0000
0001
0000
0001
0100
,
0000
0000
0100
0000
0100
0010
0000
0000
0010
1000
0010
0000
1000
0000
0100
0000
,
0010
0000
0010
0001
0000
0000
0001
0000
0001
1000
0000
0000
1000
0000
1000
0010
,
0000
0000
0010
0000
0010
1000
0000
0000
1000
0100
1000
0000
0100
0000
0000
0000
,
0010
0000
0001
0010
0001
0000
1000
0000
0001
0100
0001
0000
1000
0000
0001
0010
,
0001
0000
1000
0000
0010
0100
0010
0000
1000
0100
0010
0000
0100
0000
1000
0000
,
0010
0000
1000
0010
1000
0000
0001
0000
1000
0100
1000
0000
0001
0000
1000
0010
,
1000
0000
0001
0000
0010
0100
0010
0000
0001
0100
0010
0000
0100
0000
0001
0000
,
0010
0000
0100
1000
0100
0000
0010
0000
0001
0100
0001
0000
0010
0000
0100
1000
,
0100
0000
0010
0000
0001
1000
0001
0000
0100
0010
1000
0000
0010
0000
0100
0000
,
0001
0010
0001
0020
0000
0030
0100
1000
0100
2000
0000
3000
0001
0100
0001
0200
,
0000
0300
0010
1000
0010
2000
0000
3000
0001
0010
0100
0000
1001
0000
0000
0000
,
1000
2000
0000
0010
3020
0000
0001
0032
,
0000
0100
0203
0000
2300
0000
3001
0000
,
0001
0002
0000
0010
0023
0000
1000
2030
,
0000
0100
3200
0000
0302
0000
1003
0000
,
1000
2000
0000
0010
3020
0000
0001
0032
,
0000
1000
2003
0000
3020
0000
0031
0000
,
0001
0100
1000
0000
1000
0100
0001
0000
,
0001
0010
1000
0000
1000
0010
0001
0000
,
1000
0010
0001
0100
0001
0010
1000
0100
,
0010
0001
0010
0100
2000
0000
0000
0000
,
0000
0000
0000
0000
,
0000
0000
0000
0000
0000
0000
0000
0000
3000
0000
0000
0000
0001
0100
0001
0000
,
0100
0010
0000
0100
0000
0100
0000
0010
1000
0000
0100
0000
0010
0001
0000
0010
,
0000
0100
0000
2000
0000
0000
0000
0000
3010
0000
0100
0000
0010
0000
0000
0010
,
1000
0000
0100
0000
0010
0000
0000
0010
0001
0000
0010
0000
0100
1000
0100
1000
,
0000
0001
0000
0100
0000
0010
0000
2002
0000
3003
0000
0000
1000
0010
1000
0000
,
0010
0100
0000
0010
0000
0010
0000
0100
0001
0000
0010
0000
0100
1000
0000
0100
,
0000
0010
0000
0002
0000
0000
0000
0000
0103
0000
0010
0000
0100
0000
0000
0100
,
0001
0000
0001
0000
0000
0001
1000
0000
1000
0000
0010
0000
0100
0001
0100
0001
,
0000
1000
0000
0100
0000
0010
0000
2002
0000
3003
0000
0000
0001
0000
0010
0000
,
0100
0000
1000
0000
1000
0010
0000
0000
0010
0000
0010
0100
0000
0000
0100
0000
,
0100
1000
0000
0000
1000
0100
0010
0000
1000
0000
0001
0000
1000
0000
1000
0001
,
0000
0000
0001
0000
0001
0100
0000
0000
0100
0000
0100
0010
0000
0000
0010
0000
,
0010
0001
0000
0000
0001
0010
0100
0000
0001
0000
1000
0000
0001
0000
0001
0010
,
0000
0000
0010
0000
0010
0100
0000
0000
0100
0000
0100
1000
0000
0000
1000
0000
,
1000
0010
0000
0000
0010
0001
0010
0000
0100
0000
0010
0000
1000
0000
1000
0100
,
0000
0000
0100
0000
0100
0010
0000
0000
0010
0000
0010
0001
0000
0000
0001
0000
,
0001
0100
0000
0000
0100
1000
0100
0000
0010
0000
0000
0000
1000
0001
1000
0000
,
0100
0010
0000
0001
0000
0001
0000
0010
0100
0000
1000
0000
0001
0100
0000
0010
,
0000
1000
0000
0200
0000
0000
0000
0000
0001
0000
0000
0000
1300
0001
1000
0000
,
0010
0100
0000
0001
0000
0001
0000
0100
0010
0000
1000
0000
0001
0010
0001
0010
,
0000
0100
0000
0010
0000
0001
0000
2002
0000
3003
0000
0000
1000
0010
1000
0000
,
0010
1000
0000
0010
0000
0010
0000
0100
0001
0000
0100
0000
0010
1000
0000
0100
,
0000
0010
0000
0002
0000
0000
0000
0000
0013
0000
0100
0000
1000
0001
1000
0002
,
0000
0003
0100
0010
0100
0020
0000
0030
1000
0000
0100
0000
0010
0001
0010
0001
,
0000
0100
0000
0010
0000
1000
0000
2002
0000
3003
0000
0000
0001
0100
0001
0200
,
0000
0300
0010
1000
0010
2000
0000
3000
0001
0000
0010
0000
0100
0010
0000
0001
,
0000
1000
0000
0010
0000
0100
0000
0220
0000
0000
0000
0000
0000
0000
0000
0000
,
0000
0000
0000
0000
,
0000
0000
0330
0000
;

//--------------- dance-single - Talkion (X-Scale 15) ----------------
#NOTEDATA:;
#STEPSTYPE:dance-single;
#DESCRIPTION:Talkion (X-Scale 15);
#DIFFICULTY:Challenge;
#METER:10;
#RADARVALUES:0,0,0,0,0;
#NOTES:
0000
0000
0000
0000
,
0000
0000
0000
0000
,
0000
0000
0000
0000
,
0000
0000
0000
0000
,
0000
0000
0000
0000
,
0100
0000
1001
0000
0100
1100
0000
0100
,
0010
0000
1001
0000
0010
0011
0000
0010
,
0100
0000
1001
0000
0100
1100
0000
0100
,
0010
0001
0010
0000
0001
0010
0001
0000
0100
0000
0010
0000
1001
0000
0000
0000
,
1000
0100
0000
M100
0002
0000
0003
0000
0001
0100
0000
010M
2000
0000
3000
0000
,
1000
0100
0000
M100
0001
0000
0010
0100
0000
0010
0000
0010
0001
0000
1000
0000
,
0001
0100
0000
010M
2000
0000
3000
0000
1000
0100
0000
M100
0002
0000
0003
0000
,
0001
0100
0000
010M
1000
0000
0010
0100
0000
0001
0000
0001
0010
0000
0100
0000
,
1000
0010
0000
M010
0002
0000
0003
0000
0001
0010
0000
001M
2000
0000
3000
0000
,
1000
0010
0000
M010
0001
0000
0100
0010
0000
0001
0000
0001
0010
0000
0100
0000
,
0001
0010
0000
001M
2000
0000
3000
0000
1000
0010
0000
M010
0001
0000
0100
0000
,
0020
0000
0000
2030
0000
0000
3200
0000
0000
0020
0330
0000
MMMM
0000
0000
0000
,
0001
0100
0001
0020
0000
0000
0130
1000
0100
0020
0000
0000
0031
1000
0001
0200
,
0000
0000
0000
0000
0000
0000
0310
0000
1000
0000
0010
0000
1000
0000
0000
0002
0000
0000
0000
0000
0000
0000
0000
0000
0013
0000
0000
0100
0000
0000
0020
0000
0000
0000
0000
0000
0032
0000
0000
0000
0000
0000
2003
0000
0000
0000
0000
0000
,
3010
0100
0001
0200
0000
0000
0310
1000
0001
2000
0000
0000
3100
0010
0001
0020
,
0000
0000
0000
0000
0000
0000
0130
0000
1000
0000
0100
0000
1000
0000
0000
0002
0000
0000
0000
0000
0000
0000
0000
0000
0103
0000
0000
0010
0000
0000
0200
0000
0000
0000
0000
0000
0302
0000
0000
0000
0000
0000
2003
0000
0000
0000
0000
0000
,
3100
0000
0000
0010
0000
0000
0001
0000
0000
0200
0000
0000
0000
0000
0000
0000
0000
0000
0310
0000
1000
0000
0010
0000
1000
0000
0000
0002
0000
0000
0000
0000
0000
0000
0000
0000
0013
0000
0001
0000
0010
0000
0001
0000
0000
2000
0000
0000
,
0000
0000
0000
0000
0000
0000
3010
0000
1000
0000
0010
0000
1000
0000
0000
0002
0000
0000
0000
0000
0000
0000
0000
0000
0013
0000
0000
0100
0000
0000
0020
0000
0000
0000
0000
0000
0032
0000
0000
0000
0000
0000
2003
0000
0000
0000
0000
0000
,
3010
0000
0000
0100
0000
0000
0001
0000
0000
0020
0000
0000
0000
0000
0000
0000
0000
0000
0130
0000
1000
0000
0100
0000
1000
0000
0000
0002
0000
0000
0000
0000
0000
0000
0000
0000
0103
0000
0001
0000
0100
0000
0001
0000
0000
2000
0000
0000
,
0000
0000
0000
0000
0000
0000
3100
0000
1000
0000
0100
0000
1000
0000
0000
0002
0000
0000
0000
0000
0000
0000
0000
0000
0103
0000
0000
0000
0000
0000
0010
0000
0000
0000
0000
0000
1001
0000
0000
0000
0000
0000
0000
0000
0000
0000
0000
0000
,
1000
0100
1000
0100
0010
0000
0001
0010
0001
0010
0100
0000
1000
0001
1000
0001
,
0100
0000
0010
0100
0010
0100
0001
0000
2000
0000
0100
3000
0002
0000
0010
0003
,
1000
0010
1000
0010
0100
0000
0001
0100
0001
0100
0010
0000
1000
0001
1000
0001
,
0010
0000
0100
0010
0100
0010
0001
0000
2000
0000
0010
3000
0002
0000
0100
0003
,
1000
0100
1000
0100
0010
0000
1000
0010
1000
0010
0100
0000
1000
0001
1000
0001
,
0100
0000
0010
0100
0010
0100
0001
0000
2000
0000
0100
3000
0002
0000
0010
0003
,
1000
0100
1000
0200
0000
0300
0001
0100
0001
0200
0000
0300
1000
0010
1000
0020
,
0000
0030
0001
0010
0001
0020
0000
0030
1000
0100
0010
0000
1001
0000
0000
0000
,
0001
0200
0000
130M
0200
0000
M301
0200
,
0000
130M
0100
0001
0010
0100
1000
0000
,
0001
0020
0000
103M
0020
0000
M031
0020
,
0000
103M
0010
0001
0100
0010
1000
0000
,
0001
0200
000M
1300
0002
0000
1003
0200
,
M000
0301
0010
0100
0010
0001
1000
0000
,
0001
0100
1000
0010
0001
0010
1000
0100
,
0001
1000
0010
0001
1000
0010
0001
1000
,
0001
0010
1000
0100
0001
0100
1000
0010
,
0002
0100
0203
0010
0020
0000
0000
0000
,
0000
0000
0000
0000
,
0000
0000
0000
0000
0000
0000
0330
0000
MMMM
0000
0000
0000
0100
0001
0100
0001
,
1000
0100
0000
0010
0000
0010
0000
0001
0010
0000
0100
0000
1000
0001
1000
0001
,
0000
0100
0000
1000
0200
0000
0000
0000
0310
0000
1000
0000
0001
0000
1000
0100
,
0000
M100
0001
0000
1000
0000
0001
0010
0000
001M
1000
0000
0001
0010
0001
0010
,
0000
0100
1000
0010
0000
0100
0000
2002
0000
3003
0000
0000
0010
1000
0010
1000
,
0001
0010
0000
0100
0000
0100
0000
1000
0100
0000
0010
0000
0001
1000
0001
1000
,
0000
0010
0000
0001
0020
0000
0000
0000
0130
0000
0001
0000
1000
0000
0001
0010
,
0000
001M
1000
0000
1000
0100
0000
M100
0001
0000
0010
0000
0100
1000
0100
1000
,
0000
0100
0010
0001
0000
1000
0000
0220
0000
0330
0000
0000
0100
0000
0010
0000
,
1001
0000
0000
0000
0000
0000
0001
0000
0000
0010
0000
0000
0100
0000
0000
2000
0000
0000
0000
0000
0000
0000
0000
0000
3010
0000
0000
0001
0000
0000
0010
0000
0000
0200
0000
0000
0000
0000
0000
0000
0000
0000
0301
0000
1000
0000
0001
0000
,
1000
0200
0000
0000
0310
0001
0200
0000
0320
0000
2030
0000
3001
0010
0100
2000
,
0000
0000
0000
0000
0000
0000
3001
0000
0000
0100
0000
0000
0010
0000
0000
2000
0000
0000
0000
0000
0000
0000
0000
0000
3100
0000
0000
0001
0000
0000
0100
0000
0000
0020
0000
0000
0000
0000
0000
0000
0000
0000
0031
0000
1000
0000
0001
0000
,
1000
0020
0000
0000
0130
0001
0020
0000
0230
0000
2300
0000
3100
0010
0100
0020
,
0000
0000
0000
0000
0000
0000
0031
0000
0100
0000
0001
0000
0100
0000
0000
0020
0000
0000
0000
0000
0000
0000
0000
0000
1030
0000
0010
0000
1000
0000
0010
0000
0000
0200
0000
0000
0000
0000
0000
0000
0000
0000
0301
0000
0100
0000
0001
0000
,
0100
0020
0000
0000
1030
0100
0002
0000
0203
0000
2300
0000
3010
0100
0010
0200
,
0000
0000
0000
0000
0000
0000
0301
0000
0010
0000
0001
0000
0010
0000
0000
0200
0000
0000
0000
0000
0000
0000
0000
0000
1300
0000
0100
0000
1000
0000
0100
0000
0000
0020
0000
0000
0000
0000
0000
0000
0000
0000
0031
0000
0010
0000
0001
0000
,
0010
0200
0000
0000
1300
0000
0010
0000
1001
0000
0000
0000
1000
0100
1000
0100
,
0010
0100
0000
0001
0000
0001
0000
0100
0010
0000
0001
0000
1000
0010
1000
0010
,
0000
0001
0000
0010
0200
0000
0000
0000
0310
0000
1000
0000
0100
0010
0100
0010
,
0001
1000
0000
0010
0000
0010
0000
0100
0010
0000
1000
0000
0100
0010
0001
0010
,
0000
0100
1000
0010
0000
0100
0000
1002
0000
0000
1003
0000
0001
0100
0001
0100
,
0010
0100
0000
1000
0000
1000
0000
0100
0010
0000
1000
0000
0001
0010
0001
0010
,
0000
1000
0000
0010
0200
0000
0000
0000
0310
0000
0001
0000
1000
0010
1000
0020
,
0000
0030
0001
0010
0001
0020
0000
0030
1000
0000
0100
0000
0010
0001
0100
0010
,
0000
0100
0010
1000
0000
0110
0000
2001
0000
0000
3001
0000
0010
1000
0010
0002
,
0000
0003
0100
1000
0100
0002
0000
0003
1000
0000
0100
0000
0010
0001
1000
0001
,
0000
0100
0000
0010
0000
0010
0000
2002
0000
0000
0000
0000
0000
0000
0000
0000
,
0000
0000
0000
0000
,
0000
0000
3003
0000
;
