#TITLE:connective;
#SUBTITLE:;
#ARTIST:猫叉Master feat. *spiLa*;
#TITLETRANSLIT:;
#SUBTITLETRANSLIT:;
#ARTISTTRANSLIT:;
#GENRE:;
#CREDIT:;
#BANNER:[Qualifier] - connective-bn.png;
#BACKGROUND:[Qualifier] - connective-bg.png;
#LYRICSPATH:;
#CDTITLE:;
#MUSIC:[Qualifier] - connective.mp3;
#OFFSET:1.848000;
#SAMPLESTART:91.901993;
#SAMPLELENGTH:15.000000;
#LASTBEATHINT:1.809067;
#SELECTABLE:YES;
#BPMS:0.000000=128.000000
;
#STOPS:
;
#BGCHANGES:;
#KEYSOUNDS:;
#ATTACKS:;

//---------------dance-single - ----------------
#NOTES:
     dance-single:
     :
     Hard:
     8:
     0.453038,0.564131,0.198722,0.322923,0.339483,383.000000,359.000000,24.000000,39.000000,0.000000,0.000000,0.453038,0.564131,0.198722,0.322923,0.339483,383.000000,359.000000,24.000000,39.000000,0.000000,0.000000:
// measure 0
0000
0000
0000
0000
,  // measure 1
0000
0000
0000
0000
,  // measure 2
0000
0000
0000
0000
,  // measure 3
0000
0000
0000
0000
,  // measure 4
0000
0000
0000
0000
,  // measure 5
1000
0010
0100
0010
1000
0000
0001
0000
,  // measure 6
0001
0010
0100
0010
0001
0000
0100
0000
,  // measure 7
0100
0010
1000
0010
0100
0000
0010
0000
,  // measure 8
0010
1000
0001
1000
0010
0000
1010
0000
,  // measure 9
0010
1000
0000
0000
1000
0100
0000
0000
0100
0010
0000
0000
0010
0001
0000
0000
,  // measure 10
0001
0100
0000
0000
0100
0010
0000
0000
0010
1000
0000
0000
1000
0100
0000
0000
,  // measure 11
0100
0010
0000
0000
0010
0001
0000
0000
0001
0100
0000
0000
0100
0010
0000
0000
,  // measure 12
1000
0001
0100
0010
1001
0000
0110
0000
,  // measure 13
0001
0100
0010
0100
0001
0000
1000
0000
,  // measure 14
1000
0100
0010
0100
1000
0000
0010
0000
,  // measure 15
0010
0100
0001
0100
0010
0000
0100
0000
,  // measure 16
0100
0001
1000
0001
0100
0000
0101
0000
,  // measure 17
0100
0001
0000
0000
0001
0010
0000
0000
0010
0100
0000
0000
0100
1000
0000
0000
,  // measure 18
1000
0010
0000
0000
0010
0100
0000
0000
0100
0001
0000
0000
0001
0010
0000
0000
,  // measure 19
0011
0000
0000
0110
0000
0000
0000
0000
1001
0000
0000
0110
0000
0000
0000
0100
,  // measure 20
0001
0000
1000
0000
0100
0000
0010
0000
0001
0000
0100
0010
0000
1000
0000
0000
,  // measure 21
0200
0000
0000
0000
1000
0000
0000
0000
1000
0000
0000
0000
1000
0000
0000
1300
,  // measure 22
0000
0000
0100
0000
0010
0000
1000
0000
0010
0000
0001
0000
1000
0001
0000
2000
,  // measure 23
0000
0000
0000
0000
0100
0000
0000
0000
0100
0000
0000
0000
0100
0000
0000
3100
,  // measure 24
0000
0000
1000
0000
0001
0000
0100
0000
0001
0000
0010
0000
0100
0010
0000
0200
,  // measure 25
0000
0000
0000
0000
0010
0000
0000
0000
0010
0000
0000
0000
0010
0000
0000
1300
,  // measure 26
0000
0000
0100
0000
0010
0000
0001
0000
1000
0000
0010
0000
0001
0010
0000
2000
,  // measure 27
0000
0000
0000
0000
0000
0000
3100
0000
1000
0000
0000
0100
0010
0000
0000
0002
,  // measure 28
0000
0000
0000
0000
0000
0000
0103
0000
0010
0000
0000
1000
0000
0000
0100
0000
,  // measure 29
0020
0000
0000
0000
0000
0000
0001
0000
0031
0000
0010
0100
0010
0000
0100
0010
,  // measure 30
0100
0000
0110
0000
1000
0100
0001
0100
,  // measure 31
2000
0000
0000
0001
0000
0000
0001
0000
3000
0000
0010
0100
0010
0000
0100
0010
,  // measure 32
0100
0000
0110
0000
0010
0001
1000
0010
,  // measure 33
0000
1000
0000
0001
1000
0000
0000
0000
1001
0000
1001
0000
1001
0000
0000
0000
,  // measure 34
0001
0010
0100
0010
0001
0000
1000
0000
,  // measure 35
1000
0010
0100
0010
1000
0000
0100
0000
,  // measure 36
0100
0010
0001
0010
0100
0000
0010
0000
,  // measure 37
0010
0001
1000
0001
0010
0000
0011
0000
,  // measure 38
0010
0001
0000
0000
0001
0100
0000
0000
0100
0010
0000
0000
0010
1000
0000
0000
,  // measure 39
1000
0100
0000
0000
0100
0010
0000
0000
0010
0001
0000
0000
0001
0100
0000
0000
,  // measure 40
0100
0010
0000
0000
0010
1000
0000
0000
1000
0100
0000
0000
0100
0010
0000
0000
,  // measure 41
0001
1000
0100
0010
1001
0000
0110
0000
,  // measure 42
1000
0100
0010
0100
1000
0000
0001
0000
,  // measure 43
0001
0100
0010
0100
0001
0000
0010
0000
,  // measure 44
0010
0100
1000
0100
0010
0000
0100
0000
,  // measure 45
0100
1000
0001
1000
0100
0000
1100
0000
,  // measure 46
0100
1000
0000
0000
1000
0010
0000
0000
0010
0100
0000
0000
0100
0001
0000
0000
,  // measure 47
0001
0010
0000
0000
0010
0100
0000
0000
0100
1000
0000
0000
1000
0010
0000
0000
,  // measure 48
0010
0100
0000
0000
0100
0001
0000
0000
0001
0010
0000
0000
0010
0100
0000
0000
,  // measure 49
0100
0000
0000
1000
0000
0000
0010
0000
0000
0000
0100
0000
0010
0000
0000
0000
,  // measure 50
2000
3020
0230
0302
,  // measure 51
2003
3020
0230
0302
,  // measure 52
2003
3020
0230
0302
,  // measure 53
2003
3020
0230
0302
,  // measure 54
2003
3200
0302
0023
,  // measure 55
2030
3200
0302
0023
,  // measure 56
2030
3020
0032
0203
,  // measure 57
2300
3020
0032
0203
,  // measure 58
1300
0001
0000
0000
0100
0000
0001
0000
0010
0000
0100
0000
1000
0001
0000
0110
,  // measure 59
0000
1001
0000
0000
0010
0000
0001
0000
0100
0000
0010
0000
1000
0001
0000
0110
,  // measure 60
0000
1001
0000
0000
0100
0000
0001
0000
0010
0000
0100
0000
1000
0001
0000
0110
,  // measure 61
0000
1001
0000
0000
0010
0000
0100
0000
0001
1000
0000
0000
0001
1000
0000
0110
;
