#TITLE:TANK!;
#SUBTITLE:;
#ARTIST:THE SEATBELTS;
#TITLETRANSLIT:;
#SUBTITLETRANSLIT:;
#ARTISTTRANSLIT:;
#GENRE:;
#CREDIT:;
#BANNER:;
#BACKGROUND:;
#LYRICSPATH:;
#CDTITLE:;
#MUSIC:tank.ogg;
#OFFSET:-0.403000;
#SAMPLESTART:61.777000;
#SAMPLELENGTH:9.820000;
#SELECTABLE:YES;
#BPMS:0.000000=140.776993
;
#STOPS:
;
#BGCHANGES:;
#KEYSOUNDS:;
#ATTACKS:;

//---------------dance-single - ----------------
#NOTES:
     dance-single:
     :
     Hard:
     8:
     0.509170,0.573612,0.311867,0.066829,0.406540,320.000000,292.000000,28.000000,6.000000,0.000000,0.000000,0.509170,0.573612,0.311867,0.066829,0.406540,320.000000,292.000000,28.000000,6.000000,0.000000,0.000000:
0000
0000
0000
0000
,
0000
0000
0000
0000
,
1000
0000
0000
1000
0000
0000
1000
0000
0001
0000
0000
0001
0000
0000
0001
0000
,
1000
0000
0000
1000
0000
0000
1000
0000
0001
0000
0000
0001
0000
0000
0001
0000
,
1000
0000
0000
0100
0000
0000
0100
0000
0001
0000
0000
0100
0000
0000
0100
0000
,
1000
0000
0000
0100
0000
0000
0100
0000
0001
0000
0000
0100
0000
0000
0100
0000
,
1000
0000
0000
0100
0000
0000
0010
0000
0001
0000
0000
0100
0000
0000
0010
0000
,
1000
0000
0000
0100
0000
0000
0010
0000
0001
0000
1000
0000
0100
0000
0000
0000
,
1000
0000
0000
0010
0000
0000
1000
0000
0000
0010
0000
0000
0100
0000
0001
0000
,
0010
0000
0000
0001
0000
0000
0001
0000
1000
0000
0000
0001
0000
0000
0001
0000
,
0001
0000
0000
0010
0000
0000
0001
0000
0000
0010
0000
0000
0100
0000
1000
0000
,
0010
0000
0000
1000
0000
0000
1000
0000
0001
0000
0000
1000
0000
0000
1000
0000
,
0100
0000
0000
1000
0000
0000
0100
0000
0000
1000
0000
0000
0001
0000
0100
0000
,
0010
0000
0000
0100
0000
0000
0100
0000
0001
0000
0000
1000
0000
0000
1000
0000
,
0001
0000
0000
0100
0000
0000
0001
0000
0000
0100
0000
0000
0010
0000
1000
0000
,
0001
0000
0000
1000
0000
0000
1000
0000
0010
0000
0000
0100
0000
0000
0100
0000
,
1001
0000
0000
1000
0000
0000
1010
0000
0000
0001
0000
0000
0011
0000
0000
0000
,
1001
0000
0000
1000
0000
0000
1100
0000
0000
0001
0000
0000
0101
0000
0000
0000
,
1000
0001
0000
1000
0001
0000
0010
0100
0000
0010
0100
0000
1000
0000
0100
0000
,
0010
0000
0001
0000
1000
0001
0000
1000
,
0001
0010
0001
1000
0100
0010
0001
0100
,
0010
1000
0010
0100
0001
0010
0100
1000
,
0001
0000
0000
1000
0000
0000
0010
0000
0100
0000
0000
0001
0000
0000
1000
0000
,
0100
0000
0000
0010
0000
0000
0001
0000
0100
0000
0000
0010
0000
0000
1000
0000
,
0001
0100
1000
0100
0001
0010
0100
1000
,
0001
0010
1000
0010
0001
0100
0010
1000
,
1010
0000
0000
1001
0000
0000
0001
0010
0001
0000
0000
1001
0000
0000
1000
0010
,
1000
0000
0000
0110
0000
0000
0001
0000
0100
0000
0010
0000
1000
0000
0000
0000
,
0001
0000
0000
0010
0000
0000
0001
0000
0000
0010
0000
0000
0100
0000
1000
0000
,
0010
0100
0001
0100
1000
0100
0001
0000
,
1000
0000
0000
0010
0000
0000
1000
0000
0000
0010
0000
0000
0100
0000
0001
0000
,
0010
0001
0000
1000
0000
0001
0000
0010
0000
0100
0000
1000
0010
0000
0100
0000
,
0001
0000
0000
0100
0000
0000
0001
0000
0000
0100
0000
0000
0010
0000
1000
0000
,
0001
0100
1000
0100
0001
0010
0100
1000
,
0001
0000
0000
0100
0000
0000
0001
0000
0000
0100
0000
0000
0010
0000
1000
0000
,
0100
0010
0001
1000
0010
0100
0000
0000
,
1001
0000
0000
1000
0000
0000
1010
0000
0000
0001
0000
0000
0011
0000
0000
0000
,
1001
0000
0000
1000
0000
0000
1100
0000
0000
0001
0000
0000
0101
0000
0000
0000
,
0110
0000
0000
1001
0000
0000
0110
0000
0000
1001
0000
0000
0110
0000
0000
0000
,
0000
0000
1000
0010
0000
0000
0100
0000
0001
0010
0000
0000
1001
0000
0000
0000
,
1010
0000
0000
1001
0000
0000
1010
0000
0000
0000
0000
0000
0001
0000
1000
0000
,
0001
0010
0100
1000
0001
0010
0010
0000
,
0011
0000
0000
1001
0000
0000
0011
0000
0000
0000
0000
0000
1000
0000
0001
0000
,
1000
0010
0100
0001
1000
0100
0100
0000
,
0020
0000
0000
0001
0000
0000
0001
0000
0032
0000
0000
1000
0000
0000
1000
0000
,
2003
0000
0000
0010
0000
0000
0010
0000
3020
0000
0000
0100
0000
0000
0100
0000
,
0130
0001
0010
0001
1000
0100
0010
0001
,
0010
1000
0010
0001
2000
0000
0000
0000
,
0000
0000
0000
0000
0000
0000
0000
0002
0000
0000
0000
0000
0000
0000
0000
0000
0000
0000
0000
0000
0000
0000
0000
0000
,
0000
0000
0000
0000
,
0000
0000
0000
0000
,
0000
0000
3003
0000
;

//---------------dance-single - ----------------
#NOTES:
     dance-single:
     :
     Medium:
     5:
     0.361192,0.430209,0.178209,0.089105,0.044552,227.000000,211.000000,16.000000,8.000000,0.000000,0.000000,0.361192,0.430209,0.178209,0.089105,0.044552,227.000000,211.000000,16.000000,8.000000,0.000000,0.000000:
0000
0000
0000
0000
,
0000
0000
0000
0000
,
1000
1000
1000
1000
,
0001
0001
0001
0001
,
1000
0100
0100
0001
,
0001
0100
0100
1000
,
1000
0100
0010
0001
,
0100
0100
0100
1001
,
1000
0010
1000
0010
1000
0001
0000
1000
,
0100
0010
0001
1000
,
0001
0010
0001
0010
0001
1000
0000
0001
,
0100
0010
1000
0001
,
0100
0001
0100
0010
0100
0001
0000
1000
,
0001
1000
0100
0010
,
0100
1000
0100
0010
0100
1000
0000
0001
,
1000
0001
0100
0010
,
1010
0000
0000
1001
0000
0000
1010
0000
,
0011
0000
0000
1001
0000
0000
0011
0000
,
1000
0001
1000
0001
0100
0010
0100
0010
,
1000
0000
0001
0000
0010
0100
0000
2000
,
0000
0010
0100
3010
,
0100
0001
0010
0001
,
0100
0000
0000
0100
0000
0000
0000
0000
0001
0000
0000
0001
0000
0000
0000
0000
,
1000
0000
0000
1000
0000
0000
0000
0000
0010
0000
0000
0010
0000
0000
0000
0000
,
0200
0000
0001
1000
,
0301
0010
0100
1000
,
0001
0000
0000
0001
0000
0000
0000
0000
1000
0000
0000
1000
0000
0000
0000
0000
,
0010
0000
0000
0010
0000
0000
0000
0000
1000
0000
0100
0000
0010
0000
0000
0000
,
0001
0010
1000
0010
,
0001
0010
0001
1000
0001
0010
0100
0000
,
1000
0100
0001
0100
,
1000
0100
1000
0100
1000
0010
1000
0010
,
0100
0001
0010
0001
,
0100
0001
0100
0010
0100
0001
0010
0000
,
0100
1000
0010
1000
,
0100
0010
0001
0000
,
1001
0000
0000
0011
0000
0000
1001
0000
,
0110
0000
0000
1010
0000
0000
0110
0000
,
1001
0000
0000
0110
0000
0000
1001
0000
,
0000
1000
0000
0000
0001
0000
0000
0000
,
1000
0100
0010
0001
,
0100
0010
1000
0010
0100
0010
1000
0000
,
0001
0010
0100
1000
,
0010
0100
0001
0100
0010
0100
0001
0000
,
0020
0001
0032
1000
,
2003
0100
3200
0010
,
0310
0000
0010
0010
0010
0010
0010
0000
,
0001
1000
0001
0000
2000
0000
0000
0000
,
0000
0000
0000
0000
0000
0000
0000
0002
0000
0000
0000
0000
0000
0000
0000
0000
0000
0000
0000
0000
0000
0000
0000
0000
,
0000
0000
0000
0000
,
0000
0000
0000
0000
,
0000
0000
3003
0000
;

//---------------dance-single - ----------------
#NOTES:
     dance-single:
     :
     Easy:
     3:
     0.237082,0.286806,0.011138,0.033414,0.005569,149.000000,148.000000,1.000000,3.000000,0.000000,0.000000,0.237082,0.286806,0.011138,0.033414,0.005569,149.000000,148.000000,1.000000,3.000000,0.000000,0.000000:
// measure 0
0000
0000
0000
0000
,  // measure 1
0000
0000
0000
0000
,  // measure 2
1000
0000
1000
0000
,  // measure 3
0001
0000
0001
0000
,  // measure 4
1000
0000
0100
0000
,  // measure 5
0001
0000
0100
0000
,  // measure 6
1000
0000
0100
0000
,  // measure 7
0001
0000
0100
0000
,  // measure 8
0100
1000
0010
1000
,  // measure 9
0100
0000
0000
0000
,  // measure 10
0100
0001
0010
0001
,  // measure 11
0100
0000
0000
0000
,  // measure 12
0010
1000
0010
0001
,  // measure 13
0010
0000
0000
0000
,  // measure 14
0100
0001
0100
1000
,  // measure 15
0100
0000
0000
0000
,  // measure 16
0001
0000
0000
0001
0000
0000
0001
0000
,  // measure 17
1000
0000
0000
1000
0000
0000
1000
0000
,  // measure 18
0001
0010
0100
1000
,  // measure 19
0010
0000
0000
0000
1000
1000
0000
0001
,  // measure 20
0001
0100
0001
0010
,  // measure 21
0100
1000
0010
1000
,  // measure 22
0001
0001
1000
1000
,  // measure 23
0100
0100
0010
0010
,  // measure 24
0001
0100
0001
0010
,  // measure 25
0100
1000
0010
1000
,  // measure 26
0001
0001
1000
1000
,  // measure 27
0010
0010
0010
0010
,  // measure 28
0100
0001
0010
0001
,  // measure 29
1000
0100
0010
0001
,  // measure 30
1000
0100
0010
0100
,  // measure 31
1000
1000
1000
1000
,  // measure 32
0001
0010
0001
0100
,  // measure 33
0001
0010
0100
1000
,  // measure 34
0010
0100
0001
0100
,  // measure 35
0010
1000
0001
1000
,  // measure 36
0001
0000
0000
0001
0000
0000
0001
0000
,  // measure 37
1000
0000
0000
1000
0000
0000
1000
0000
,  // measure 38
0010
0000
0000
0010
0000
0000
0010
0000
,  // measure 39
0000
0100
0000
0000
0100
0000
0000
0000
,  // measure 40
0001
0010
0100
1000
,  // measure 41
0001
0100
1000
0100
,  // measure 42
0001
0100
0010
1000
,  // measure 43
0001
0010
1000
0010
,  // measure 44
0001
0001
1000
1000
,  // measure 45
0010
0010
0100
0100
,  // measure 46
0002
0000
0000
0000
,  // measure 47
0000
0000
0000
1003
,  // measure 48
0000
0000
0000
0000
0000
0000
0000
0220
0000
0000
0000
0000
0000
0000
0000
0000
0000
0000
0000
0000
0000
0000
0000
0000
,  // measure 49
0000
0000
0000
0000
,  // measure 50
0000
0000
0000
0000
,  // measure 51
0000
0000
0330
0000
;
