#TITLE:Shellfie;
#SUBTITLE:;
#ARTIST:Chirpy Chirps;
#TITLETRANSLIT:;
#SUBTITLETRANSLIT:;
#ARTISTTRANSLIT:;
#GENRE:Squid Bit;
#CREDIT:;
#BANNER:[Qualifier] - Shellfie.png;
#BACKGROUND:[Qualifier] - Shellfie-bg.png;
#LYRICSPATH:;
#CDTITLE:cdtitle.png;
#MUSIC:[Qualifier] - Shellfie.ogg;
#OFFSET:-0.333930;
#SAMPLESTART:36.396107;
#SAMPLELENGTH:12.435234;
#SELECTABLE:YES;
#BPMS:0.000000=193.000000
;
#STOPS:
;
#BGCHANGES:;
#KEYSOUNDS:;
#ATTACKS:;

//---------------dance-single - ----------------
#NOTES:
     dance-single:
     10-14:
     Challenge:
     10:
     0.791518,0.917253,0.725558,0.684333,0.247349,672.000000,584.000000,88.000000,83.000000,0.000000,0.000000,0.791518,0.917253,0.725558,0.684333,0.247349,672.000000,584.000000,88.000000,83.000000,0.000000,0.000000:
// measure 0
0000
0000
0000
0000
,  // measure 1
0001
0010
0100
0010
0001
1000
0001
0100
,  // measure 2
0000
0110
0000
0100
0001
1000
0100
0010
,  // measure 3
0100
1000
0001
0100
0010
1000
0000
0001
,  // measure 4
2000
0100
3200
0010
0320
0001
0001
0031
,  // measure 5
0011
1100
0011
1100
,  // measure 6
0001
0010
0001
0100
0000
0110
0000
0100
,  // measure 7
0001
0100
1000
0100
0010
0100
0001
1000
,  // measure 8
0100
0000
0100
0000
0010
0000
0000
0000
0110
0000
0010
0000
0001
1000
0001
1000
,  // measure 9
0010
0101
1010
0101
,  // measure 10
1000
0010
1000
0100
0000
0110
0000
0010
,  // measure 11
0001
1000
0010
1000
0001
0010
0001
0100
,  // measure 12
0120
0000
0000
0000
2030
0000
0000
0000
3200
0000
0000
0000
0310
0001
0010
0001
,  // measure 13
1000
0000
0000
0000
2000
3000
0200
0300
0002
0003
0000
0000
0004
0003
0400
0300
,  // measure 14
4000
3000
0000
0000
2000
3000
0200
0300
0002
0003
0000
0000
0004
0003
0400
0300
,  // measure 15
4000
3000
0000
0000
2000
3000
0200
0300
0002
0003
0000
0000
0004
0003
0400
0300
,  // measure 16
0220
0000
0330
0000
0022
0000
0033
0000
2002
0000
3003
0000
4000
3000
0040
0030
,  // measure 17
0104
0003
0000
0000
0002
0003
0200
0300
2000
3000
0000
0000
4000
3000
0400
0300
,  // measure 18
0004
0003
0000
0000
0002
0003
0200
0300
2000
3000
0000
0000
4000
3000
0400
0300
,  // measure 19
0001
0001
0100
0110
0000
1010
0000
1000
,  // measure 20
0200
0000
0010
0000
0310
0000
0002
0000
0010
0000
0013
0000
0001
1000
0001
1000
,  // measure 21
0010
0101
1010
0101
,  // measure 22
1010
0001
0000
0011
0000
1010
0001
0000
,  // measure 23
0011
0000
1100
0000
0011
0000
1100
1000
,  // measure 24
0010
0000
0001
0000
0010
0000
1000
0000
0100
0000
0010
0000
0001
0100
0001
0100
,  // measure 25
0010
0101
0011
1100
,  // measure 26
0101
0010
0000
1001
0000
1100
0010
0000
,  // measure 27
0011
0000
0000
0000
1100
0000
0000
0000
1010
0000
0000
0000
1000
0001
1000
0001
,  // measure 28
0020
0000
0130
0000
0020
0000
0031
0000
1000
0010
1000
0010
0100
0001
0100
0001
,  // measure 29
1000
0000
1000
0000
0100
0000
0100
0000
0010
0100
0010
0100
1000
0000
0001
0100
,  // measure 30
0010
0000
0100
0010
0100
0000
0001
0000
2000
0000
0000
0000
3100
0000
0010
0000
,  // measure 31
0001
0000
0001
0000
0100
0000
0100
0000
0010
1000
0010
1000
0001
0000
1000
0000
,  // measure 32
0100
0100
1000
0010
0002
0000
0023
0000
,  // measure 33
1030
0000
1000
0000
0001
0000
0001
0000
0010
0100
0010
0000
0001
0000
1000
0000
,  // measure 34
0010
0000
0010
0000
0100
0000
0001
1000
0100
0000
0010
0000
0001
0000
0001
0000
,  // measure 35
1000
0010
0100
0010
0001
0010
0100
0010
,  // measure 36
1000
0000
1000
0000
1010
0000
0000
0000
0001
0000
0001
0010
0001
0000
1000
0000
,  // measure 37
1010
0000
0110
0000
0101
0000
1001
1000
,  // measure 38
0100
0100
0100
0100
0100
0000
0110
0000
,  // measure 39
1001
0001
0000
0001
,  // measure 40
0000
0001
0000
0001
,  // measure 41
0000
0001
0000
0001
,  // measure 42
0000
0000
0000
0000
1001
0000
0000
0000
0001
1000
0001
1000
0100
0010
0100
0010
,  // measure 43
0001
0000
0000
0000
0020
0030
0000
0000
0002
0003
0000
0000
2000
3000
0000
0000
,  // measure 44
0001
0000
0000
0000
0020
0030
0000
0000
0002
0003
1000
0000
1000
0000
1000
0000
,  // measure 45
0001
0000
0000
0000
0020
0030
0000
0000
0002
0003
0000
0000
2000
3000
2000
3000
,  // measure 46
0010
0000
0001
0000
1000
0000
0100
0000
0001
0000
0100
0010
1000
0010
1000
0010
,  // measure 47
1000
0101
1010
0101
,  // measure 48
1000
0010
1000
0100
0000
0110
0000
0100
,  // measure 49
1000
0100
0001
0100
0010
0100
1000
0001
,  // measure 50
0100
0000
0100
0000
0010
0000
0000
0000
0110
0000
0010
0000
1000
0001
1000
0001
,  // measure 51
0010
1100
0011
1100
,  // measure 52
0001
0010
0001
0100
0000
0110
0000
0010
,  // measure 53
1000
0001
0010
0001
1000
0010
1000
0100
,  // measure 54
0120
0000
0000
0000
0032
0000
0000
0000
0203
0000
0000
0000
0310
1000
0010
1000
,  // measure 55
0001
0000
0000
0000
0002
0003
0200
0300
2000
3000
0000
0000
4000
3000
0400
0300
,  // measure 56
0004
0003
0000
0000
0002
0003
0200
0300
2000
3000
0000
0000
4000
3000
0400
0300
,  // measure 57
0004
0003
0000
0000
0002
0003
0200
0300
2000
3000
0000
0000
4000
3000
0400
0300
,  // measure 58
0220
0000
0330
0000
2020
0000
3030
0000
2002
0000
3003
0000
0004
0003
0040
0030
,  // measure 59
4100
3000
0000
0000
2000
3000
0200
0300
0002
0003
0000
0000
0004
0003
0400
0300
,  // measure 60
4000
3000
0000
0000
2000
3000
0200
0300
0002
0003
0000
0000
0004
0003
0400
0300
,  // measure 61
1000
1000
0100
0110
0000
0011
0000
0001
,  // measure 62
0200
0000
0010
0000
0310
0000
2000
0000
0010
0000
3010
0000
1000
0001
1000
0001
,  // measure 63
0010
1100
0011
1100
,  // measure 64
0011
1000
0000
1010
0000
0011
1000
0000
,  // measure 65
1010
0000
0101
0000
1010
0000
0101
0001
,  // measure 66
0010
0000
1000
0000
0010
0000
0001
0000
0100
0000
0010
0000
1000
0100
1000
0100
,  // measure 67
0010
1100
1010
0101
,  // measure 68
1100
0010
0000
1001
0000
0101
0010
0000
,  // measure 69
1010
0000
0000
0000
0101
0000
0000
0000
0011
0000
0000
0000
0001
1000
0001
1000
,  // measure 70
0020
0000
0130
0000
0020
0000
1030
0000
0001
0010
0001
0010
0100
1000
0100
1000
,  // measure 71
0001
0000
0001
0000
0100
0000
0100
0000
0010
0100
0010
0100
0001
0000
1000
0100
,  // measure 72
0010
0000
0100
0010
0100
0000
1000
0000
0002
0000
0000
0000
0103
0000
0010
0000
,  // measure 73
1000
0000
1000
0000
0100
0000
0100
0000
0010
0001
0010
0001
1000
0000
0001
0000
,  // measure 74
0100
0100
0001
0010
2000
0000
3020
0000
,  // measure 75
0031
0000
0001
0000
1000
0000
1000
0000
0010
0100
0010
0000
1000
0000
0001
0000
,  // measure 76
0010
0000
0010
0000
0100
0000
1000
0001
0100
0000
0010
0000
1000
0000
1000
0000
,  // measure 77
0001
0010
0100
0010
1000
0010
0100
0010
,  // measure 78
0001
0000
0001
0000
0011
0000
0000
0000
1000
0000
1000
0010
1000
0000
0001
0000
,  // measure 79
0011
0000
0110
0000
1100
0000
1001
0001
,  // measure 80
0100
0100
0100
0100
0100
0000
0110
0000
,  // measure 81
1001
1000
0000
1000
,  // measure 82
0000
1000
0000
1000
,  // measure 83
0000
1000
0000
1000
,  // measure 84
0000
0000
0000
0000
1001
0000
0000
0000
1000
0001
1000
0001
0100
0010
0100
0010
,  // measure 85
1000
0000
0000
0000
0020
0030
0000
0000
2000
3000
0000
0000
0002
0003
0000
0000
,  // measure 86
1000
0000
0000
0000
0020
0030
0000
0000
2000
3000
0001
0000
0001
0000
0001
0000
,  // measure 87
1000
0000
0000
0000
0020
0030
0000
0000
2000
3000
0000
0000
0002
0003
0002
0003
,  // measure 88
0010
0000
1000
0000
0001
0000
0100
0000
1000
0000
0100
0010
0001
0010
0001
0010
,  // measure 89
0001
0000
0000
0000
;

//---------------dance-single - ----------------
#NOTES:
     dance-single:
     09-12:
     Hard:
     9:
     0.647819,0.623732,0.692578,0.634863,0.000000,550.000000,466.000000,84.000000,77.000000,0.000000,0.000000,0.647819,0.623732,0.692578,0.634863,0.000000,550.000000,466.000000,84.000000,77.000000,0.000000,0.000000:
// measure 0
0000
0000
0000
0000
,  // measure 1
0001
0010
0000
0001
1000
0001
0000
0100
,  // measure 2
0000
0110
0000
1000
0010
0100
0001
0000
,  // measure 3
1000
0010
0000
1000
0001
1000
0000
0100
,  // measure 4
0020
0032
0203
0310
,  // measure 5
1010
0101
1010
0101
,  // measure 6
1000
0010
0000
0110
0000
0110
0000
0010
,  // measure 7
1000
0000
0100
0000
0001
0100
0000
0100
,  // measure 8
2000
0000
3020
0000
0130
0010
1000
0001
,  // measure 9
0010
1100
0011
1100
,  // measure 10
0001
0010
0000
0110
0000
0110
0000
0010
,  // measure 11
0001
0000
0100
0000
0010
1000
0010
0000
,  // measure 12
1010
0000
0000
0000
1001
0000
0000
0000
0011
0000
0000
0000
0004
0003
4000
3000
,  // measure 13
0040
0030
0000
0000
2000
3000
0002
0003
0020
0030
0000
0000
0004
0003
4000
3000
,  // measure 14
0040
0030
0000
0000
2000
3000
0002
0003
0020
0030
0000
0000
0004
0003
4000
3000
,  // measure 15
0040
0030
0000
0000
2000
3000
0002
0003
0020
0030
0000
0000
0004
0003
4000
3000
,  // measure 16
1010
0000
0000
0000
0110
0000
0000
0000
0101
0000
0000
0000
0004
0003
4000
3000
,  // measure 17
0400
0300
0000
0000
2000
3000
0002
0003
0200
0300
0000
0000
0004
0003
4000
3000
,  // measure 18
0400
0300
0000
0000
2000
3000
0002
0003
0200
0300
0000
0000
0004
0003
4000
3000
,  // measure 19
0100
0100
0000
0110
0000
0011
0000
0001
,  // measure 20
0100
0000
0010
0000
1000
0010
1000
0001
,  // measure 21
0010
1100
0011
1100
,  // measure 22
0010
0001
0000
0110
0000
1000
0010
0000
,  // measure 23
1010
0101
1010
0101
,  // measure 24
1000
0010
1000
0100
1000
0000
0010
0100
,  // measure 25
0001
0011
1001
1010
,  // measure 26
0010
1000
0000
0110
0000
0001
0010
0000
,  // measure 27
1100
0000
1001
0000
0101
0000
0001
1000
,  // measure 28
0200
0320
0032
0203
,  // measure 29
0310
1000
0001
1000
0100
0010
0100
1000
,  // measure 30
0001
0100
0020
0000
2030
0000
3001
0010
,  // measure 31
0100
0010
0001
1000
0010
0100
0010
1000
,  // measure 32
0001
0010
0100
0010
2000
0000
3020
0000
,  // measure 33
0031
0100
0001
0100
0010
1000
0100
0010
,  // measure 34
0100
1000
0100
1000
0001
0100
0010
1000
,  // measure 35
0001
0010
0100
0010
0001
0100
0010
0100
,  // measure 36
0001
0010
0001
0000
1000
0010
1000
0000
,  // measure 37
0011
1010
1100
0101
,  // measure 38
0001
0010
0100
1000
0001
0000
0110
0000
,  // measure 39
1001
1000
0000
1000
,  // measure 40
0000
1000
0000
1000
,  // measure 41
0000
1000
0000
1000
,  // measure 42
0000
0000
1001
0000
1000
0010
0100
0001
,  // measure 43
1000
0000
0000
0000
0200
0300
0000
0000
0020
0030
0000
0000
0200
0300
0000
0000
,  // measure 44
1000
0000
0000
0000
0200
0300
0000
0000
0020
0030
0001
0000
0100
0000
0001
0000
,  // measure 45
1000
0000
0000
0000
0200
0300
0000
0000
0020
0030
0000
0000
0200
0300
0020
0030
,  // measure 46
0002
0000
0003
2020
0000
3030
0001
0010
,  // measure 47
0001
1100
0011
1100
,  // measure 48
0001
0010
0000
0110
0000
0110
0000
0010
,  // measure 49
0001
0000
0100
0000
1000
0100
0000
0100
,  // measure 50
0002
0000
0023
0000
0130
0010
0001
1000
,  // measure 51
0010
0101
1010
0101
,  // measure 52
1000
0010
0000
0110
0000
0110
0000
0010
,  // measure 53
1000
0000
0100
0000
0010
0001
0010
0000
,  // measure 54
0011
0000
0000
0000
1001
0000
0000
0000
1010
0000
0000
0000
4000
3000
0004
0003
,  // measure 55
0040
0030
0000
0000
0002
0003
2000
3000
0020
0030
0000
0000
4000
3000
0004
0003
,  // measure 56
0040
0030
0000
0000
0002
0003
2000
3000
0020
0030
0000
0000
4000
3000
0004
0003
,  // measure 57
0040
0030
0000
0000
0002
0003
2000
3000
0020
0030
0000
0000
4000
3000
0004
0003
,  // measure 58
0011
0000
0000
0000
0110
0000
0000
0000
1100
0000
0000
0000
4000
3000
0004
0003
,  // measure 59
0400
0300
0000
0000
0002
0003
2000
3000
0200
0300
0000
0000
4000
3000
0004
0003
,  // measure 60
0400
0300
0000
0000
0002
0003
2000
3000
0200
0300
0000
0000
4000
3000
0004
0003
,  // measure 61
0100
0100
0000
0110
0000
1010
0000
1000
,  // measure 62
0100
0000
0010
0000
0001
0010
0001
1000
,  // measure 63
0010
0101
1010
0101
,  // measure 64
0010
1000
0000
0110
0000
0001
0010
0000
,  // measure 65
0011
1100
0011
1100
,  // measure 66
0001
0010
0001
0100
0001
0000
0010
0100
,  // measure 67
1000
1010
1001
0011
,  // measure 68
0010
0001
0000
0110
0000
1000
0010
0000
,  // measure 69
0101
0000
1001
0000
1100
0000
1000
0001
,  // measure 70
0200
0320
2030
3200
,  // measure 71
0310
0001
1000
0001
0100
0010
0100
0001
,  // measure 72
1000
0100
0020
0000
0032
0000
1003
0010
,  // measure 73
0100
0010
1000
0001
0010
0100
0010
0001
,  // measure 74
1000
0010
0100
0010
0002
0000
0023
0000
,  // measure 75
1030
0100
1000
0100
0010
0001
0100
0010
,  // measure 76
0100
0001
0100
0001
1000
0100
0010
0001
,  // measure 77
1000
0010
0100
0010
1000
0100
0010
0100
,  // measure 78
1000
0010
1000
0000
0001
0010
0001
0000
,  // measure 79
1010
0011
0101
1100
,  // measure 80
1000
0010
0100
0001
1000
0000
0110
0000
,  // measure 81
1001
0001
0000
0001
,  // measure 82
0000
0001
0000
0001
,  // measure 83
0000
0001
0000
0001
,  // measure 84
0000
0000
1001
0000
0001
0010
0100
1000
,  // measure 85
0001
0000
0000
0000
0200
0300
0000
0000
0020
0030
0000
0000
0200
0300
0000
0000
,  // measure 86
0001
0000
0000
0000
0200
0300
0000
0000
0020
0030
1000
0000
0100
0000
1000
0000
,  // measure 87
0001
0000
0000
0000
0200
0300
0000
0000
0020
0030
0000
0000
0200
0300
0020
0030
,  // measure 88
2000
0000
3000
0022
0000
0033
1000
0010
,  // measure 89
1000
0000
0000
0000
;

//---------------dance-single - ----------------
#NOTES:
     dance-single:
     06-08:
     Medium:
     6:
     0.459363,0.476972,0.329799,0.305064,0.000000,390.000000,350.000000,40.000000,37.000000,0.000000,0.000000,0.459363,0.476972,0.329799,0.305064,0.000000,390.000000,350.000000,40.000000,37.000000,0.000000,0.000000:
// measure 0
0000
0000
0000
0000
,  // measure 1
0001
0010
0100
1000
,  // measure 2
0010
0100
0010
1000
,  // measure 3
0100
0010
0001
1000
,  // measure 4
0020
0032
0023
0000
,  // measure 5
1030
1000
0001
0001
,  // measure 6
1000
0100
0000
0010
0000
0010
0000
0100
,  // measure 7
1000
0000
0001
0000
1000
0010
0000
0010
,  // measure 8
0200
0302
2003
3100
,  // measure 9
1000
1000
0001
0001
,  // measure 10
1000
0010
0000
0100
0000
0100
0000
0010
,  // measure 11
1000
0000
0100
0000
0010
0001
0000
0001
,  // measure 12
0200
0320
2030
3001
,  // measure 13
0010
1000
0010
0001
,  // measure 14
0010
1000
0010
0001
,  // measure 15
0010
1000
0010
0001
,  // measure 16
0011
1100
0011
1000
,  // measure 17
0010
0001
0010
1000
,  // measure 18
0010
0001
0010
1000
,  // measure 19
0100
0010
0000
0100
0000
0010
0000
0100
,  // measure 20
2000
3020
0130
0100
,  // measure 21
0001
0001
1000
1000
,  // measure 22
0001
0010
0000
0100
0000
0010
0000
0100
,  // measure 23
1000
1000
0001
0001
,  // measure 24
0101
1100
0101
0001
,  // measure 25
0010
0010
0100
0100
,  // measure 26
0010
0001
0000
1000
0000
1000
0000
0001
,  // measure 27
0100
0100
0010
0010
,  // measure 28
1010
1001
0011
1001
,  // measure 29
1000
0010
0001
0010
,  // measure 30
1000
0100
1000
0000
0002
0000
1003
0000
,  // measure 31
0001
0010
1000
0010
,  // measure 32
0001
0100
0001
0000
0011
0000
1010
0000
,  // measure 33
1000
0000
0010
0000
0100
0001
0100
0000
,  // measure 34
0001
0000
0010
0000
0100
1000
0100
0000
,  // measure 35
0010
0001
0100
0010
,  // measure 36
1000
0010
1000
0000
0001
0010
0001
0000
,  // measure 37
2000
3020
0230
0302
,  // measure 38
0013
0100
0010
0100
0010
0000
0110
0000
,  // measure 39
1001
0000
0000
0000
,  // measure 40
0000
0000
0000
0000
,  // measure 41
0000
0000
0000
0000
,  // measure 42
0000
1001
1001
1001
,  // measure 43
0000
0001
0100
0001
,  // measure 44
0000
1000
0100
1000
,  // measure 45
0000
0001
0100
0001
,  // measure 46
2002
0000
3003
0220
0000
0330
1001
0000
,  // measure 47
0001
0001
1000
1000
,  // measure 48
0001
0100
0000
0010
0000
0010
0000
0100
,  // measure 49
0001
0000
1000
0000
0001
0010
0000
0010
,  // measure 50
0200
2300
3002
0103
,  // measure 51
0001
0001
1000
1000
,  // measure 52
0001
0010
0000
0100
0000
0100
0000
0010
,  // measure 53
0001
0000
0100
0000
0010
1000
0000
1000
,  // measure 54
0200
0320
0032
1003
,  // measure 55
0010
0001
0010
1000
,  // measure 56
0010
0001
0010
1000
,  // measure 57
0010
0001
0010
1000
,  // measure 58
1010
0101
1010
0001
,  // measure 59
0010
1000
0010
0001
,  // measure 60
0010
1000
0010
0001
,  // measure 61
0100
0010
0000
0100
0000
0010
0000
0100
,  // measure 62
0002
0023
0130
0100
,  // measure 63
1000
1000
0001
0001
,  // measure 64
1000
0010
0000
0100
0000
0010
0000
0100
,  // measure 65
0001
0001
1000
1000
,  // measure 66
1100
0101
1100
1000
,  // measure 67
0010
0010
0100
0100
,  // measure 68
0010
1000
0000
0001
0000
0001
0000
1000
,  // measure 69
0100
0100
0010
0010
,  // measure 70
0011
1001
1010
1001
,  // measure 71
0001
0010
1000
0010
,  // measure 72
0001
0100
0001
0000
2000
0000
3001
0000
,  // measure 73
1000
0010
0001
0010
,  // measure 74
1000
0100
1000
0000
1010
0000
0011
0000
,  // measure 75
0001
0000
0010
0000
0100
1000
0100
0000
,  // measure 76
1000
0000
0010
0000
0100
0001
0100
0000
,  // measure 77
0010
1000
0100
0010
,  // measure 78
0001
0010
0001
0000
1000
0010
1000
0000
,  // measure 79
0002
0023
0230
2300
,  // measure 80
3010
0100
0010
0100
0010
0000
0110
0000
,  // measure 81
1001
0000
0000
0000
,  // measure 82
0000
0000
0000
0000
,  // measure 83
0000
0000
0000
0000
,  // measure 84
0000
1001
1001
1001
,  // measure 85
0000
1000
0100
1000
,  // measure 86
0000
0001
0100
0001
,  // measure 87
0000
1000
0100
1000
,  // measure 88
2002
0000
3003
0220
0000
0330
1001
0000
,  // measure 89
0010
0000
0000
0000
;

//---------------dance-single - ----------------
#NOTES:
     dance-single:
     04-05:
     Easy:
     4:
     0.310953,0.403591,0.230859,0.354534,0.000000,264.000000,236.000000,28.000000,43.000000,0.000000,0.000000,0.310953,0.403591,0.230859,0.354534,0.000000,264.000000,236.000000,28.000000,43.000000,0.000000,0.000000:
// measure 0
0000
0000
0000
0000
,  // measure 1
0001
0000
0100
0000
,  // measure 2
0010
0000
1000
0000
,  // measure 3
0100
0000
0010
0000
,  // measure 4
0002
2003
3002
0003
,  // measure 5
1000
0000
1000
0000
,  // measure 6
0010
1000
0001
0000
,  // measure 7
1000
1000
0100
0000
,  // measure 8
0020
0032
2003
3000
,  // measure 9
0001
0000
0001
0000
,  // measure 10
0010
0001
1000
0000
,  // measure 11
0010
0010
0100
0000
,  // measure 12
0020
2030
3002
0013
,  // measure 13
0001
0000
1000
0000
,  // measure 14
0001
0000
1000
0000
,  // measure 15
0001
0000
1000
0000
,  // measure 16
1001
0110
1001
0000
,  // measure 17
0001
0000
1000
0000
,  // measure 18
0001
0000
1000
0000
,  // measure 19
0010
0000
0010
0000
,  // measure 20
0200
0320
1030
0001
,  // measure 21
1000
0000
1000
0000
,  // measure 22
0100
0010
0001
0000
,  // measure 23
1000
0000
1000
0000
,  // measure 24
0110
0110
0110
0000
,  // measure 25
0001
0000
0001
0000
,  // measure 26
0100
0010
1000
0000
,  // measure 27
0001
0000
0001
0000
,  // measure 28
2000
3020
0230
0302
,  // measure 29
0013
0010
0100
0100
,  // measure 30
0010
0001
2000
3000
,  // measure 31
0100
0100
1000
1000
,  // measure 32
0001
0100
0020
0030
,  // measure 33
1000
0010
0100
0000
,  // measure 34
0001
0010
0100
0000
,  // measure 35
1000
1000
0001
0100
,  // measure 36
0202
0303
2020
3030
,  // measure 37
0001
0010
0100
1000
,  // measure 38
0001
0001
0010
1100
,  // measure 39
0011
0000
0000
0000
,  // measure 40
0000
0000
0000
0000
,  // measure 41
0000
0000
0000
0000
,  // measure 42
0000
1001
1001
1001
,  // measure 43
0000
0001
0001
0001
,  // measure 44
0000
0001
1000
1000
,  // measure 45
0000
0001
0001
0001
,  // measure 46
2002
3003
0001
1000
,  // measure 47
0001
0000
0001
0000
,  // measure 48
0010
0001
1000
0000
,  // measure 49
0001
0001
0100
0000
,  // measure 50
0020
2030
3002
0003
,  // measure 51
1000
0000
1000
0000
,  // measure 52
0010
1000
0001
0000
,  // measure 53
0010
0010
0100
0000
,  // measure 54
0020
0032
2003
3010
,  // measure 55
1000
0000
0001
0000
,  // measure 56
1000
0000
0001
0000
,  // measure 57
1000
0000
0001
0000
,  // measure 58
1001
0110
1001
0000
,  // measure 59
1000
0000
0001
0000
,  // measure 60
1000
0000
0001
0000
,  // measure 61
0010
0000
0010
0000
,  // measure 62
0200
0320
0031
1000
,  // measure 63
0001
0000
0001
0000
,  // measure 64
0100
0010
1000
0000
,  // measure 65
0001
0000
0001
0000
,  // measure 66
0110
0110
0110
0000
,  // measure 67
1000
0000
1000
0000
,  // measure 68
0100
0010
0001
0000
,  // measure 69
1000
0000
1000
0000
,  // measure 70
0002
0023
0230
2300
,  // measure 71
3010
0010
0100
0100
,  // measure 72
0010
1000
0002
0003
,  // measure 73
0100
0100
0001
0001
,  // measure 74
1000
0100
0020
0030
,  // measure 75
0001
0010
0100
0000
,  // measure 76
1000
0010
0100
0000
,  // measure 77
0001
0001
1000
0100
,  // measure 78
2200
3300
0022
0033
,  // measure 79
1000
0010
0100
0001
,  // measure 80
1000
1000
0010
0101
,  // measure 81
1010
0000
0000
0000
,  // measure 82
0000
0000
0000
0000
,  // measure 83
0000
0000
0000
0000
,  // measure 84
0000
1001
1001
1001
,  // measure 85
0000
1000
1000
1000
,  // measure 86
0000
1000
0001
0001
,  // measure 87
0000
1000
1000
1000
,  // measure 88
2002
3003
1000
0001
,  // measure 89
0010
0000
0000
0000
;

//---------------dance-single - ----------------
#NOTES:
     dance-single:
     01-02:
     Beginner:
     1:
     0.131920,0.220141,0.049470,0.065960,0.000000,112.000000,106.000000,6.000000,8.000000,0.000000,0.000000,0.131920,0.220141,0.049470,0.065960,0.000000,112.000000,106.000000,6.000000,8.000000,0.000000,0.000000:
// measure 0
0000
0000
0000
0000
,  // measure 1
0001
0000
0000
0000
,  // measure 2
1000
0000
0000
0000
,  // measure 3
0001
0000
0000
0000
,  // measure 4
0010
0000
0100
0000
,  // measure 5
0010
0000
0000
0000
,  // measure 6
0010
0000
0000
0000
,  // measure 7
0001
0000
0000
0000
,  // measure 8
1000
0000
1000
0000
,  // measure 9
0010
0000
0000
0000
,  // measure 10
0010
0000
0000
0000
,  // measure 11
1000
0000
0000
0000
,  // measure 12
0001
0000
0001
0000
,  // measure 13
0010
0000
0000
0000
,  // measure 14
0001
0000
0000
0000
,  // measure 15
0010
0000
0000
0000
,  // measure 16
0001
0000
1000
0000
,  // measure 17
0010
0000
0000
0000
,  // measure 18
1000
0000
0000
0000
,  // measure 19
0010
0000
0000
0000
,  // measure 20
1000
0000
0001
0000
,  // measure 21
0010
0000
0000
0000
,  // measure 22
0010
0000
0000
0000
,  // measure 23
0100
0000
0000
0000
,  // measure 24
0100
0000
0100
0000
,  // measure 25
1000
0000
0000
0000
,  // measure 26
0001
0000
0000
0000
,  // measure 27
1000
0000
0000
0000
,  // measure 28
0001
0000
0001
0000
,  // measure 29
0100
0000
0100
0000
,  // measure 30
0200
0000
0300
0000
,  // measure 31
0010
0000
0010
0000
,  // measure 32
0020
0000
0030
0000
,  // measure 33
1000
0000
0000
0000
,  // measure 34
0001
0000
0000
0000
,  // measure 35
0010
0000
0100
0000
,  // measure 36
0010
0000
0000
0000
,  // measure 37
0001
0000
0001
0000
,  // measure 38
1000
0000
1000
0000
,  // measure 39
1001
0000
0000
0000
,  // measure 40
0000
0000
0000
0000
,  // measure 41
0000
0000
0000
0000
,  // measure 42
0000
0000
0000
0000
,  // measure 43
1001
0000
0000
0000
,  // measure 44
0001
0000
0000
0000
,  // measure 45
1000
0000
0000
0000
,  // measure 46
2002
0000
3003
0000
,  // measure 47
0010
0000
0000
0000
,  // measure 48
0010
0000
0000
0000
,  // measure 49
1000
0000
0000
0000
,  // measure 50
0001
0000
0001
0000
,  // measure 51
0010
0000
0000
0000
,  // measure 52
0010
0000
0000
0000
,  // measure 53
0001
0000
0000
0000
,  // measure 54
1000
0000
1000
0000
,  // measure 55
0010
0000
0000
0000
,  // measure 56
1000
0000
0000
0000
,  // measure 57
0010
0000
0000
0000
,  // measure 58
1000
0000
0001
0000
,  // measure 59
0010
0000
0000
0000
,  // measure 60
0001
0000
0000
0000
,  // measure 61
0010
0000
0000
0000
,  // measure 62
0001
0000
1000
0000
,  // measure 63
0010
0000
0000
0000
,  // measure 64
0010
0000
0000
0000
,  // measure 65
0100
0000
0000
0000
,  // measure 66
0100
0000
0100
0000
,  // measure 67
0001
0000
0000
0000
,  // measure 68
1000
0000
0000
0000
,  // measure 69
0001
0000
0000
0000
,  // measure 70
1000
0000
1000
0000
,  // measure 71
0100
0000
0100
0000
,  // measure 72
0200
0000
0300
0000
,  // measure 73
0010
0000
0010
0000
,  // measure 74
0020
0000
0030
0000
,  // measure 75
0001
0000
0000
0000
,  // measure 76
1000
0000
0000
0000
,  // measure 77
0010
0000
0100
0000
,  // measure 78
0010
0000
0000
0000
,  // measure 79
1000
0000
1000
0000
,  // measure 80
0001
0000
0001
0000
,  // measure 81
1001
0000
0000
0000
,  // measure 82
0000
0000
0000
0000
,  // measure 83
0000
0000
0000
0000
,  // measure 84
0000
0000
0000
0000
,  // measure 85
1001
0000
0000
0000
,  // measure 86
1000
0000
0000
0000
,  // measure 87
0001
0000
0000
0000
,  // measure 88
2002
0000
3003
0000
,  // measure 89
0100
0000
0000
0000
;
