#TITLE:Policeman;
#SUBTITLE:;
#ARTIST:Eva Simons ft. Konshens;
#TITLETRANSLIT:;
#SUBTITLETRANSLIT:;
#ARTISTTRANSLIT:;
#GENRE:;
#CREDIT:SupremeX;
#BANNER:Policeman-bn.png;
#BACKGROUND:Policeman-bg.png;
#LYRICSPATH:;
#CDTITLE:cdtitle.png;
#MUSIC:Policeman.ogg;
#OFFSET:-0.036997;
#SAMPLESTART:54.848000;
#SAMPLELENGTH:12.000000;
#SELECTABLE:YES;
#BPMS:0.000000=105.000000
;
#STOPS:
;
#BGCHANGES:;
#KEYSOUNDS:;
#ATTACKS:;

//---------------dance-single - ----------------
#NOTES:
     dance-single:
     :
     Hard:
     9:
     0.528738,0.603579,0.108063,0.153090,0.472777,411.000000,399.000000,12.000000,17.000000,0.000000,0.000000,0.528738,0.603579,0.108063,0.153090,0.472777,411.000000,399.000000,12.000000,17.000000,0.000000,0.000000:
0000
0000
0000
0000
,
0000
0000
0000
0000
,
0000
0000
0000
0000
,
2000
3020
0230
0000
,
0301
0000
0010
0000
0100
1000
0100
1000
0100
0000
0010
0001
0010
0001
0010
0000
,
0110
0000
1000
0000
0100
0010
0100
0010
0100
0000
0001
0100
0001
0100
0001
0000
,
0110
0000
1000
0100
1000
0100
1000
0000
0010
0000
0100
0010
0100
0010
0100
0000
,
0010
0000
1000
0001
1000
0001
1000
0100
0000
0100
0000
1000
0100
1000
0100
0000
,
1000
0000
0010
1000
0010
1000
0010
0000
0100
0000
0001
0100
0001
0100
0001
0000
,
1001
0000
0000
1000
0100
0000
0100
0000
1000
0100
0000
0010
0001
0000
1000
0000
,
1100
0000
0010
1000
0010
1000
0010
0000
0100
0000
0010
0100
0010
0100
0010
0000
,
1000
0100
0010
0100
1000
0100
0010
0010
,
1001
0000
0000
0100
0010
0000
0010
0000
2000
0000
0000
0000
3100
0000
1000
0100
,
1000
0000
0100
0000
0010
0000
0001
0000
0020
0000
0000
0000
0130
0000
0010
1000
,
0010
1000
0100
0010
0001
1000
1001
0000
,
0020
0000
0000
0000
0130
0000
0000
0010
2000
0000
0000
0000
3200
0000
0000
0000
,
1300
0000
0000
0010
0100
0000
0100
0000
0002
0000
0000
0000
1003
0000
0000
0000
,
0010
0000
0100
0000
0010
0000
1000
0000
0001
0100
0000
0001
0100
0000
0010
0100
,
0010
1000
0001
1000
0100
0100
0100
0000
,
2000
0000
0000
0000
3100
0000
0000
1000
0002
0000
0100
0000
0100
0000
0103
0000
,
0010
0100
0010
0100
0010
0000
1000
0000
0100
1000
0000
0100
1000
0000
0010
0100
,
0010
0000
0100
0000
0001
0000
0001
0000
1000
0100
0000
1000
0100
0000
1000
0100
,
1000
0100
0010
0001
0010
0100
1000
1100
,
0200
0000
0000
0000
2300
0000
0000
3020
1000
0000
0000
0000
0100
0000
0130
0000
,
1000
0000
0001
0100
0001
0100
0001
0000
0010
0000
0100
1000
0100
1000
0100
0000
,
0010
0000
0001
1000
0001
1000
0001
0000
1000
0000
0010
0100
0010
0100
0010
0000
,
1000
0000
0010
1000
0010
1000
0010
0000
1000
0000
0100
0010
0100
0010
0100
0000
,
0001
0000
1000
0010
1000
0010
1000
0100
0000
0100
0000
0100
0010
0100
0010
0000
,
0010
0100
0000
0010
0100
0000
0001
0000
0001
0010
0000
0010
0100
0000
0000
0000
,
1000
0100
0000
0010
0001
0000
1000
0000
1000
0010
0000
0100
0010
0000
0000
0000
,
0100
0001
0000
1000
0001
0000
1000
0000
0100
0000
0010
0000
0001
0000
0101
0000
,
0000
0000
0010
0000
1000
0000
0100
1000
0100
0000
0100
0000
1000
0000
1000
0000
,
0001
0000
0000
0100
0010
0000
0100
0000
0001
0000
0100
0000
0001
0000
0010
0000
,
0010
0000
0100
0000
1000
0000
0100
0000
0010
0000
0001
0010
0000
0100
1000
0000
,
0100
0000
0000
0100
0000
1000
0001
0000
0100
0000
0000
0100
0010
0000
1000
0000
,
0001
0000
1000
0000
0010
0000
1000
0000
2000
0100
0000
0100
0000
0100
0000
0000
,
3100
0000
1000
0000
0100
0000
0010
0000
0100
0000
0000
0001
0100
0000
0100
0000
,
0001
0000
0010
0000
0100
0000
1000
0000
0100
0000
0000
1000
0100
0000
0100
0000
,
1000
0000
0000
1000
0000
0000
0100
0000
0010
0000
0000
0010
0001
0000
0010
0000
,
0100
1000
0010
0100
0102
0000
0103
0100
,
1010
0000
0100
0001
1000
0001
0100
0010
,
0100
0010
0000
0010
0100
0000
0001
0000
1000
0100
0000
0100
1000
0000
0010
0000
,
1010
0000
0100
0001
1000
0010
0100
0001
,
1000
0100
0000
0100
1000
0100
1000
0000
0100
0000
0100
0000
0020
0000
0000
0000
,
0031
0000
1000
0001
1000
0010
0100
0010
,
0100
0001
0000
0001
0100
0000
0100
0000
0010
1000
0000
1000
0010
0000
0100
0000
,
0110
0000
0000
0001
0000
0000
1000
0100
1000
0000
0000
0010
0000
0000
0010
0000
,
1000
0000
0100
0010
0100
0000
0001
0000
0100
0000
0010
0000
1000
0001
1000
0000
;

//---------------dance-single - ----------------
#NOTES:
     dance-single:
     :
     Medium:
     6:
     0.329336,0.344902,0.135079,0.018011,0.000000,256.000000,241.000000,15.000000,2.000000,0.000000,0.000000,0.329336,0.344902,0.135079,0.018011,0.000000,256.000000,241.000000,15.000000,2.000000,0.000000,0.000000:
0000
0000
0000
0000
,
0000
0000
0000
0000
,
0000
0000
0000
0000
,
1000
0010
0200
0000
,
0301
0000
1000
0100
1000
0000
0001
0010
,
0100
0000
1000
0001
0100
0000
0001
0010
,
0100
0000
1000
0100
0010
0000
0001
1000
,
0001
0000
0100
0010
0100
0000
0000
0000
,
1000
0010
0100
0001
1000
0010
0100
0010
,
1000
1001
0101
1010
,
0100
0001
1000
0000
0001
1000
0010
0100
,
0020
0000
0000
0030
,
1000
0000
0100
1000
0100
0000
0110
0000
,
0001
0010
0100
1000
0010
0000
0010
0000
,
1000
0100
0010
0001
1000
0001
1000
0000
,
0010
0000
0100
0001
1000
0000
0100
0000
,
1000
0000
0001
0100
0001
0000
0110
0000
,
1000
0001
0100
0000
0001
1000
0100
0000
,
1000
0001
1000
0000
0010
0010
0010
0000
,
1000
0001
0010
0100
,
1000
0001
1000
0000
0100
0100
0100
0000
,
0010
0001
0010
0000
0001
0001
0001
0000
,
1000
0010
0100
0010
1000
0010
0100
0001
,
1000
0001
0110
1001
,
1000
0000
0100
0010
0100
0000
0001
0100
,
0001
0000
1000
0100
1000
0000
0001
0100
,
0001
0000
1000
0010
1000
0000
0001
0010
,
0100
0000
1000
0010
0000
0000
0000
0000
,
0100
0010
0100
0010
1000
0001
1000
0000
,
0001
1000
0001
0100
0010
1000
0010
0000
,
0100
0001
1000
0010
0100
0001
1000
0001
,
0000
1000
0010
1000
,
0001
1000
0010
0000
1000
0001
1000
0000
,
0001
0010
0100
0000
1000
0001
1000
0000
,
0100
0100
0000
0000
0010
0010
0000
0000
,
0001
1000
1100
0000
,
0010
0000
0001
0000
0100
0010
0100
0100
,
0000
0001
1000
0001
0100
0010
0010
0000
,
1000
0000
0001
0000
1100
0000
0010
0001
,
0010
0100
1010
0000
,
0100
0000
0001
1000
0010
0100
0010
1000
,
1000
0001
1000
1001
,
0110
0000
0001
0010
0100
1000
0010
0100
,
0010
1000
0001
1001
,
0010
0000
0100
0001
0100
0010
1000
0001
,
0100
0010
1000
0001
,
1001
0100
0110
0001
,
1000
0000
0010
1000
0001
0000
0100
0100
;

//---------------dance-single - ----------------
#NOTES:
     dance-single:
     :
     Easy:
     4:
     0.237997,0.258001,0.081047,0.027016,0.000000,185.000000,176.000000,9.000000,3.000000,0.000000,0.000000,0.237997,0.258001,0.081047,0.027016,0.000000,185.000000,176.000000,9.000000,3.000000,0.000000,0.000000:
0000
0000
0000
0000
,
0000
0000
0000
0000
,
0000
0000
0000
0000
,
1000
0001
1000
0000
,
0010
0000
0100
0000
0001
1000
0001
0000
,
1000
0000
0010
0000
0100
0000
0001
0100
,
0001
1000
0010
0100
,
0001
0001
0000
0000
,
1000
0000
0010
0000
0100
0001
0100
0000
,
0010
1000
0001
1000
,
0010
0000
0100
0000
0001
0100
0001
0000
,
2000
0000
0000
3000
,
0010
0000
0100
0100
,
0001
1000
0001
0000
1000
0000
1000
0000
,
0001
0100
0010
1000
,
0001
0001
1001
0000
,
1000
0010
0100
0100
,
0001
0000
1000
0000
0010
1000
0010
0000
,
1000
0001
0100
0100
,
0001
0000
1000
0000
0020
0000
0000
0030
,
1000
0010
0100
0100
,
0001
1000
0001
0001
,
1000
0010
0100
0001
,
1000
0000
0010
0000
0200
0000
0000
0300
,
0001
0010
0100
1000
,
0010
0100
0001
1000
,
0010
0100
0001
1000
,
0010
0100
0000
0000
,
0001
0000
0001
0000
1000
1000
0010
0000
,
0100
0000
0001
0000
0100
0100
0010
0000
,
1000
0000
0001
0000
0001
0001
0100
0000
,
0010
0000
1000
0000
1000
1000
0010
0000
,
0100
0001
1000
1000
,
0010
0100
0001
0001
,
1010
0001
0101
0010
,
1000
0010
0101
0000
,
1000
1000
0010
0010
,
0100
0100
0001
0001
,
1001
0000
1001
0010
,
0100
0010
1001
0000
,
1000
0010
1000
0010
,
0100
0000
0100
0000
0001
0001
0001
0000
,
0100
0010
1000
0001
,
1000
0000
0010
0000
0100
0100
0100
0000
,
0010
0100
0001
0100
,
0010
0000
1000
0000
0001
0001
0001
0000
,
1000
0000
0110
0000
,
0001
0010
0100
1001
;

//---------------dance-single - Copied from----------------
#NOTES:
     dance-single:
     Copied from:
     Beginner:
     2:
     0.109350,0.128325,0.000000,0.027016,0.000000,85.000000,85.000000,0.000000,3.000000,0.000000,0.000000,0.109350,0.128325,0.000000,0.027016,0.000000,85.000000,85.000000,0.000000,3.000000,0.000000,0.000000:
0000
0000
0000
0000
,
0000
0000
0000
0000
,
0000
0000
0000
0000
,
1000
0000
0001
0000
,
1000
0000
1000
0000
,
0100
0000
0100
0000
,
1000
0000
1000
0000
,
0001
0000
0001
0000
,
0100
0000
0010
0000
,
0100
0000
0100
0000
,
0010
0000
0010
0000
,
1000
0000
0000
0000
,
0001
0000
0100
0000
,
0010
0000
0010
0000
,
0100
0000
0001
0000
,
1000
0000
1000
0000
,
0010
0000
0010
0000
,
0100
0000
0001
0000
,
1000
0000
1000
0000
,
0010
0000
0100
0000
,
0002
0000
0000
0003
,
2000
0000
0000
3000
,
0002
0000
0000
0003
,
1000
0000
1000
0000
,
0010
0000
0010
0000
,
0100
0000
0100
0000
,
0001
0000
0001
0000
,
1000
0000
0000
0000
,
0010
0000
0100
0000
,
0010
0000
0100
0000
,
0001
0000
1000
0000
,
0001
0000
1000
0000
,
0010
0000
0010
0000
,
0010
0000
0010
0000
,
0100
0000
0100
0000
,
0100
0000
0100
0000
,
0001
0000
0001
0000
,
0001
0000
0001
0000
,
1000
0000
1000
0000
,
1000
0000
1000
0000
,
0010
0000
0010
0010
,
0010
0000
0000
0000
,
0100
0000
0100
0100
,
0100
0000
0000
0000
,
0001
0000
0001
0001
,
0001
0000
0000
0000
,
1000
0000
1000
0000
,
1000
0000
1000
0000
;
