#VERSION:0.83;
#TITLE:On a Roll;
#SUBTITLE:;
#ARTIST:Ashley O;
#TITLETRANSLIT:;
#SUBTITLETRANSLIT:;
#ARTISTTRANSLIT:;
#GENRE:;
#ORIGIN:;
#CREDIT:;
#BANNER:[Qualifier] - On a Roll.png;
#BACKGROUND:[Qualifier] - On a Roll-bg.png;
#PREVIEWVID:;
#JACKET:[Qualifier] - On a Roll-jacket.png;
#CDIMAGE:;
#DISCIMAGE:;
#LYRICSPATH:;
#CDTITLE:;
#MUSIC:On a Roll.ogg;
#OFFSET:0.000000;
#SAMPLESTART:39.348999;
#SAMPLELENGTH:16.120003;
#SELECTABLE:YES;
#DISPLAYBPM:125.000000;
#BPMS:0.000=125.000;
#STOPS:;
#DELAYS:;
#WARPS:;
#TIMESIGNATURES:0.000=4=4;
#TICKCOUNTS:0.000=4;
#COMBOS:0.000=1;
#SPEEDS:0.000=1.000=0.000=0;
#SCROLLS:0.000=1.000;
#FAKES:;
#LABELS:0.000=Song Start;
#BGCHANGES:0.000=[Qualifier] - On a Roll.avi=1.000=0=0=0=StretchNoLoop====,
99999=-nosongbg-=1.000=0=0=0 // don't automatically add -songbackground-
;
#KEYSOUNDS:;
#ATTACKS:
;

//---------------dance-single - ----------------
#NOTEDATA:;
#CHARTNAME:;
#STEPSTYPE:dance-single;
#DESCRIPTION:;
#CHARTSTYLE:;
#DIFFICULTY:Hard;
#METER:7;
#RADARVALUES:0.453014,0.469100,0.142293,0.121965,0.077922,468.000000,447.000000,21.000000,18.000000,0.000000,0.000000,0.000000,0.000000,0.000000,0.453014,0.469100,0.142293,0.121965,0.077922,468.000000,447.000000,21.000000,18.000000,0.000000,0.000000,0.000000,0.000000,0.000000;
#CREDIT:;
#DISPLAYBPM:125.000000;
#NOTES:
// measure 0
0000
0000
0000
0000
,  // measure 1
0000
0000
0000
0000
,  // measure 2
0000
0000
0000
0000
,  // measure 3
0000
0000
0000
0000
,  // measure 4
0000
0000
0000
0001
,  // measure 5
1000
0001
0000
0000
1000
0000
0010
0000
0100
0000
0001
0000
0010
0000
0001
0000
,  // measure 6
0000
1000
0000
0001
0000
1000
0100
0000
,  // measure 7
0100
0010
0000
0000
0002
0000
0000
0000
1000
0000
1000
0000
1003
0000
0000
0000
,  // measure 8
1000
0001
1000
0100
0010
0001
1000
0000
,  // measure 9
0010
0100
0010
0000
1000
0000
0100
0010
0001
0000
1000
0000
0010
0000
0100
0000
,  // measure 10
0000
0100
0000
0100
0000
0100
0010
0000
,  // measure 11
0100
0010
1000
0000
0010
0000
1000
0000
0100
0000
0001
0000
0100
0000
1000
0000
,  // measure 12
0001
0000
0000
1000
0000
0000
0020
0000
0000
0000
0000
0000
0100
0000
0100
0000
0130
0000
0110
0000
0000
0000
0000
0000
,  // measure 13
2020
0000
3030
1000
0100
0000
0001
0000
,  // measure 14
2200
0000
3300
1000
0010
0000
0001
0000
,  // measure 15
1010
0000
0100
0000
0011
0000
1000
0202
,  // measure 16
0000
0303
0001
0000
1000
0000
0001
0000
,  // measure 17
1000
0100
1000
0000
0010
0100
0001
0000
,  // measure 18
0001
1000
0010
0000
0010
0100
0001
0000
,  // measure 19
0100
0100
0100
0100
,  // measure 20
0100
0000
0100
0000
0100
0000
0100
0000
0200
0000
0000
0000
0301
0010
0100
0000
,  // measure 21
1000
0001
1000
0000
1000
0001
1000
0000
,  // measure 22
1000
0001
1000
0000
1000
0001
1000
0000
,  // measure 23
0010
0100
0010
0000
0100
0001
0010
0000
,  // measure 24
0001
1000
0001
0000
0001
1000
0001
0000
,  // measure 25
1000
0100
0010
0000
0001
0010
0100
0000
,  // measure 26
1000
0010
0100
0000
0001
0010
0100
0000
,  // measure 27
0100
1000
0010
0000
1000
0001
0100
0000
,  // measure 28
0001
0000
0100
0010
1000
0000
1000
0000
1000
0000
0100
0010
0001
0000
1000
0000
,  // measure 29
0001
0010
1000
0010
0001
0010
1000
0010
,  // measure 30
0001
0100
1000
0100
0001
0100
1000
0100
,  // measure 31
0001
0100
0010
0000
0010
1000
0100
1000
,  // measure 32
1000
0001
0000
0001
0001
1000
0010
1000
,  // measure 33
0001
0010
0100
0010
0100
1000
0010
0100
,  // measure 34
0001
0010
0010
0001
1000
0010
1000
0100
,  // measure 35
1000
1000
0001
0000
0001
0001
1000
0101
,  // measure 36
0000
1010
0000
1100
0000
1100
0000
1001
,  // measure 37
1000
0001
0000
0001
1000
0000
1000
0100
,  // measure 38
0000
0000
0100
0000
0000
0000
1000
0000
0000
0000
0010
0000
0100
0010
0100
0010
,  // measure 39
0100
0001
0000
0001
1000
0000
1000
0001
,  // measure 40
0000
0000
0000
1000
0000
0100
1100
0000
,  // measure 41
1000
0001
0000
0000
1000
0000
0010
0000
0100
0001
0000
0000
0010
0000
0001
1000
,  // measure 42
0000
1000
0000
0001
0000
1000
0100
0000
,  // measure 43
0100
0010
0001
0000
1000
0000
0001
0000
1000
0000
0001
0000
0010
0000
0001
0000
,  // measure 44
1000
0100
0010
0001
0010
0001
1000
0000
,  // measure 45
0010
0100
0010
0000
1000
0000
0100
0000
0010
0000
0001
0000
1000
0000
0100
0000
,  // measure 46
0010
0100
1000
0020
0000
0000
0130
0000
,  // measure 47
0100
0010
1000
0000
0010
0000
1000
0000
0100
0000
0001
0000
0100
0000
1000
0000
,  // measure 48
0000
0000
0000
0020
0000
0000
0100
0100
0130
0110
0000
0000
,  // measure 49
2020
0000
3030
1000
0100
0000
0001
0000
,  // measure 50
2200
0000
3300
1000
0010
0000
0001
0000
,  // measure 51
1010
0000
0100
0000
0011
0000
1000
0202
,  // measure 52
0000
0303
0001
0000
1000
0000
0001
0000
,  // measure 53
1000
0100
1000
0000
0100
0001
0100
0000
,  // measure 54
1000
0001
0100
0000
0010
0100
1000
0000
,  // measure 55
0100
0100
0100
0100
,  // measure 56
0100
0000
0100
0000
0100
0000
0100
0000
0200
0000
0000
0000
0310
1000
0001
0000
,  // measure 57
0001
1000
0001
0001
0001
1000
0001
0001
,  // measure 58
0001
1000
0001
0001
0001
1000
0001
0001
,  // measure 59
0100
0010
0100
0100
0010
1000
0100
0100
,  // measure 60
1000
0001
1000
1000
0001
1000
0001
0001
,  // measure 61
0001
0010
0100
1000
1000
0100
0010
0001
,  // measure 62
0001
0100
0010
1000
1000
0100
0010
0010
,  // measure 63
0010
0001
0100
0000
0001
1000
0010
0000
,  // measure 64
1000
0000
0010
0100
0001
0000
0001
0000
0001
0000
0010
0100
1000
0000
0001
0000
,  // measure 65
1000
0100
0001
0100
1000
0100
0001
0100
,  // measure 66
1000
0010
0001
0010
1000
0010
0001
0010
,  // measure 67
1000
0010
0100
0000
0100
0001
0010
0001
,  // measure 68
0001
1000
0000
1000
1000
0001
0100
0001
,  // measure 69
1000
0100
0010
0100
0010
0001
0100
0010
,  // measure 70
1000
0100
0100
1000
0001
0100
0001
0010
,  // measure 71
0001
0001
1000
0000
1000
1000
0001
1000
,  // measure 72
1000
1010
0000
0001
0100
0110
0000
1001
;
