#TITLE:Nightbird;
#SUBTITLE:;
#ARTIST:tokiwa;
#TITLETRANSLIT:;
#SUBTITLETRANSLIT:;
#ARTISTTRANSLIT:;
#GENRE:;
#CREDIT:;
#BANNER:banner.png;
#BACKGROUND:background.png;
#LYRICSPATH:;
#CDTITLE:;
#MUSIC:Nightbird.ogg;
#OFFSET:0.896758;
#SAMPLESTART:17.031178;
#SAMPLELENGTH:14.328356;
#SELECTABLE:YES;
#BPMS:0.000000=134.000000
;
#STOPS:104.000000=3.134000
;
#BGCHANGES:;
#KEYSOUNDS:;
#ATTACKS:;

//---------------dance-single - ----------------
#NOTES:
     dance-single:
     :
     Challenge:
     10:
     0.690530,0.801876,0.288929,0.140560,0.652043,619.000000,582.000000,37.000000,18.000000,32.000000,0.000000,0.690530,0.801876,0.288929,0.140560,0.652043,619.000000,582.000000,37.000000,18.000000,32.000000,0.000000:
0000
0000
0000
0000
,
0000
0000
0000
0000
,
1001
0000
0000
0000
0100
0000
0001
0000
0010
0100
0000
0100
0000
0100
1000
0000
,
0010
0000
1000
0000
0010
0000
0100
0000
0010
0000
0000
0010
1000
0000
0001
0000
,
0010
0000
0000
0000
0100
0000
1000
0000
0010
0100
0000
0100
0000
0100
0001
0000
,
1000
0000
0100
0000
0001
0000
0100
0000
1000
0000
1000
0001
0000
0001
1000
0000
,
0100
1000
0010
1000
0001
0100
0001
0010
,
0001
1000
0010
1000
0001
0010
0100
1000
,
0010
1000
0010
1000
0001
1000
0001
1000
0100
0010
0100
0010
0001
0010
0001
1000
,
0010
0000
0100
0001
1000
0100
0010
0001
1000
0010
1000
0000
1001
0000
0000
0000
,
0101
0000
0000
0010
0001
0000
1000
0000
0001
0010
0000
0010
0001
1000
0100
0000
,
1000
0000
0010
0100
0010
0000
1000
0000
0100
0000
0000
0110
0000
0000
0011
0000
,
1100
0000
0000
0010
1000
0000
0001
0000
1000
0100
0000
0100
1000
0001
0010
0000
,
0001
0000
1000
0100
1000
0000
0010
0000
0100
0000
0000
0101
0000
0000
0110
0000
,
1001
0000
0000
1000
0001
0000
0100
0000
0010
0100
0000
0100
0001
1000
0010
0000
,
1000
0000
0100
1000
0001
0000
0010
0000
0100
0000
0000
0110
0000
0000
1010
0000
,
0101
0000
0000
0001
1000
0000
0010
0000
1000
0001
0000
0001
0010
0100
1000
0000
,
0010
1000
0100
0010
0001
0100
0010
0100
0001
0010
0100
0000
1001
0000
0000
0000
,
0011
0000
0000
0010
0001
0000
1000
0000
0001
0100
0000
0100
0001
1000
0010
0000
,
1000
0000
0100
1000
0010
0000
0100
0000
0001
0000
1000
0100
0000
0100
1000
0000
,
1010
0000
0000
0010
1000
0000
0001
0000
1000
0100
0000
0100
1000
0001
0010
0000
,
0100
0000
0010
0001
1000
0000
0100
0000
0010
0000
0100
1000
0000
1000
0100
0000
,
1001
0000
0000
0001
0010
0000
0001
0000
0100
0010
0000
0010
0100
0001
1000
0000
,
0100
0000
0010
0100
1000
0000
0001
0000
0010
0000
0010
0001
0000
0001
1000
0000
,
1001
0000
0000
1000
0010
0000
1000
0000
0100
0010
0000
0010
0100
1000
0001
0000
,
0100
0001
0100
0010
1000
0100
0010
0100
1000
0001
0010
0000
1100
0000
0000
0000
,
0022
0033
0000
0000
0000
0000
0000
0000
1000
0000
0000
0000
0000
0000
1000
0000
0000
0000
0000
0000
0010
0000
0000
0000
1000
0000
0001
0000
0000
0000
1000
0000
,
0000
0000
0100
0000
0010
0000
0000
0010
0000
0000
0001
0000
1000
0000
0000
0000
,
0001
0000
0000
0000
0100
0000
0000
0100
0000
0000
0001
0000
1000
0010
0000
1000
,
0000
0000
0001
0000
1000
0000
0000
1000
0000
0000
0100
0000
0010
0001
0000
0000
,
1000
0000
0001
0000
0100
0000
0000
0100
0000
0000
0001
0000
0010
0001
0000
0010
,
0000
0000
0100
0000
1000
0000
0000
1000
0000
0000
0001
0000
0100
0000
0000
0000
,
0020
0000
0000
0000
0100
0000
0000
0100
0000
0000
0100
0000
1030
0001
0000
1000
,
0000
0000
0200
0000
0010
0000
0000
0010
0000
0000
1300
0000
1000
0010
0000
0000
,
0100
0000
0001
0000
1001
0000
0000
0010
1000
0000
0001
0000
1000
0000
0000
0100
,
1000
0000
0010
0000
0100
0000
0000
0010
0100
0000
0001
0000
1000
0000
0100
0000
,
0001
0000
0100
0000
1000
0000
0000
0001
1000
0000
0100
0000
1000
0000
0000
0001
,
0010
0000
0100
0000
0010
0000
0000
0010
0001
0000
0100
0000
0010
0000
1000
0000
,
0100
0000
0010
0000
0001
0000
0000
0100
0001
0000
1000
0000
0001
0000
0000
0100
,
0010
0000
1000
0000
0010
0000
0000
0100
0010
0000
1000
0000
0001
0000
0100
0000
,
1000
0000
0100
0000
0001
0000
0000
0010
0001
0000
1000
0000
0001
0000
0000
0100
,
0010
0000
0100
0000
0001
0000
0000
1000
0100
0000
0010
0000
0001
0000
0010
0000
,
0100
1000
0001
0000
1001
0000
0000
0000
0010
0000
1000
0000
0001
0000
1000
0000
,
0100
0000
0001
0000
0100
0000
0000
0000
1000
0000
0000
0000
0010
0000
0000
1000
,
0000
1000
0001
0000
0010
0001
1000
0001
,
0100
0000
1000
0000
0100
0000
0000
0000
0001
0000
0000
0000
0010
0000
0000
0001
,
0000
1000
0010
1000
0001
0100
0001
0010
,
0100
1000
0010
1000
0001
0100
0001
0010
,
0100
0000
1000
0000
0010
1000
0010
1000
0001
0100
0001
0100
0010
1000
0100
0010
,
0001
0100
0010
1000
0100
0010
0001
1000
0100
1000
0001
1000
0100
0010
0001
0000
,
1001
0000
0000
0000
12M0
0000
0000
0000
130M
0010
0100
0010
1M00
0000
0001
0000
,
10M0
0000
0001
0000
0M21
0000
0000
0000
M031
0100
0010
0100
00M1
0000
1000
0001
,
01M0
0000
0010
0000
201M
0000
0000
0000
3M01
0010
0100
0010
0M01
1000
0100
0000
,
10M0
0001
0100
0000
M102
0000
0000
0000
1M03
0010
0100
0010
100M
0000
0100
0010
,
0M01
0000
1000
0000
0020
0000
1030
0000
0001
0000
0100
0010
0100
0000
0010
0000
,
1100
0000
0001
0000
0002
0000
0013
0000
0100
0010
0100
1000
0010
0000
0100
0000
,
0001
0000
1000
0000
2001
0000
3010
0000
0100
0010
0100
0001
0010
0000
0001
0000
,
1000
0000
0010
0000
0010
1000
0100
0010
0100
1000
0001
0010
0100
0010
0001
0000
,
1001
0000
0000
0000
210M
0000
0000
0000
30M1
0100
0010
0100
M001
0000
0010
0000
,
0M01
0000
0100
0000
M102
0000
0000
0000
10M3
0100
0010
0100
100M
0000
0010
1000
,
0M01
0000
0010
0000
M021
0000
0000
0000
013M
1000
0001
0010
M100
0010
0001
0000
,
01M0
0000
0010
0000
102M
0000
0000
0000
1M30
0001
1000
0100
M010
0000
0001
0010
,
010M
0000
1000
0000
0200
0000
0310
0000
0001
0000
0100
0001
0100
0000
0010
0000
,
1100
0000
0001
0000
0002
0000
1003
0000
0010
1000
0100
1000
0010
0000
0100
0000
,
0001
0000
1000
0000
2100
0000
3001
0000
0010
0001
0100
0001
0010
0000
0100
0000
,
1000
0000
0010
0000
0010
1000
0001
1000
0100
0010
0001
0100
0010
1000
0001
0000
,
0110
1001
0000
0000
;

//---------------dance-single - ----------------
#NOTES:
     dance-single:
     :
     Hard:
     10:
     0.690530,0.801876,0.288929,0.140560,0.652043,619.000000,582.000000,37.000000,18.000000,0.000000,0.000000,0.690530,0.801876,0.288929,0.140560,0.652043,619.000000,582.000000,37.000000,18.000000,0.000000,0.000000:
0000
0000
0000
0000
,
0000
0000
0000
0000
,
1001
0000
0000
0000
0100
0000
0001
0000
0010
0100
0000
0100
0000
0100
1000
0000
,
0010
0000
1000
0000
0010
0000
0100
0000
0010
0000
0000
0010
1000
0000
0001
0000
,
0010
0000
0000
0000
0100
0000
1000
0000
0010
0100
0000
0100
0000
0100
0001
0000
,
1000
0000
0100
0000
0001
0000
0100
0000
1000
0000
1000
0001
0000
0001
1000
0000
,
0100
1000
0010
1000
0001
0100
0001
0010
,
0001
1000
0010
1000
0001
0010
0100
1000
,
0010
1000
0010
1000
0001
1000
0001
1000
0100
0010
0100
0010
0001
0010
0001
1000
,
0010
0000
0100
0001
1000
0100
0010
0001
1000
0010
1000
0000
1001
0000
0000
0000
,
0101
0000
0000
0010
0001
0000
1000
0000
0001
0010
0000
0010
0001
1000
0100
0000
,
1000
0000
0010
0100
0010
0000
1000
0000
0100
0000
0000
0110
0000
0000
0011
0000
,
1100
0000
0000
0010
1000
0000
0001
0000
1000
0100
0000
0100
1000
0001
0010
0000
,
0001
0000
1000
0100
1000
0000
0010
0000
0100
0000
0000
0101
0000
0000
0110
0000
,
1001
0000
0000
1000
0001
0000
0100
0000
0010
0100
0000
0100
0001
1000
0010
0000
,
1000
0000
0100
1000
0001
0000
0010
0000
0100
0000
0000
0110
0000
0000
1010
0000
,
0101
0000
0000
0001
1000
0000
0010
0000
1000
0001
0000
0001
0010
0100
1000
0000
,
0010
1000
0100
0010
0001
0100
0010
0100
0001
0010
0100
0000
1001
0000
0000
0000
,
0011
0000
0000
0010
0001
0000
1000
0000
0001
0100
0000
0100
0001
1000
0010
0000
,
1000
0000
0100
1000
0010
0000
0100
0000
0001
0000
1000
0100
0000
0100
1000
0000
,
1010
0000
0000
0010
1000
0000
0001
0000
1000
0100
0000
0100
1000
0001
0010
0000
,
0100
0000
0010
0001
1000
0000
0100
0000
0010
0000
0100
1000
0000
1000
0100
0000
,
1001
0000
0000
0001
0010
0000
0001
0000
0100
0010
0000
0010
0100
0001
1000
0000
,
0100
0000
0010
0100
1000
0000
0001
0000
0010
0000
0010
0001
0000
0001
1000
0000
,
1001
0000
0000
1000
0010
0000
1000
0000
0100
0010
0000
0010
0100
1000
0001
0000
,
0100
0001
0100
0010
1000
0100
0010
0100
1000
0001
0010
0000
1100
0000
0000
0000
,
0022
0033
0000
0000
0000
0000
0000
0000
1000
0000
0000
0000
0000
0000
1000
0000
0000
0000
0000
0000
0010
0000
0000
0000
1000
0000
0001
0000
0000
0000
1000
0000
,
0000
0000
0100
0000
0010
0000
0000
0010
0000
0000
0001
0000
1000
0000
0000
0000
,
0001
0000
0000
0000
0100
0000
0000
0100
0000
0000
0001
0000
1000
0010
0000
1000
,
0000
0000
0001
0000
1000
0000
0000
1000
0000
0000
0100
0000
0010
0001
0000
0000
,
1000
0000
0001
0000
0100
0000
0000
0100
0000
0000
0001
0000
0010
0001
0000
0010
,
0000
0000
0100
0000
1000
0000
0000
1000
0000
0000
0001
0000
0100
0000
0000
0000
,
0020
0000
0000
0000
0100
0000
0000
0100
0000
0000
0100
0000
1030
0001
0000
1000
,
0000
0000
0200
0000
0010
0000
0000
0010
0000
0000
1300
0000
1000
0010
0000
0000
,
0100
0000
0001
0000
1001
0000
0000
0010
1000
0000
0001
0000
1000
0000
0000
0100
,
1000
0000
0010
0000
0100
0000
0000
0010
0100
0000
0001
0000
1000
0000
0100
0000
,
0001
0000
0100
0000
1000
0000
0000
0001
1000
0000
0100
0000
1000
0000
0000
0001
,
0010
0000
0100
0000
0010
0000
0000
0010
0001
0000
0100
0000
0010
0000
1000
0000
,
0100
0000
0010
0000
0001
0000
0000
0100
0001
0000
1000
0000
0001
0000
0000
0100
,
0010
0000
1000
0000
0010
0000
0000
0100
0010
0000
1000
0000
0001
0000
0100
0000
,
1000
0000
0100
0000
0001
0000
0000
0010
0001
0000
1000
0000
0001
0000
0000
0100
,
0010
0000
0100
0000
0001
0000
0000
1000
0100
0000
0010
0000
0001
0000
0010
0000
,
0100
1000
0001
0000
1001
0000
0000
0000
0010
0000
1000
0000
0001
0000
1000
0000
,
0100
0000
0001
0000
0100
0000
0000
0000
1000
0000
0000
0000
0010
0000
0000
1000
,
0000
1000
0001
0000
0010
0001
1000
0001
,
0100
0000
1000
0000
0100
0000
0000
0000
0001
0000
0000
0000
0010
0000
0000
0001
,
0000
1000
0010
1000
0001
0100
0001
0010
,
0100
1000
0010
1000
0001
0100
0001
0010
,
0100
0000
1000
0000
0010
1000
0010
1000
0001
0100
0001
0100
0010
1000
0100
0010
,
0001
0100
0010
1000
0100
0010
0001
1000
0100
1000
0001
1000
0100
0010
0001
0000
,
1001
0000
0000
0000
1200
0000
0000
0000
1300
0010
0100
0010
1000
0000
0001
0000
,
1000
0000
0001
0000
0021
0000
0000
0000
0031
0100
0010
0100
0001
0000
1000
0001
,
0100
0000
0010
0000
2010
0000
0000
0000
3001
0010
0100
0010
0001
1000
0100
0000
,
1000
0001
0100
0000
0102
0000
0000
0000
1003
0010
0100
0010
1000
0000
0100
0010
,
0001
0000
1000
0000
0020
0000
1030
0000
0001
0000
0100
0010
0100
0000
0010
0000
,
1100
0000
0001
0000
0002
0000
0013
0000
0100
0010
0100
1000
0010
0000
0100
0000
,
0001
0000
1000
0000
2001
0000
3010
0000
0100
0010
0100
0001
0010
0000
0001
0000
,
1000
0000
0010
0000
0010
1000
0100
0010
0100
1000
0001
0010
0100
0010
0001
0000
,
1001
0000
0000
0000
2100
0000
0000
0000
3001
0100
0010
0100
0001
0000
0010
0000
,
0001
0000
0100
0000
0102
0000
0000
0000
1003
0100
0010
0100
1000
0000
0010
1000
,
0001
0000
0010
0000
0021
0000
0000
0000
0130
1000
0001
0010
0100
0010
0001
0000
,
0100
0000
0010
0000
1020
0000
0000
0000
1030
0001
1000
0100
0010
0000
0001
0010
,
0100
0000
1000
0000
0200
0000
0310
0000
0001
0000
0100
0001
0100
0000
0010
0000
,
1100
0000
0001
0000
0002
0000
1003
0000
0010
1000
0100
1000
0010
0000
0100
0000
,
0001
0000
1000
0000
2100
0000
3001
0000
0010
0001
0100
0001
0010
0000
0100
0000
,
1000
0000
0010
0000
0010
1000
0001
1000
0100
0010
0001
0100
0010
1000
0001
0000
,
0110
1001
0000
0000
;

//---------------dance-single - ----------------
#NOTES:
     dance-single:
     :
     Medium:
     7:
     0.438414,0.465606,0.343592,0.585667,0.070280,393.000000,349.000000,44.000000,75.000000,0.000000,0.000000,0.438414,0.465606,0.343592,0.585667,0.070280,393.000000,349.000000,44.000000,75.000000,0.000000,0.000000:
0000
0000
0000
0000
,
0000
0000
0000
0000
,
0000
0000
0000
0000
,
0000
0000
0000
0000
,
0000
0000
0000
0000
,
0000
0000
0000
0000
,
0010
1000
0010
0000
1000
0001
1000
0000
,
0100
0010
0100
0000
0010
0001
0010
0000
,
0001
0100
0010
1000
0001
0100
0010
1000
,
0001
1000
0001
0100
0001
1000
0010
0000
,
1001
0000
1000
0000
0100
0010
0100
0000
,
0010
0000
0001
0000
1000
0000
0001
0000
0100
0000
0000
0010
0000
0000
0100
0000
,
0001
0000
1000
0000
0010
1000
0010
0000
,
1000
0000
0100
0000
0010
0000
0100
0000
1000
0000
0000
0001
0000
0000
1000
0000
,
0010
0000
1000
0000
0001
0100
0001
0000
,
0010
0000
0100
0000
0010
0000
0001
0000
0010
0000
0000
0001
0000
0000
1000
0000
,
0001
0000
0100
0000
0010
1000
0010
0000
,
1000
0100
0010
0001
1000
0100
0010
0000
,
1001
0000
0100
0000
0001
1000
0001
0000
,
0010
0000
0000
0000
0100
0000
0000
0000
1000
0000
0010
1000
0000
0010
1000
0000
,
0001
0000
0010
0000
0100
1000
0100
0000
,
0010
0000
0001
0000
1000
0000
0001
0000
0100
0000
0001
0100
0000
0001
0100
0000
,
0010
0000
1000
0000
0001
0100
0001
0000
,
1000
0000
0010
0000
1000
0000
0100
0000
0010
0000
0100
0010
0000
0100
0010
0000
,
0001
0000
0100
0000
0010
1000
0010
0000
,
0100
0010
1000
0001
0100
0010
1000
0000
,
2002
3003
0000
0000
0000
0000
0000
0000
0001
0000
0000
0000
0000
0000
1000
0000
0000
0000
0000
0000
1000
0000
0000
0000
0010
0000
0000
0000
0000
0000
0100
0000
,
0000
0000
0100
0000
0010
0000
0000
1000
0000
0000
1000
0000
0001
0000
0000
0000
,
0020
0000
0001
0000
0000
0001
0031
0000
,
1000
0000
0000
0000
0020
0000
0000
1000
0000
0000
1000
0000
1030
0000
0000
0000
,
0010
0000
0000
0000
1000
0000
0000
0001
0000
0000
0001
0000
0010
0000
0000
0100
,
0000
0000
0100
0000
0010
0000
0000
0001
0000
0000
0001
0000
0100
0000
0000
0000
,
0020
1000
1000
0100
,
0100
0001
1030
0100
,
0010
0100
1000
0000
0001
0010
0001
0000
,
1000
0001
1000
0000
1000
0010
1000
0001
,
0100
0001
0010
0000
0001
0010
0001
0000
,
1000
0100
1000
0000
1000
0001
1000
0010
,
0100
0001
0010
0000
0100
1000
0100
0000
,
0010
0001
0010
0000
0010
0001
1000
0001
,
0100
0010
1000
0000
0010
1000
0010
0000
,
0100
0001
1000
0000
0001
1000
0100
0000
,
0010
0001
1001
0000
0001
0100
0001
0100
,
0001
0000
1000
0000
0001
0000
0000
0000
1000
0000
0000
0000
0010
0000
0000
0010
,
0000
0010
1000
0000
1000
0010
1000
0010
,
1000
0000
0001
0000
1000
0000
0000
0000
0100
0000
0000
0000
0010
0000
0000
0010
,
0000
0010
0011
0000
0001
0000
1001
0000
,
0100
1010
1000
1100
,
0100
0000
0010
0001
0100
0010
1000
0100
,
0010
0001
1000
0001
1000
0001
0010
0100
,
1001
0000
0000
0000
2020
3030
0000
0000
2002
3003
0000
0000
0202
0303
0000
0000
,
0220
0330
0000
0000
0022
0033
0000
0000
2200
3300
0000
0000
2002
3003
0000
0000
,
0202
0303
0000
0000
0220
0330
0000
0000
2020
3030
0000
0000
2002
3003
0000
0000
,
0220
0330
0000
0000
0022
0033
0000
0000
2002
3003
0000
0000
2020
3030
0000
0000
,
0202
0303
0000
0000
2000
0000
0000
0000
3001
0000
0010
0000
0001
0000
1000
0000
,
0000
0010
0020
0000
1030
0100
1000
0001
,
0000
0010
0020
0000
0031
0100
0001
1000
,
0000
0100
0100
1000
0001
1000
0010
1000
,
0110
0000
0000
0000
0022
0033
0000
0000
2002
3003
0000
0000
2020
3030
0000
0000
,
0220
0330
0000
0000
2200
3300
0000
0000
0022
0033
0000
0000
2002
3003
0000
0000
,
2020
3030
0000
0000
0220
0330
0000
0000
0202
0303
0000
0000
2002
3003
0000
0000
,
0220
0330
0000
0000
2200
3300
0000
0000
2002
3003
0000
0000
0202
0303
0000
0000
,
2020
3030
0000
0000
0002
0000
0000
0000
1003
0000
0100
0000
1000
0000
0001
0000
,
0000
0100
0200
0000
0301
0010
0001
1000
,
0000
0100
0200
0000
1300
0010
1000
0001
,
0000
0100
0100
0001
1000
0001
0010
0001
,
0110
1001
0000
0000
;

//---------------dance-single - ----------------
#NOTES:
     dance-single:
     :
     Easy:
     5:
     0.282236,0.336271,0.078089,0.320165,0.031236,253.000000,243.000000,10.000000,41.000000,0.000000,0.000000,0.282236,0.336271,0.078089,0.320165,0.031236,253.000000,243.000000,10.000000,41.000000,0.000000,0.000000:
0000
0000
0000
0000
,
0000
0000
0000
0000
,
0000
0000
0000
0000
,
0000
0000
0000
0000
,
0000
0000
0000
0000
,
0000
0000
0000
0000
,
0001
1000
0001
0100
,
0010
1000
0100
0010
,
0001
1000
0100
1000
,
0010
0010
0010
1001
,
1000
0001
0010
0001
,
1000
0000
0100
0000
1000
0000
0000
0000
0010
0000
0000
0010
0000
0000
0010
0000
,
1000
0001
1000
0010
,
0100
0000
0001
0000
0100
0000
0000
0000
0001
0000
0000
0001
0000
0000
0001
0000
,
1000
0000
0001
0000
0010
0100
0010
0000
,
0001
0000
0000
0000
0100
0000
0000
0000
0010
0000
0000
0010
0000
0000
0010
0000
,
1000
0001
1000
0100
,
0010
0100
0010
1001
,
0001
0100
0010
1000
,
0010
0000
0100
0000
0010
0000
0000
0000
0100
0000
0000
0100
0000
0000
0100
0000
,
0010
1000
0001
1000
,
0001
0000
0010
0000
0001
0000
0000
0000
0010
0000
0000
0010
0000
0000
0010
0000
,
0001
1000
0100
1000
,
0001
0000
0100
0000
0001
0000
0000
0000
1000
0000
0000
1000
0000
0000
1000
0000
,
0010
0100
0001
1000
,
0001
1000
0001
1000
0001
1000
0001
0000
,
1001
0020
0000
1030
,
0100
0001
0000
0010
,
0001
2000
0000
0010
,
0000
3002
0000
0103
,
0000
1000
0010
1000
,
0001
1000
0000
0100
,
0010
0002
0000
0023
,
0000
0230
0000
2300
,
0000
3100
0010
0100
,
1000
0001
1000
0010
,
0100
0001
0100
0010
,
0100
0001
0010
0100
,
1000
0001
0010
0001
,
1000
0100
1000
0010
,
0100
0001
1000
0100
,
1000
0001
0010
0100
,
0010
1001
0000
1000
,
1000
0000
0000
0000
1000
0000
0000
0000
0000
0000
0000
0000
0001
0000
0000
0001
,
0000
0001
0001
0000
0000
0000
0010
0000
,
0010
0000
0000
0000
0010
0000
0000
0000
0000
0000
0000
0000
0100
0000
0000
0100
,
0000
0100
0100
0000
0000
0000
1010
0000
,
0000
1001
0000
0110
,
0000
0010
0001
0100
,
0010
0000
1000
0001
1000
0001
1000
0001
,
1000
0020
2030
3200
,
0320
0032
2003
3002
,
0203
0320
2030
3002
,
0203
0320
0230
0302
,
0023
0000
0230
0000
1300
0000
0000
0010
,
0000
0010
0010
0000
0000
1000
0000
0001
,
0000
0001
0001
0000
0000
0010
0000
0100
,
0000
0100
0100
0000
1000
0000
0010
0000
,
1001
0200
2300
3020
,
2030
3002
0203
0320
,
2030
3002
0023
0230
,
2300
3002
0023
0032
,
0203
0000
0320
0000
1030
0000
0000
0001
,
0000
0001
0001
0000
0000
0010
0000
0100
,
0000
0100
0100
0000
0000
1000
0000
0010
,
0000
0010
0010
0000
1000
0000
0001
0000
,
0110
1001
0000
0000
;

//---------------dance-single - ----------------
#NOTES:
     dance-single:
     :
     Beginner:
     2:
     0.185182,0.232803,0.039044,0.000000,0.000000,166.000000,161.000000,5.000000,0.000000,0.000000,0.000000,0.185182,0.232803,0.039044,0.000000,0.000000,166.000000,161.000000,5.000000,0.000000,0.000000,0.000000:
// measure 0
0000
0000
0000
0000
,  // measure 1
0000
0000
0000
0000
,  // measure 2
0000
0000
0000
0000
,  // measure 3
0000
0000
0000
0000
,  // measure 4
0000
0000
0000
0000
,  // measure 5
0000
0000
0000
0000
,  // measure 6
0010
0000
1000
0000
,  // measure 7
0001
0000
0010
0000
,  // measure 8
0001
0000
1000
0000
,  // measure 9
0100
0000
0010
0010
,  // measure 10
0010
0000
1001
0000
,  // measure 11
1000
0000
0010
0010
,  // measure 12
0010
0000
1000
0000
,  // measure 13
0100
0000
0010
0010
,  // measure 14
0010
0000
0001
0000
,  // measure 15
1000
1000
1000
0000
,  // measure 16
0100
0000
0010
0000
,  // measure 17
0001
1000
0001
1000
,  // measure 18
1001
0000
0100
0000
,  // measure 19
0010
0010
0010
0000
,  // measure 20
1000
0000
0001
0000
,  // measure 21
0100
0100
0100
0000
,  // measure 22
0001
0000
0010
0000
,  // measure 23
0100
0100
0100
0000
,  // measure 24
1000
0000
0001
0000
,  // measure 25
0010
0010
0010
0000
,  // measure 26
1001
0010
0000
1000
,  // measure 27
0000
0001
0000
0010
,  // measure 28
0010
0000
0000
0010
,  // measure 29
0000
0100
0000
1000
,  // measure 30
0000
0001
0001
0000
,  // measure 31
1000
1000
0000
0010
,  // measure 32
0010
0100
0000
1000
,  // measure 33
0000
0010
0000
0100
,  // measure 34
0000
0001
0000
0010
,  // measure 35
0000
0001
0100
0001
,  // measure 36
0000
1000
0000
0010
,  // measure 37
0000
1000
0100
1000
,  // measure 38
0000
0010
0000
0100
,  // measure 39
0000
0001
1000
0001
,  // measure 40
0000
0010
0000
0100
,  // measure 41
0000
1000
0001
1000
,  // measure 42
0000
0110
0000
0010
,  // measure 43
0010
0010
0000
0100
,  // measure 44
0000
0100
0000
0001
,  // measure 45
0001
0001
0000
1000
,  // measure 46
0000
1000
0000
1000
,  // measure 47
0000
0001
0000
0001
,  // measure 48
0000
0010
0000
0100
,  // measure 49
0000
1000
0001
1000
,  // measure 50
0000
0010
0010
0010
,  // measure 51
0010
1000
1000
1000
,  // measure 52
1000
0001
0001
0001
,  // measure 53
0001
0100
0100
0100
,  // measure 54
0100
0010
0000
1000
,  // measure 55
0000
0001
0000
0010
,  // measure 56
0010
0010
0000
0001
,  // measure 57
0000
0100
0100
0100
,  // measure 58
0000
0001
0001
0001
,  // measure 59
0001
1000
1000
1000
,  // measure 60
1000
0010
0010
0010
,  // measure 61
0010
0100
0100
0100
,  // measure 62
0100
0001
0000
1000
,  // measure 63
0000
0010
0000
0100
,  // measure 64
0100
0100
0000
0001
,  // measure 65
0000
0010
0010
0010
,  // measure 66
0000
1001
0000
0000
;
