#TITLE:[Qualifier] - Lyrith;
#SUBTITLE:;
#ARTIST:Leaf;
#TITLETRANSLIT:;
#SUBTITLETRANSLIT:;
#ARTISTTRANSLIT:;
#GENRE:;
#CREDIT:;
#MUSIC:[Qualifier] - Lyrith.ogg;
#BANNER:Lyrith Banner.png;
#BACKGROUND:Lyrith BG.png;
#CDTITLE:;
#SAMPLESTART:0.000;
#SAMPLELENGTH:0.000;
#SELECTABLE:YES;
#OFFSET:-0.066;
#BPMS:0.000=177.000;
#STOPS:;
#BGCHANGES:;
#FGCHANGES:;

//--------------- dance-single - Maractus ----------------
#NOTES:
     dance-single:
     Maractus:
     Hard:
     10:
     0,0,0,0,0:
0000
0000
0000
0000
,
0000
0000
0000
0000
,
0000
0000
0000
0000
,
0000
0000
0000
0000
,
0000
0000
0000
0000
,
0000
0000
0000
0000
,
0000
0000
1000
0000
,
0001
0000
0100
0010
,
1000
0001
1000
0000
,
0000
0000
0000
0000
1000
0010
0100
0001
,
1000
0000
0000
1000
0001
0000
1000
0000
,
0100
0000
0010
0000
0001
0001
0001
0000
,
1000
0000
1000
0000
1000
0000
0000
0000
1000
0000
0010
0100
0000
0010
0100
0000
,
0001
1000
0001
0100
0010
1000
0100
0010
,
0001
1000
1000
1000
0000
0001
0010
0100
,
1000
0001
0100
0010
1000
0001
1000
0100
,
0010
0000
0001
0000
0100
0000
0010
0000
1000
0000
1000
0000
1000
0001
0000
0001
,
1000
0000
1000
0001
0000
0000
0000
0000
0001
0000
1000
0000
0010
0000
0100
0000
,
0001
0000
0000
1000
0000
0000
0001
0000
0020
0000
0030
0000
0010
0000
0100
0000
,
2000
3000
1000
0010
0100
0001
1000
0001
,
0100
0000
0100
0010
2000
3000
1000
0100
,
0020
0030
0010
0001
0010
0100
1000
0001
,
0010
0000
0010
0100
2000
3000
1000
0010
,
0200
0300
0100
0001
0100
0010
1000
0001
,
1000
0000
1000
0100
0020
0030
0010
0001
,
1000
0000
1000
0001
1000
0000
0001
0000
,
1000
0001
0100
0010
2000
3000
0100
0010
,
0001
0100
0010
1000
0010
0100
0010
1000
,
0001
0000
1000
0001
0100
0010
1000
0100
,
0010
0001
0010
0100
0010
0001
0100
0001
,
1000
0000
1000
0100
0010
0000
0010
0001
,
1000
0000
1000
0010
0100
0001
0010
0100
,
1000
0000
0001
0010
0100
0000
0100
1000
,
0001
0000
0001
0010
0100
1000
0010
0100
,
0001
1000
0001
0010
0200
0000
0000
0000
,
0000
0300
0100
1000
0001
0000
0001
0010
,
0100
0000
0100
1000
0002
0000
0000
0000
,
0003
0001
0100
0010
1000
0000
1000
0100
,
0010
0000
0000
0000
0010
0000
0001
0000
1000
0000
0000
0000
0001
1000
0001
1000
,
0001
1000
0010
0001
,
0010
0000
0000
0000
1000
0000
0000
0000
1000
0001
0000
0001
1000
0000
0100
0000
,
0010
0001
0100
0010
1000
0000
0001
0000
,
1000
0000
MMMM
0000
1000
1000
1000
0010
,
0010
0000
0010
0000
0100
0000
0100
0000
0100
0000
0001
0000
0001
0000
0010
0100
,
1000
0010
0100
0001
1000
0000
1000
0000
1000
0000
0100
0000
0100
0000
0100
0000
,
0010
0000
0010
0000
0010
0000
0001
0000
1000
0000
0100
0010
0001
0100
0010
1000
,
0001
1000
1000
0100
1000
1000
0010
1000
,
1000
0000
0001
0000
1000
0000
0001
0010
0100
1000
0010
0100
0001
1000
0001
0000
,
1000
0001
0010
0001
0001
0100
0001
0001
,
1000
1000
0010
0100
0010
1000
0010
0100
,
0010
0001
0010
0100
0010
1000
0100
1000
,
0100
0010
0100
0000
1000
0000
0100
0000
0010
0000
0100
0000
0001
0000
0100
0000
,
0010
0100
1000
0010
1000
0100
0010
0100
,
0010
1000
0010
0100
0010
0001
0010
0100
,
0010
0001
1000
0001
0100
0010
0100
1000
,
0100
0010
0100
0001
1000
0100
0010
0100
,
1000
0000
0001
0000
1000
0100
0010
0001
1000
0000
0010
0000
0100
0000
0001
0000
,
0100
0010
1000
0001
0010
0100
1000
0010
,
0100
0002
0000
0000
2003
0000
0000
0000
,
0000
0000
3200
0000
,
0320
0000
0000
0000
0000
0000
0000
0000
0000
0000
0000
0000
0000
0000
0000
0000
0000
0000
0000
0000
0000
0000
0000
0000
0000
0000
0000
0000
0000
0000
0000
0000
0002
0030
0000
0000
0000
0000
0000
0000
0000
0000
0000
0000
0000
0000
0000
0000
1003
0000
0000
0000
0000
0000
0000
0000
0100
0000
0000
0000
0000
0000
0000
0000
,
1000
0000
1000
0001
1000
0000
0001
0010
,
0001
0000
1000
0000
1000
0010
0100
0001
,
1000
0000
1000
0100
0001
0000
0100
0000
,
1000
0100
1000
0010
1000
0000
0001
0000
,
1000
0000
0010
0000
0100
0000
0000
0100
,
0100
0010
0010
0110
,
1001
0000
0110
0000
1001
0000
0000
1000
,
0001
0000
2000
3000
0001
0010
0100
1000
,
0100
0010
0001
0100
0010
0100
0001
1000
,
2000
0000
3000
0000
1000
0010
0100
0001
,
0100
0010
1000
0100
0010
0100
1000
0001
,
0002
0000
0000
0000
0003
0000
0000
0000
1000
0000
0010
0000
1000
0000
0001
1000
,
0001
0000
0100
0000
0001
0000
1000
0001
1000
0000
0100
0000
0010
0000
0001
0000
,
1000
0010
0100
0001
,
1000
0000
1001
0000
0110
0000
0000
0010
,
0100
0000
1000
0000
1000
0100
0010
0001
,
0010
0100
1000
0010
0100
0010
1000
0001
,
0002
0010
0013
0001
0001
0100
0010
1000
,
0010
0100
0001
0010
0100
0010
0001
1000
,
2000
0100
3100
1000
1000
0010
0100
0001
,
1000
0100
0010
0001
0010
0100
1000
0010
,
0100
0000
0001
0000
1000
0000
0010
0000
0100
0000
0010
0100
0000
0010
0100
0000
,
0001
0000
1000
0001
0000
1000
0001
0000
2000
0000
0000
3000
0000
0000
1000
0000
,
0001
0000
0000
0000
1000
0000
0000
0000
1000
0000
0100
0000
0010
0000
0001
0100
,
0010
0000
1000
0000
0010
0000
0100
0001
0010
0000
0100
0000
1000
0000
0010
0000
,
0100
0000
0001
0000
0010
0000
0100
0000
1000
0000
0100
0000
1000
0000
0100
0010
,
0001
0000
0010
0000
0100
0000
1000
0000
0010
0100
0001
0000
1000
0000
0010
0000
,
0100
0000
0001
0000
0100
0000
0001
0000
1000
0000
0001
0000
1000
0000
0010
0100
,
0010
0000
1000
0000
0001
0000
0010
0100
0010
0000
0001
0000
1000
0000
0001
0000
,
1000
0100
1000
0000
0001
0010
0001
0000
1000
0100
1000
0000
0001
0010
0001
0000
,
1000
0001
1000
0000
0001
1000
0001
0000
0010
0000
0100
0000
0010
0000
0001
0000
,
0100
0010
1000
0001
1000
0000
0010
0000
,
0100
0000
0001
0000
1000
0000
0000
1000
,
1000
0000
0010
0000
0100
0000
0001
0010
,
0010
0001
1000
0100
0100
1000
0001
1000
,
0001
0100
0010
0100
0001
0010
0100
1000
,
0001
0100
0010
1000
0100
0010
0100
1000
,
0001
0010
0100
0010
0001
0010
0100
1000
,
0001
0100
0010
1000
0001
0100
0010
0100
,
0001
0000
1000
0000
0100
0100
1000
1000
,
0010
0010
0100
0100
0001
0001
1000
1000
,
2000
0000
0000
0000
,
0000
0000
0000
0000
,
0000
0000
0000
0000
,
0000
0000
0000
0000
,
0000
0000
3000
0001
1000
0001
1000
0001
2000
0000
0000
0000
0000
0000
0000
0000
,
0000
0000
3000
0000
;

//--------------- dance-single - Maractus ----------------
#NOTES:
     dance-single:
     Maractus:
     Challenge:
     11:
     0,0,0,0,0:
0000
0000
0000
0000
,
0000
0000
0000
0000
,
0000
0000
0000
0000
,
0000
0000
0000
0000
,
0000
0000
0000
0000
,
0000
0000
0000
0000
,
0000
0000
1000
0000
,
0001
0000
0100
0010
,
1000
0001
1000
0000
,
0000
0000
0000
0000
1000
0010
0100
0001
,
1000
0000
0000
1000
0001
0000
1000
0000
,
0100
0000
0010
0000
0001
0001
0001
0000
,
1000
0000
1000
0000
1000
0000
0000
0000
1000
0000
0010
0010
0000
0100
0100
0000
,
0001
1000
0001
0100
0010
1000
0100
0010
,
0001
1000
1000
1000
0000
0001
0010
0100
,
1000
0001
0100
0010
1000
0001
1000
0100
,
0010
0000
0001
0000
0100
0000
0010
0000
1000
0000
1000
0000
1000
0001
0000
0001
,
1000
0000
1000
0001
0000
0000
0000
0000
1000
0100
1000
0100
0010
0001
0100
0010
,
1000
0100
0000
1000
0000
0000
0001
0000
0020
0000
0030
0000
0010
0000
0100
0000
,
2000
3000
1000
0010
0100
0001
1000
0001
,
0100
0000
0100
0010
2000
3000
1000
0100
,
0020
0030
0010
0001
0010
0100
1000
0001
,
0010
0000
0010
0100
2000
3000
1000
0010
,
0200
0300
0100
0001
0100
0010
1000
0001
,
1000
0000
1000
0100
0020
0030
0010
0001
,
1000
0000
1000
0001
1000
0000
0001
0000
,
1000
0000
0001
0010
0100
1000
0010
0100
0001
0000
1000
0000
0100
0000
0010
0000
,
0001
0100
0010
1000
0010
0100
0010
1000
,
0001
0000
1000
0001
0100
0010
1000
0100
,
0010
0001
0010
0100
0010
0001
0100
0001
,
1000
0000
1000
0100
0010
0000
0010
0001
,
1000
0000
1000
0010
0100
0001
0010
0100
,
1000
0000
0001
0010
0100
0000
0100
1000
,
0001
0000
0001
0010
0100
1000
0010
0100
,
0001
1000
0001
0010
0400
0010
0000
0010
,
0000
0310
0100
1000
0001
0000
0001
0010
,
0100
0000
0100
1000
0004
1000
0000
1000
,
0000
0103
0010
1000
0001
0000
1000
0100
,
0010
0000
0000
0000
0010
0000
0001
0000
1000
0000
0000
0000
0001
1000
0001
1000
,
0001
1000
0010
0001
,
0010
0000
0000
0000
1000
0000
0000
0000
1000
1000
0000
0001
0001
0000
0010
0000
,
0100
1000
0010
0100
0001
0000
1000
0000
,
0001
0000
MMMM
0000
1000
0100
0100
0001
,
0100
0000
0100
0000
1000
0000
0100
0000
0100
0000
0001
0000
0100
0000
0100
1000
,
0010
0100
0001
1000
0001
0000
0010
0000
0010
0000
1000
0000
0010
0000
0010
0000
,
0001
0000
0010
0000
0010
0000
1000
0000
0010
0000
0010
0001
0010
0100
1000
0001
,
1000
0001
0001
0100
0001
0001
0010
0001
,
0001
0000
1000
0000
0001
0000
0001
0010
0100
1000
0010
0100
0001
1000
0001
0000
,
1000
1000
0010
1000
1000
0100
1000
1000
,
0001
0000
1000
0000
0010
0100
0010
0100
0010
0000
1000
0000
0010
0000
0100
0000
,
0010
0001
0010
0100
0010
1000
0100
1000
,
0100
0010
0100
0000
1000
0000
0100
0000
0010
0000
0100
0000
0001
0000
0100
0000
,
0010
0000
0100
0000
1000
0000
0010
0000
1000
0000
0100
0000
0010
0100
0010
0100
,
0010
1000
0010
0100
0010
0001
0010
0100
,
0010
0000
0001
0000
1000
0000
0001
0000
0100
0010
0100
0010
0100
0000
1000
0000
,
0100
0010
0100
0001
1000
0100
0010
0100
,
1000
0000
0001
0000
1000
0100
0010
0001
1000
0000
0010
0000
0100
0000
0001
0000
,
0100
0010
1000
0001
0010
0100
1000
0010
,
0100
0002
0000
0000
2003
0000
0000
0000
,
0000
0000
3200
0000
,
0320
0000
0000
0000
0000
0000
0000
0000
0000
0000
0000
0000
0000
0000
0000
0000
0000
0000
0000
0000
0000
0000
0000
0000
0000
0000
0000
0000
0000
0000
0000
0000
0002
0030
0000
0000
0000
0000
0000
0000
0000
0000
0000
0000
0000
0000
0000
0000
1003
0000
0000
0000
0000
0000
0000
0000
0100
0000
0000
0000
0000
0000
0000
0000
,
1000
0000
1000
0001
1000
0000
0001
0010
,
0001
0000
1000
0000
1000
0010
0100
0001
,
1000
0000
1000
0100
0001
0000
0100
0000
,
1000
0100
1000
0010
1000
0000
0001
0000
,
1000
0000
0010
0000
0100
0000
0000
0100
,
0100
0010
0010
0110
,
1001
0000
0110
0000
1001
0000
0000
1000
,
0001
0000
0000
0000
2000
0000
3000
0000
0001
0000
0010
0000
0100
0000
1000
0010
,
0100
0000
0001
0000
0010
0000
0100
1000
0010
0000
0100
0000
0001
0000
1000
0000
,
2000
0000
0000
0000
3000
0000
0000
0000
1000
0000
0010
0000
0100
0000
0001
0010
,
0100
0000
1000
0000
0010
0000
0100
0001
0010
0000
0100
0000
1000
0000
0001
0000
,
0002
0000
0000
0000
0003
0000
0000
0000
1000
0000
0010
0000
1000
0000
0001
1000
,
0001
0000
0100
0000
0001
0000
1000
0001
1000
0000
0100
0000
0010
0000
0001
0000
,
1000
0010
0100
0001
,
1000
0000
1001
0000
0110
0000
0000
0010
,
0100
0000
0000
0000
1000
0000
0000
0000
1000
0000
0100
0000
0010
0000
0001
0100
,
0010
0000
1000
0000
0100
0000
0010
0001
0100
0000
0010
0000
1000
0000
0001
0000
,
0002
0000
0010
0000
0013
0000
0001
0000
0001
0000
0100
0000
0010
0000
1000
0100
,
0010
0000
0001
0000
0100
0000
0010
1000
0100
0000
0010
0000
0001
0000
1000
0000
,
2000
0100
3100
1000
1000
0010
0100
0001
,
1000
0100
0010
0001
0010
0100
1000
0010
,
0100
0000
0001
0000
1000
0000
0010
0000
0100
0000
0010
0010
0000
0100
0100
0000
,
0001
0000
1000
1000
0000
0001
0001
0000
2000
0000
0000
3000
0000
0000
1000
0000
,
0001
0000
0000
0000
1000
0000
0000
0000
1000
0000
0100
0000
0010
0000
0001
0100
,
0010
0000
1000
0000
0010
0000
0100
0001
0010
0000
0100
0000
1000
0000
0010
0000
,
0100
0001
0010
0100
0010
0001
0100
0010
1000
0000
0100
0000
1000
0000
0100
0010
,
0001
0000
0010
0000
0100
0000
1000
0000
0010
0100
0001
0000
1000
0000
0100
0000
,
0010
0001
0100
0010
1000
0100
0010
0001
1000
0000
0001
0000
1000
0000
0010
0100
,
0010
0000
1000
0000
0001
0000
0010
0100
0010
0000
0001
0000
1000
0000
0001
0000
,
1000
0100
0010
0100
1000
0010
0100
0001
0100
0010
0100
0001
1000
0010
0100
0010
,
1000
0001
0010
0100
0010
0001
0100
0010
1000
0100
0010
0001
1000
0100
0010
0001
,
0100
0010
1000
0001
0100
0010
1000
0001
0100
0000
0000
0000
0010
0000
0000
0000
,
0100
0000
0001
0000
1000
0000
0000
1000
,
1000
0000
0010
0000
0100
0000
0001
0010
,
0010
0001
1000
0100
0100
1000
0001
1000
,
0001
0100
0010
0100
0001
0010
0100
1000
,
0001
0100
0010
1000
0100
0010
0100
1000
,
0001
0010
0100
0010
0001
0010
0100
1000
,
0001
0100
0010
1000
0001
0100
0010
0100
,
0001
0000
1000
0000
0100
0100
1000
1000
,
0010
0010
0100
0100
0001
0001
1000
1000
,
2000
0000
0000
0000
,
0000
0000
0000
0000
,
0000
0000
0000
0000
,
0000
0000
0000
0000
,
0000
0000
3000
0001
1000
0001
1000
0001
2000
0000
0000
0000
0000
0000
0000
0000
,
0000
0000
3000
0000
;
