#TITLE:I Don't Wanna Get Hurt;
#SUBTITLE:;
#ARTIST:Pamela;
#TITLETRANSLIT:;
#SUBTITLETRANSLIT:;
#ARTISTTRANSLIT:;
#GENRE:;
#CREDIT:;
#BANNER:;
#BACKGROUND:;
#LYRICSPATH:;
#CDTITLE:;
#MUSIC:I Don't Wanna Get Hurt.ogg;
#OFFSET:-0.677000;
#SAMPLESTART:59.171986;
#SAMPLELENGTH:12.000000;
#SELECTABLE:YES;
#BPMS:0.000000=136.380005
;
#STOPS:
;
#BGCHANGES:;
#KEYSOUNDS:;
#ATTACKS:;

//---------------dance-single - ----------------
#NOTES:
     dance-single:
     :
     Hard:
     8:
     0.597510,0.640986,0.178361,0.062426,0.441444,469.000000,449.000000,20.000000,7.000000,0.000000,0.000000,0.597510,0.640986,0.178361,0.062426,0.441444,469.000000,449.000000,20.000000,7.000000,0.000000,0.000000:
// measure 0
0000
0000
0000
0000
,  // measure 1
0000
0000
0000
0000
,  // measure 2
0000
0000
0000
0000
,  // measure 3
0000
0000
0000
0000
,  // measure 4
1000
0000
0001
0000
1000
0000
0000
0000
1000
0001
0000
0010
0000
0001
0100
0000
,  // measure 5
0101
0000
0100
0000
0010
0000
1010
0000
1000
0100
0000
0001
0000
0100
0010
0000
,  // measure 6
0000
0000
0010
0000
0001
0000
0010
0000
0001
0100
0000
0100
0000
0010
1000
0000
,  // measure 7
1000
0000
0010
0000
0100
0000
0001
0100
0001
0100
0000
0010
0000
1000
0010
0000
,  // measure 8
1000
0010
0100
0001
0010
0001
0100
0010
,  // measure 9
1010
0000
0000
0000
0000
0000
1001
0000
1000
0001
0000
1000
0000
1000
0001
0000
,  // measure 10
0010
0000
0001
0000
0100
0000
0101
0000
0001
0100
0000
0001
0000
0001
0100
0000
,  // measure 11
0100
0010
1000
0001
0100
0010
1000
0100
,  // measure 12
1100
0000
1000
0100
0001
0100
1000
0100
,  // measure 13
0010
0000
0001
0000
0100
0001
0000
0001
0100
0000
0010
1000
0000
1000
0010
0000
,  // measure 14
0100
0000
0001
0010
0001
0100
0001
0010
,  // measure 15
1000
0000
0010
0000
0100
0010
0000
0010
0100
0000
1000
0001
0000
0001
1000
0000
,  // measure 16
0010
0000
0010
1000
0100
0001
0100
1000
,  // measure 17
0010
0200
0300
0001
,  // measure 18
0011
0001
0100
0010
,  // measure 19
1010
0000
1000
0100
0001
0100
1000
0010
,  // measure 20
0100
0000
1000
0000
0100
0001
0000
0001
0010
0000
0010
1000
0000
1000
0010
0000
,  // measure 21
0001
0100
1000
0100
0001
0010
0100
0010
,  // measure 22
0001
0000
0100
0000
1000
0100
0000
0100
1000
0000
0001
0010
0000
0010
0001
0000
,  // measure 23
1000
0100
0010
1000
0001
0010
0100
1000
,  // measure 24
0200
0001
1300
0010
,  // measure 25
0200
0000
1300
0000
0200
0000
0301
0001
,  // measure 26
1000
0010
0100
0100
1000
0000
0100
0010
,  // measure 27
1000
1000
0100
0010
0001
0000
0001
1000
,  // measure 28
0010
0010
1000
0100
0010
0100
1000
0010
,  // measure 29
0100
0001
0001
0010
0100
1000
0100
0000
,  // measure 30
0110
0000
1001
0000
0001
0100
0010
1000
,  // measure 31
0002
0100
1000
0013
,  // measure 32
0010
0001
0000
0000
0000
0000
0010
0001
0000
0000
0000
0000
0100
0000
0010
0000
,  // measure 33
1001
0000
1000
0010
0100
1000
0100
0001
,  // measure 34
0101
0000
0001
0010
1000
0010
0100
1000
,  // measure 35
1010
0000
0010
0100
1000
0100
0001
0010
,  // measure 36
0001
0001
0100
0100
0010
0010
1000
0000
,  // measure 37
1010
0000
1000
0100
0010
0100
0001
0100
,  // measure 38
1100
0000
1000
0010
0100
0010
0001
0010
,  // measure 39
0110
0000
0100
0001
1000
0001
0010
0100
,  // measure 40
1000
1000
0010
0010
0001
0001
0010
0010
,  // measure 41
0100
0000
0100
0001
0000
0001
0010
0000
0010
0100
0000
0100
1000
0000
0001
0000
,  // measure 42
1000
0000
1000
0010
0000
0010
0100
0000
0100
0001
0000
0001
1000
0000
0100
0000
,  // measure 43
1000
0000
1000
0100
0000
0100
0010
0000
0010
0001
0000
0001
0100
0000
0010
0000
,  // measure 44
0100
0001
0100
0000
0010
0100
0010
0000
1000
0010
1000
0000
0001
1000
0001
0000
,  // measure 45
0010
0000
0100
0010
0000
0100
1000
0000
0100
0010
0000
0001
0010
0000
0100
0010
,  // measure 46
0000
0010
0100
0000
0100
0010
0000
0010
0000
0100
0000
0010
0000
0100
0010
0000
,  // measure 47
0010
0001
0000
1000
0000
0001
0100
0000
0100
0001
0000
1000
0000
0001
0010
0000
,  // measure 48
0100
1000
0000
0001
0000
1000
0010
0000
0010
1000
0000
0001
0000
1000
0100
0000
,  // measure 49
0010
0001
0000
0100
0000
0001
0010
0000
0100
1000
0000
0010
0000
1000
0100
0000
,  // measure 50
0010
0001
0010
0000
0100
0000
1000
0000
0010
0000
0100
0000
1000
0000
0100
0000
,  // measure 51
0010
0000
0000
1000
0000
1000
0100
0000
0100
0001
0000
0001
0100
0000
0010
0000
,  // measure 52
0001
0000
0000
0100
0000
0100
1000
0000
1000
0100
0000
0100
0001
0000
1000
0000
,  // measure 53
0001
0000
0010
0001
0000
0010
1000
0000
0010
0001
0000
0010
1000
0000
0010
0000
,  // measure 54
0001
0000
0011
0000
0010
0001
0100
0010
,  // measure 55
1010
0000
0000
0000
0000
0000
1001
0000
1000
0001
0000
0001
0000
0000
0001
0000
,  // measure 56
0100
0000
0010
0000
0100
0000
0101
0000
0001
1000
0000
1000
0000
0000
0100
0000
,  // measure 57
1000
0010
1000
0100
0010
0001
0100
0001
,  // measure 58
0000
0000
0001
0010
0100
1000
0010
1000
,  // measure 59
0000
0000
1000
0100
0001
1000
0001
0100
,  // measure 60
0000
0000
0100
1000
0010
0100
1000
0100
,  // measure 61
0000
0100
0001
0010
0200
0000
2000
0000
,  // measure 62
0000
0000
3300
0000
;

//---------------dance-single - ----------------
#NOTES:
     dance-single:
     :
     Medium:
     6:
     0.380929,0.445903,0.151607,0.089181,0.164984,299.000000,282.000000,17.000000,10.000000,0.000000,0.000000,0.380929,0.445903,0.151607,0.089181,0.164984,299.000000,282.000000,17.000000,10.000000,0.000000,0.000000:
0000
0000
0000
0000
,
0000
0000
0000
0000
,
0000
0000
0000
0000
,
0000
0000
0000
0000
,
1001
0000
1000
0100
,
1100
0000
0000
1001
0000
0000
0000
0000
,
0000
0000
0000
0101
0000
0000
0000
0000
,
0000
0000
0100
0010
,
1010
0000
0000
0000
0000
1000
0100
1000
,
1001
0000
0000
0101
0000
0000
0000
0000
,
0001
0000
0000
0101
0000
0000
0000
0000
,
0000
0000
0001
0000
0000
0100
0000
0000
0010
0000
0000
1000
0000
0000
0000
0000
,
1000
0000
0010
0100
0001
0000
0001
1000
,
0000
0000
0100
0000
0000
0001
0000
0000
0100
0000
0000
0010
0000
0000
0100
0000
,
1000
0000
0010
0100
0001
0000
0001
0100
,
0000
0000
0010
0000
0000
1000
0000
0000
0100
0000
0000
1000
0000
0000
0010
0000
,
0100
0000
0001
0100
0001
0100
0010
1000
,
0001
2002
3003
1000
,
2010
3100
0010
0001
,
0101
0000
0100
0010
1000
0000
1000
0100
,
0000
0000
0001
0000
0000
0100
0000
0000
1000
0000
0000
0010
0000
0000
0001
0000
,
0010
0000
0100
0000
0001
0100
0001
0100
,
0010
0000
0100
0000
0000
0100
0000
0000
0001
0000
0000
0010
0000
0000
0010
0000
,
0100
0000
0000
0000
1000
0000
0000
0100
0010
0000
0001
0000
0010
0000
0001
0000
,
0100
0020
1000
0130
,
0001
0000
0010
0000
0100
0000
1000
0100
,
1000
0001
1000
0100
0000
0000
0010
0001
,
1000
0001
0010
0001
0000
0000
0001
0100
,
0001
0100
0010
1000
0000
0100
0000
0002
,
0000
0000
0000
0103
0000
0000
1000
0000
,
0100
0000
0010
0000
0001
0100
0000
0020
,
0000
0000
0000
0030
0000
0000
0010
0000
,
2000
0000
0000
3002
0000
0003
0000
0000
,
1001
0000
0001
0000
0100
0010
1000
0010
,
0000
0000
0100
0000
0001
0010
0100
1000
,
0000
0000
1000
0000
0001
1000
0001
0100
,
0000
0100
0010
0000
1000
0000
0100
0000
,
0010
0000
0001
0000
0100
0001
0010
0001
,
0000
0000
1000
0000
0010
0001
0010
1000
,
0000
0000
0100
0000
0001
1000
0001
0100
,
0000
0010
0001
0000
0100
0000
0010
0000
,
1000
0000
0000
0010
0000
0000
1000
0000
0000
0100
0000
0000
0010
0000
0001
0000
,
1000
0000
0000
0010
0000
0000
0100
0000
0000
1000
0000
0000
0100
0000
0010
0000
,
1000
0000
0000
0100
0000
0000
0001
0000
0000
0100
0000
0000
0010
0000
0001
0000
,
0100
0010
0100
1000
0100
0010
0100
0001
,
0010
0000
0000
0100
0000
0000
1000
0000
0000
0001
0000
0000
1000
0000
0000
0100
,
0000
0000
0001
0000
0100
0000
0000
0100
0000
1000
0000
1000
0000
0000
0100
0000
,
0010
0000
0000
0010
0000
0000
0001
0000
1000
0000
0000
1000
0000
0000
0001
0000
,
0100
0000
0000
0100
0000
0000
0010
0000
1000
0000
0000
1000
0000
0000
0100
0000
,
1000
0000
0000
1000
0000
0000
0001
0000
0100
0000
0000
0100
0000
0000
0001
0000
,
1000
0100
1000
0001
1000
0100
1000
0100
,
0010
0000
0000
0001
0000
0000
1000
0000
0000
0010
0000
0000
0100
0000
0001
0000
,
1000
0000
0000
0100
0000
0000
0001
0000
0000
0100
0000
0000
0010
0000
0001
0000
,
1001
0000
0000
0001
0000
0000
0001
0000
0000
1000
0000
0000
1000
0000
0010
0000
,
1000
0000
1010
0000
1000
0010
0100
0001
,
0101
0000
0000
1001
0000
0000
0000
0000
,
1000
0000
0000
1100
0000
0000
0000
0000
,
0000
0000
1000
0000
0000
0100
0000
0000
0010
0000
0000
0001
0000
0000
0000
0000
,
0000
0000
0001
0010
0001
0100
0010
1000
,
0000
0000
1000
0001
1000
0100
1000
0010
,
0000
0000
0010
0100
0001
0010
0100
0010
,
0000
0010
0001
0100
0020
0000
2000
0000
,
0000
0000
3030
0000
;

//---------------dance-single - ----------------
#NOTES:
     dance-single:
     :
     Easy:
     4:
     0.231870,0.334427,0.062426,0.062426,0.000000,182.000000,175.000000,7.000000,7.000000,0.000000,0.000000,0.231870,0.334427,0.062426,0.062426,0.000000,182.000000,175.000000,7.000000,7.000000,0.000000,0.000000:
0000
0000
0000
0000
,
0000
0000
0000
0000
,
0000
0000
0000
0000
,
0000
0000
0000
0000
,
1001
0000
0000
0000
,
1000
0000
0000
0100
0000
0000
0000
0000
,
0000
0000
0000
0001
0000
0000
0000
0000
,
0000
0000
0001
0100
,
1000
0000
0000
0010
,
0100
0000
0000
0001
0000
0000
0000
0000
,
0000
0000
0000
0010
0000
0000
0000
0000
,
0000
0000
0000
0000
,
0010
0100
1000
0100
,
0010
0000
0000
0000
,
0010
0001
1000
0001
,
0010
0000
0000
0000
,
0100
1000
0010
0100
,
1000
0000
0000
0100
,
0001
0000
0000
0001
0000
0000
0000
0000
,
1000
0001
1000
0001
,
0100
0000
0000
0000
,
0010
1000
0100
1000
,
0010
0000
0000
0000
,
0100
0001
1000
0001
,
0020
0001
0130
1000
,
0010
0000
0000
0010
0000
0000
0010
0000
,
1000
0100
0001
0000
,
0001
0100
1000
0000
,
0001
0100
1000
0100
,
0001
0000
0000
1000
0000
0000
1000
0000
,
0001
0000
0100
0000
0010
1000
0000
2002
,
0000
0000
0000
3003
0000
0000
0001
0000
,
2000
0000
0000
0200
0000
0000
3300
0000
,
0000
1000
0100
1000
,
0100
0010
0001
0010
,
0001
0100
0010
0100
,
0010
1000
0001
0001
,
0000
0001
0010
0001
,
0010
0100
1000
0100
,
1000
0010
0100
0010
,
0100
0001
1000
1000
,
0001
0000
0001
0100
,
0010
0000
0010
1000
,
0001
0000
0001
0010
,
0100
1000
0100
0010
,
0001
0100
0010
1000
,
0001
0001
1000
1000
,
1010
1000
0001
0100
,
0101
0100
0001
1000
,
1100
1000
0001
0010
,
0001
0100
0010
1000
,
0001
1000
0010
0100
,
0001
0001
0010
0100
,
1000
0001
1000
0001
,
0010
0000
0100
1000
,
1001
0000
0000
0001
0000
0000
0000
0000
,
0100
0000
0000
0101
0000
0000
0000
0000
,
0001
0000
1000
0100
,
0000
0000
1000
0000
0001
0000
0100
0001
,
0000
0000
0001
0000
1000
0000
0100
1000
,
0000
0010
0100
0001
,
1000
0001
0200
0020
,
0000
0000
0330
0000
;

//---------------dance-single - ----------------
#NOTES:
     dance-single:
     :
     Beginner:
     1:
     0.096825,0.174794,0.044590,0.000000,0.000000,76.000000,71.000000,5.000000,0.000000,0.000000,0.000000,0.096825,0.174794,0.044590,0.000000,0.000000,76.000000,71.000000,5.000000,0.000000,0.000000,0.000000:
0000
0000
0000
0000
,
0000
0000
0000
0000
,
0000
0000
0000
0000
,
0000
0000
0000
0000
,
0000
0000
0000
0000
,
0000
0000
0000
0000
,
0000
0000
0000
0000
,
0000
0000
0000
0000
,
1000
0000
0000
0000
,
1000
0000
0000
0000
,
0001
0000
0000
0000
,
0000
0000
0001
0000
,
0001
0000
0000
0000
,
0000
0000
0000
0000
,
0100
0000
0000
0000
,
0000
0000
0000
0000
,
0010
0000
0000
0000
,
0000
1000
0000
0000
,
1000
1000
1000
1000
,
1000
0000
0000
0000
,
0000
0000
0000
0000
,
0001
0000
0000
0000
,
0000
0000
0000
0000
,
0010
0000
0000
0000
,
0000
0100
0100
0000
,
0000
0000
0000
0000
,
1000
0000
1000
0000
,
0001
0000
0001
0000
,
0100
0000
0100
0000
,
0010
0000
0010
0000
,
1000
1000
1000
0000
,
1001
0000
0000
0000
,
0001
0000
0001
0000
,
1000
0000
0000
0000
,
0100
0000
0000
0000
,
0010
0000
0000
0000
,
0001
0001
0001
0000
,
0001
0000
0000
0000
,
0100
0000
0000
0000
,
0010
0000
0000
0000
,
1000
1000
1000
0000
,
1001
0000
0000
0000
,
1001
0000
0000
0000
,
1001
0000
0000
0000
,
1001
0000
0000
0000
,
1000
1000
1000
0000
,
0100
0100
0100
0000
,
0001
0000
0001
0000
,
0100
0000
0010
0000
,
0010
0000
0100
0000
,
1000
0000
0001
0000
,
0001
0000
1000
0000
,
0010
0000
0100
0000
,
0100
0000
0010
0000
,
1000
0000
0000
0001
,
0001
0000
0000
0000
,
1000
0000
0000
0000
;
