#TITLE:Good Evening;
#SUBTITLE:;
#ARTIST:SHINee;
#TITLETRANSLIT:;
#SUBTITLETRANSLIT:;
#ARTISTTRANSLIT:;
#GENRE:;
#CREDIT:;
#BANNER:[Qualifier] - Good Evening.png;
#BACKGROUND:[Qualifier] - Good Evening-bg.png;
#LYRICSPATH:;
#CDTITLE:cdtitle.png;
#MUSIC:[Qualifier] - Good Evening.ogg;
#OFFSET:1.469000;
#SAMPLESTART:63.487999;
#SAMPLELENGTH:15.000000;
#LASTBEATHINT:0.938000;
#SELECTABLE:YES;
#DISPLAYBPM:120.000000;
#BPMS:0.000000=120.000000
,128.000000=60.000000
,130.000000=120.000000
;
#STOPS:
;
#BGCHANGES:-0.875=[Qualifier] - Good Evening.avi=1.000=0=0=0=StretchNoLoop====,
99999=-nosongbg-=1.000=0=0=0 // don't automatically add -songbackground-
;
#KEYSOUNDS:;
#ATTACKS:;

//---------------dance-single - ----------------
#NOTES:
     dance-single:
     9646_BEG:
     Beginner:
     1:
     0.099513,0.167420,0.000000,0.063327,0.000000,77.000000,77.000000,0.000000,7.000000,0.000000,0.000000,0.099513,0.167420,0.000000,0.063327,0.000000,77.000000,77.000000,0.000000,7.000000,0.000000,0.000000:
0000
0000
0000
0000
,
0000
0000
0000
0000
,
0000
0000
0000
0000
,
0000
0000
0000
0000
,
0000
0000
0000
0000
,
0010
0000
0000
0000
,
0010
0000
0000
0000
,
0100
0000
0000
0000
,
0100
0000
0000
0000
,
1000
0000
0000
0000
,
0001
0000
0000
0000
,
1000
0000
0000
0000
,
0002
0000
0000
0003
,
0001
0000
0000
0000
,
0100
0000
0000
0000
,
0010
0000
0000
0000
,
1000
0000
0000
0000
,
0001
0000
0000
0000
,
0001
0000
0000
0000
,
1000
0000
0000
0000
,
1000
0000
0000
0000
,
0002
0000
0003
0000
,
0020
0000
0030
0000
,
0100
0000
0000
0000
,
0001
0000
0000
0000
,
2000
0000
3000
0000
,
0020
0000
0030
0000
,
0100
0000
0000
0000
,
1000
0000
0000
0000
,
0001
0000
0000
0000
,
1000
0000
0000
0000
,
0001
0000
0002
0000
,
0003
0000
1000
0000
,
1000
0000
0001
0000
,
0001
0000
1000
1000
,
1000
0000
0001
0001
,
0001
0000
0010
0000
,
0100
0000
0010
0010
,
0010
0000
1000
0000
,
0001
0000
0100
0100
,
0100
0000
1000
0000
,
0001
0000
1000
1000
,
1000
0000
0010
0000
,
0100
0000
0001
0000
,
1000
0000
0001
0000
,
0001
0000
1000
0000
,
1000
0000
0001
0001
,
0001
0000
0010
0010
,
0010
0000
1000
0000
,
1000
0000
0001
0000
,
0001
0000
1000
1000
,
1000
0000
0010
0000
,
0001
0000
0000
0000
2000
0000
0000
3000
;

//---------------dance-single - ----------------
#NOTES:
     dance-single:
     9646_ESP:
     Hard:
     7:
     0.421316,0.430508,0.090467,0.642313,0.217120,326.000000,316.000000,10.000000,71.000000,0.000000,0.000000,0.421316,0.430508,0.090467,0.642313,0.217120,326.000000,316.000000,10.000000,71.000000,0.000000,0.000000:
// measure 0
0000
0000
0000
0000
,  // measure 1
0000
0000
0000
0000
,  // measure 2
0000
0000
0000
0000
,  // measure 3
0000
0000
0000
0000
,  // measure 4
0000
0000
0000
0000
,  // measure 5
0110
0000
0000
0001
0000
0100
0000
0010
0000
0000
0000
1000
0000
0100
0000
0010
,  // measure 6
0000
0000
0010
0001
0000
1000
0000
0200
0010
0000
0000
0000
1300
0000
0000
0000
,  // measure 7
0001
0000
0000
1000
0000
0100
0000
0010
0000
0000
0000
0001
0000
0100
0000
0010
,  // measure 8
0000
0000
0000
0010
0000
1000
0000
0002
0100
0000
0000
0000
1003
0000
0000
0000
,  // measure 9
0001
0000
0000
1000
0000
0100
0000
0001
0000
0000
0000
0200
0000
0000
0000
0310
,  // measure 10
1000
0000
0000
0010
0000
0100
0000
0010
0000
0001
0000
2000
0000
0000
0000
3010
,  // measure 11
0001
0000
0020
0000
0130
1000
0100
0002
,  // measure 12
1000
0000
0013
2000
0001
0000
3010
0000
,  // measure 13
0100
0000
1000
0000
0002
0000
0003
0000
0010
0000
0000
0000
0100
0000
0000
2000
,  // measure 14
0001
0000
0000
0000
3010
0000
0000
0000
1000
0000
0000
1000
0000
0001
0000
0000
,  // measure 15
0100
0000
0001
0000
0020
0000
0030
0000
0100
0000
0000
0000
0010
0000
0000
0001
,  // measure 16
0200
0000
0000
0000
0310
0000
0000
1000
0200
0000
0000
0000
0310
0000
0001
0000
,  // measure 17
1000
0000
0000
0010
0000
0000
0001
0000
0000
0100
0000
0000
1000
0000
0000
0002
,  // measure 18
0000
0000
0100
0003
1000
0000
1000
0200
,  // measure 19
0010
0301
0100
2000
,  // measure 20
3001
0000
0001
1000
0001
0000
0001
0000
0100
0010
1000
0000
0100
0010
0100
0010
,  // measure 21
0002
0000
0010
0003
2000
0000
3100
0000
,  // measure 22
0002
0000
0203
0320
2030
3002
0023
0130
,  // measure 23
1000
0000
0001
0010
0001
0000
1000
0000
0010
0000
0100
0000
0001
0000
1000
0000
,  // measure 24
0002
0023
2030
3001
1000
0010
0001
1000
,  // measure 25
0002
0000
0010
0003
2000
0000
3100
0000
,  // measure 26
0002
0000
0203
0320
2030
3002
0023
0130
,  // measure 27
1000
0000
0001
0010
0001
0000
1000
0000
0010
0000
0100
0000
0001
0000
1000
0000
,  // measure 28
0002
0023
2030
3001
2000
3020
0032
1003
,  // measure 29
0002
0203
2300
3001
2000
3200
0302
1003
,  // measure 30
0002
0023
2030
3001
2000
3020
0032
1003
,  // measure 31
0001
0000
1000
0100
1000
0000
0001
0000
0100
0000
0010
0000
1000
0000
0002
0000
,  // measure 32
1003
0000
1100
0012
,  // measure 33
2003
0000
3010
0000
0100
0001
2000
0000
,  // measure 34
3200
0000
0000
0000
0310
0000
0000
0000
0001
0000
0100
0010
1000
0000
0001
0000
,  // measure 35
0010
0100
1000
0010
0001
0001
0010
1000
,  // measure 36
0001
0001
0010
1000
0010
0001
1000
0001
,  // measure 37
0100
0010
1000
0000
1100
0000
0101
0000
,  // measure 38
1200
0000
0301
0000
0100
1000
0010
0100
,  // measure 39
0010
1000
0001
0010
1000
1000
0001
0001
,  // measure 40
0100
1000
0001
0010
0100
1000
0001
1000
,  // measure 41
0010
0100
0001
0010
0011
0000
1010
0000
,  // measure 42
0021
0000
0000
0000
1030
0000
0000
0000
0010
0000
0001
0010
0001
0000
0100
0000
,  // measure 43
0010
1000
0001
0010
0100
0100
0001
0001
,  // measure 44
0100
0010
0001
2000
0002
3003
0102
0000
,  // measure 45
0023
0000
1030
0000
0001
0100
2000
0000
,  // measure 46
3002
0000
0000
0000
1003
0000
0000
0000
0010
0000
0100
0001
1000
0000
0010
0000
,  // measure 47
0100
0001
0010
1000
0010
0010
0001
0001
,  // measure 48
1000
0010
0100
0001
1000
0100
2000
0000
,  // measure 49
3020
0000
0031
0000
1000
0100
0002
0000
,  // measure 50
2003
0000
0000
0000
3001
0000
0000
0000
0010
0000
0100
1000
0001
0000
0010
0000
,  // measure 51
0100
1000
0010
0001
0010
0010
1000
1000
,  // measure 52
0001
0010
0100
2000
0002
0000
0000
3003
;

//---------------dance-single - ----------------
#NOTES:
     dance-single:
     9646_BSP:
     Easy:
     3:
     0.215828,0.239171,0.027140,0.361867,0.000000,167.000000,164.000000,3.000000,40.000000,0.000000,0.000000,0.215828,0.239171,0.027140,0.361867,0.000000,167.000000,164.000000,3.000000,40.000000,0.000000,0.000000:
0000
0000
0000
0000
,
0000
0000
0000
0000
,
0000
0000
0000
0000
,
0000
0000
0000
0000
,
0000
0000
0000
0000
,
0001
1000
0001
0001
,
1000
1000
0002
0003
,
1000
0001
1000
1000
,
0001
0001
2000
3000
,
1000
0100
0010
0000
,
0010
0001
1000
0000
,
1000
0000
0001
0000
,
0200
0000
0020
0330
,
1000
2000
3000
1000
,
0002
0000
0003
0001
,
0010
0020
0030
0010
,
0200
0300
0020
0030
,
0100
1000
0001
0100
,
0002
0000
0003
0001
,
0020
0030
0000
0010
,
1000
0100
0100
0001
,
2000
3000
0002
0003
,
2000
0100
0020
3030
,
0100
0001
0010
0100
,
0010
0010
0001
0001
,
0002
0003
2000
3000
,
0002
0100
0020
0033
,
0100
1000
0010
0100
,
0010
0010
1000
1000
,
0100
0100
0001
0001
,
0010
0010
1000
1000
,
0100
0001
0010
1000
,
0001
0000
1001
0002
,
2003
3002
1003
2000
,
3002
2003
3001
0010
,
0100
1000
0010
0010
,
0100
0100
0110
0001
,
1000
0010
0100
0100
,
0200
0300
0001
0010
,
1000
0010
0001
0001
,
0100
0100
0010
1000
,
0001
0010
0100
0100
,
0200
0300
1000
0010
,
0001
0010
1000
1000
,
0001
0100
0110
0020
,
0230
0320
0130
0200
,
0320
0230
0310
1000
,
0001
0100
1000
1000
,
0010
0010
0001
0020
,
0230
0320
0130
0200
,
0320
0230
0310
0001
,
1000
0100
0001
0001
,
1000
0000
0010
0000
0002
0000
0000
0003
;

//---------------dance-single - ----------------
#NOTES:
     dance-single:
     9646_DSP:
     Medium:
     5:
     0.308879,0.358757,0.063327,0.407100,0.000000,239.000000,232.000000,7.000000,45.000000,0.000000,0.000000,0.308879,0.358757,0.063327,0.407100,0.000000,239.000000,232.000000,7.000000,45.000000,0.000000,0.000000:
0000
0000
0000
0000
,
0000
0000
0000
0000
,
0000
0000
0000
0000
,
0000
0000
0000
0000
,
0000
0000
0000
0000
,
1001
0000
0001
0100
0010
0000
0100
0001
,
0010
0000
0010
0100
0020
0000
0130
0000
,
1000
0000
0100
1000
0010
0000
1000
0100
,
0010
0000
0100
0010
0200
0000
0310
0000
,
0001
0000
1000
0100
1000
0000
0002
0000
,
1003
0000
0001
0100
0001
1000
0200
0000
,
0310
0000
0002
0000
0103
0010
1000
0000
,
0002
0100
2003
3100
,
0001
0100
2000
0000
3000
0000
1000
0000
,
0002
0100
0003
0100
,
1000
0100
0002
0000
0003
0000
1000
0100
,
1000
0000
0010
0100
0020
0000
0130
0000
,
0001
0010
1000
0100
,
0002
0000
0010
0000
0003
0000
0010
0200
,
0000
0010
0300
0020
,
0130
0100
1000
0001
1000
1000
0001
1000
,
0002
0000
0100
0003
2000
0000
3000
0000
,
0002
0203
2300
3020
,
0031
0010
0001
0000
1000
0000
1000
0000
,
0010
0100
0001
0000
0010
0100
1000
0000
,
2000
0000
0100
3000
0002
0000
0003
0000
,
2000
3200
0302
0023
,
1030
0010
1000
0000
0001
0000
0001
0000
,
0010
0100
1000
0000
0010
0100
0001
0000
,
0100
0010
1000
0000
0100
0010
0001
0000
,
0010
0100
1000
0000
0010
0100
0001
0000
,
0100
0010
0100
0001
0010
0100
0010
0001
,
1000
0000
1001
0102
,
2003
0000
3020
0000
0130
0010
2000
0000
,
3002
0000
0023
0000
0130
1000
0001
0000
,
1000
0000
0001
0000
0100
0010
1000
0000
,
0100
0010
0001
0000
1000
0000
1000
0000
,
0001
0100
0001
0000
1000
0000
1000
0000
,
0011
0000
0001
0001
,
1000
0100
1000
0000
0010
0000
0010
0000
,
0100
0001
1000
0000
0001
0000
0001
0000
,
1000
0100
1000
0000
0001
0000
0001
0000
,
1010
0000
0000
0000
1000
0001
1000
0000
,
0001
0100
0001
0000
0010
0000
0010
0000
,
0100
1000
0001
0000
1000
0000
2100
0000
,
3002
0000
0023
0000
0130
0010
0002
0000
,
2003
0000
3020
0000
0130
0001
1000
0000
,
0001
1000
0001
0001
,
0010
0100
1000
0000
0001
0000
0012
0000
,
2003
0000
3200
0000
0310
0100
2000
0000
,
3002
0000
0203
0000
0310
1000
0001
0000
,
1000
0100
1000
0000
0001
0000
0010
0000
,
1000
0010
0001
1000
0002
0000
0000
0003
;
