#VERSION:0.83;
#TITLE:FREEDOM DiVE;
#SUBTITLE:;
#ARTIST:xi;
#TITLETRANSLIT:;
#SUBTITLETRANSLIT:;
#ARTISTTRANSLIT:;
#GENRE:;
#ORIGIN:;
#CREDIT:;
#BANNER:FREEDOM DiVE-bn.png;
#BACKGROUND:FREEDOM DiVE-bg.png;
#PREVIEWVID:;
#JACKET:FREEDOM DiVE-jacket.png;
#CDIMAGE:;
#DISCIMAGE:;
#LYRICSPATH:;
#CDTITLE:;
#MUSIC:FREEDOM DiVE.ogg;
#OFFSET:0.270000;
#SAMPLESTART:54.810001;
#SAMPLELENGTH:20.000000;
#SELECTABLE:YES;
#DISPLAYBPM:111.000000:222.000000;
#BPMS:0.000=222.222,
68.000=111.111,
100.000=222.222,
236.000=111.111,
250.000=222.222;
#STOPS:282.000=0.540;
#DELAYS:;
#WARPS:;
#TIMESIGNATURES:0.000=4=4;
#TICKCOUNTS:0.000=4;
#COMBOS:0.000=1;
#SPEEDS:0.000=1.000=0.000=0;
#SCROLLS:0.000=1.000;
#FAKES:;
#LABELS:0.000=Song Start;
#BGCHANGES:;
#KEYSOUNDS:;
#ATTACKS:
;

//---------------dance-single - X Scale 18----------------
#NOTEDATA:;
#CHARTNAME:;
#STEPSTYPE:dance-single;
#DESCRIPTION:X Scale 18;
#CHARTSTYLE:;
#DIFFICULTY:Hard;
#METER:10;
#RADARVALUES:1.034834,1.304704,0.684326,0.425617,0.776125,868.000000,786.000000,82.000000,51.000000,0.000000,0.000000,0.000000,0.000000,0.000000,1.034834,1.304704,0.684326,0.425617,0.776125,868.000000,786.000000,82.000000,51.000000,0.000000,0.000000,0.000000,0.000000,0.000000;
#CREDIT:;
#DISPLAYBPM:111.000000:222.000000;
#NOTES:
// measure 0
0000
0000
0000
0000
,  // measure 1
0000
0000
0000
0000
,  // measure 2
0000
0000
0000
0000
,  // measure 3
0000
0000
0000
0000
,  // measure 4
0000
0000
0000
0000
,  // measure 5
1001
0000
0010
1000
0010
0000
0100
0000
0000
0000
0001
1000
0001
0000
0100
0000
,  // measure 6
0000
0000
0001
0010
0001
0000
0100
0000
0010
1000
0010
0000
1000
0000
0100
0000
,  // measure 7
0010
0000
0001
1000
0001
0000
0100
0000
0000
0000
0010
0100
0010
0000
1000
0000
,  // measure 8
0001
0000
1000
0100
1000
0000
0001
0100
0001
0000
1000
0100
0010
0001
0010
0100
,  // measure 9
1000
0000
0010
0000
0100
0001
0100
0000
0010
0000
0100
0000
0001
1000
0001
0000
,  // measure 10
1000
0000
0100
0000
0010
0001
0010
0000
0100
0000
1000
0000
0001
0100
0001
0000
,  // measure 11
0010
0000
0100
0000
1000
0010
1000
0000
0001
0000
1000
0000
0100
0010
0100
0000
,  // measure 12
1000
0000
0001
0000
0010
0001
0010
0000
0101
0000
0000
0101
0000
0000
0101
0000
,  // measure 13
1001
0000
0010
0000
0100
0001
0100
0000
0010
0000
1000
0000
1100
0000
1100
0000
,  // measure 14
0000
0000
0101
0000
0101
0000
0010
0000
0100
0001
0010
0000
0100
1000
0010
0000
,  // measure 15
2000
0100
3000
0000
0002
0100
0003
0000
2000
0010
3000
0000
0002
0010
0003
0000
,  // measure 16
1000
0100
1000
0000
0001
0100
0001
0000
1000
0010
1000
0000
0001
0010
0001
0000
,  // measure 17
1002
0203
0320
2030
,  // measure 18
3200
0000
0000
0000
0320
0000
0000
0000
0032
0000
0000
0000
1003
0001
1000
0001
,  // measure 19
0200
0000
0010
0310
0110
0101
1001
1100
,  // measure 20
1010
0101
1100
0011
0210
0000
2300
0000
,  // measure 21
3002
0000
0000
2003
0000
0000
3020
0000
0000
0230
0000
0000
0301
0100
0001
0100
0000
0000
0110
0000
0000
1010
0000
0000
,  // measure 22
2000
0000
3200
0000
0320
0000
0032
0000
0203
0000
0000
0000
0310
0100
0001
1000
,  // measure 23
1200
0000
0000
1300
0000
0000
0201
0000
0000
0310
0100
0001
,  // measure 24
0011
0000
0000
1000
1100
0000
0010
0100
0110
0000
1001
0000
0110
0000
1001
0000
,  // measure 25
0110
0000
1000
0010
0100
0000
0001
0010
0100
0000
1000
0001
0100
0000
0010
1000
,  // measure 26
0001
0010
0100
1000
0010
0100
0001
1000
0001
0100
0010
1000
0100
0010
0001
1000
,  // measure 27
0020
0000
0130
0010
1000
1000
0100
0100
,  // measure 28
0010
0010
0001
0001
0100
0100
0010
0010
,  // measure 29
1000
1000
0001
0001
0010
0010
0100
0100
,  // measure 30
1000
1000
0010
0010
0100
0100
0001
0001
,  // measure 31
0010
0010
0100
0100
0010
0010
0001
0001
,  // measure 32
1000
1000
0001
0001
0100
0100
0010
0010
,  // measure 33
1000
1000
0001
0001
0010
0010
0100
0100
,  // measure 34
1000
1000
0001
0001
0010
0010
0100
0100
,  // measure 35
2000
0000
3001
1000
0010
0010
0100
0100
,  // measure 36
0001
0001
1000
1000
0010
0010
1000
1000
,  // measure 37
0100
0100
0001
0001
1000
1000
0100
0100
,  // measure 38
1000
1000
0010
0010
0100
0100
0001
0001
,  // measure 39
0010
0010
0100
0100
0010
0010
0100
0100
,  // measure 40
1000
1000
0001
0001
0010
0010
0100
0100
,  // measure 41
2000
3200
0320
0032
2003
3020
0230
0302
,  // measure 42
0203
0000
0320
0000
2030
0000
3002
0000
0013
0001
0100
0001
1000
0100
1000
0010
,  // measure 43
0100
0000
0001
0010
0000
0001
0010
0000
0100
0000
1000
0010
0000
1000
0010
0000
,  // measure 44
0100
0000
0001
1000
0000
0001
1000
0000
0100
0000
0010
0001
0000
0010
0001
0000
,  // measure 45
1000
0000
0100
0010
0000
0100
0010
0000
0001
0000
0100
0010
0000
0100
0010
0000
,  // measure 46
1000
0000
0001
0100
0000
0001
1000
0000
0001
0000
0001
0100
1000
0000
1000
0000
,  // measure 47
0010
0000
0100
0010
0000
0100
0010
0000
1000
0000
1000
0000
0001
0000
0001
0000
,  // measure 48
0101
0001
0011
0010
0110
0100
1100
1000
,  // measure 49
0010
1000
0010
0000
0100
0001
0100
0000
0001
0010
0001
0000
1000
0100
1000
0000
,  // measure 50
0020
0100
0100
0130
,  // measure 51
1001
0001
0011
0010
0110
0100
1100
0000
,  // measure 52
0001
1000
0010
0200
0000
0000
1000
0000
0000
0301
0000
0000
,  // measure 53
0010
0010
0100
0100
0001
0001
1000
1000
,  // measure 54
1100
0001
0011
0100
1001
0100
0010
1000
,  // measure 55
1100
0000
0010
0100
0000
0001
0010
0100
1000
0001
0100
0000
0001
1000
0100
0000
,  // measure 56
0011
0000
0100
1000
0000
0001
0100
0000
0110
0000
0000
1010
0000
0000
1100
0000
,  // measure 57
1002
0100
0013
1000
2001
0100
3010
0001
,  // measure 58
0100
0001
0010
0000
0100
1000
0010
0000
0100
0001
1000
0000
0010
1000
0001
0000
,  // measure 59
1001
0000
0000
0000
,  // measure 60
0000
0000
0000
0000
,  // measure 61
0010
1000
0010
1000
0010
0100
0010
0100
0001
0100
0001
0100
0001
1000
0001
1000
,  // measure 62
0001
0010
0100
1000
0010
0100
0001
1000
0010
0000
1000
0100
1000
0000
0100
1000
,  // measure 63
0100
0000
1000
0100
1000
0000
0100
1000
0010
0000
0100
0001
0100
0000
0001
0100
,  // measure 64
0001
0000
0100
0001
0100
0000
0001
0100
0010
0000
1000
0001
1000
0000
0001
1000
,  // measure 65
0001
0000
1000
0001
1000
0000
0001
1000
0010
0000
0100
0001
0010
0000
0100
1000
,  // measure 66
0010
0000
0100
0001
0010
0000
0100
1000
0001
0000
0100
0010
1000
0000
0100
0010
,  // measure 67
0001
0000
1000
0001
0100
0000
0001
1000
0100
0000
0010
0001
0100
0000
0010
1000
,  // measure 68
0100
0000
0010
0001
0100
0000
0001
1000
0010
0100
0010
0100
0010
0100
0010
0100
,  // measure 69
0001
1000
0001
1000
0001
1000
0001
1000
0001
0010
0100
1000
0100
0001
1000
0010
,  // measure 70
0100
0001
1000
0010
0001
0100
0010
1000
0020
0000
0030
0000
1001
0000
0000
0000
,  // measure 71
1001
0000
1000
0100
0000
0010
0001
0000
0100
0000
0001
0010
0000
0100
1000
0000
,  // measure 72
0001
0000
0100
0001
0000
1000
0010
0000
0100
0000
0010
1000
0000
0001
0100
0000
,  // measure 73
0001
0000
0010
0100
0000
1000
0010
0000
0100
0000
0001
1000
0000
0100
0010
0000
,  // measure 74
0001
0000
0100
0010
0000
1000
0100
0000
0110
0000
0110
0000
0110
0000
0110
0000
,  // measure 75
1001
0000
0010
0100
0000
0001
1000
0000
0001
0100
0001
0000
1000
0100
1000
0000
,  // measure 76
1100
0001
0101
0010
0110
0100
0101
0001
,  // measure 77
0011
0100
1100
0001
0101
0010
0110
0100
,  // measure 78
1020
0100
0100
0130
,  // measure 79
1001
0010
0101
1000
1100
0001
0011
0000
,  // measure 80
1000
0010
0100
0002
0000
0000
0100
0000
0000
1003
0000
0000
,  // measure 81
0110
0100
0101
0001
0011
1000
1010
0010
,  // measure 82
0110
0000
0100
0000
0101
0000
0001
0000
0011
0000
0100
0000
1000
0010
0100
0001
,  // measure 83
1000
0100
1000
0100
1000
0100
1000
0100
0010
0000
0010
0000
0010
0000
0010
0000
,  // measure 84
0001
0100
0001
0100
0001
0100
0001
0100
0020
0000
0000
0230
0000
0000
0310
0000
,  // measure 85
1002
0100
0013
1000
2001
0100
3010
0001
,  // measure 86
0100
0100
0010
0010
1000
1000
0001
0001
,  // measure 87
1001
1100
1001
0101
,  // measure 88
1000
1000
0100
0100
0010
0010
0001
0001
,  // measure 89
0100
0000
0001
0010
0001
0000
1000
0010
1000
0000
0001
0100
0001
0000
1000
0100
,  // measure 90
1000
0010
0100
0001
0010
0100
1000
0001
0010
0001
1000
0010
0100
0001
0100
1000
,  // measure 91
0200
0000
0000
0000
,  // measure 92
0000
0000
0000
0000
,  // measure 93
0000
0000
0000
0000
,  // measure 94
0000
0000
0000
0300
;

//---------------dance-single - X Scale 14----------------
#NOTEDATA:;
#CHARTNAME:;
#STEPSTYPE:dance-single;
#DESCRIPTION:X Scale 14;
#CHARTSTYLE:;
#DIFFICULTY:Medium;
#METER:9;
#RADARVALUES:0.674788,1.027949,0.417272,0.650944,0.075109,566.000000,516.000000,50.000000,78.000000,0.000000,0.000000,0.000000,0.000000,0.000000,0.674788,1.027949,0.417272,0.650944,0.075109,566.000000,516.000000,50.000000,78.000000,0.000000,0.000000,0.000000,0.000000,0.000000;
#CREDIT:;
#DISPLAYBPM:111.000000:222.000000;
#NOTES:
0000
0000
0000
0000
,
0000
0000
0000
0000
,
0000
0000
0000
0000
,
0000
0000
0000
0000
,
0000
0000
0000
0000
,
1001
0000
0000
0010
0000
0000
0010
0000
0000
0000
0100
0000
0000
0000
0100
0000
,
0000
0001
0000
0001
1000
0010
1000
0100
,
0010
0000
0000
0001
0000
0000
0001
0000
0000
0000
0100
0000
0000
0000
0100
0000
,
0010
1000
0100
0010
0001
0100
0001
1000
,
0010
1000
0100
0010
0001
0100
0001
1000
,
0001
1000
0100
0010
0001
0100
0010
1000
,
0010
1000
0100
0010
0001
0100
0010
1000
,
0100
0000
0010
0000
0001
0000
0000
0000
0101
0000
0000
0101
0000
0000
0101
0000
,
1001
0000
0100
0000
0001
0000
1100
1100
,
0000
0101
0101
0000
0010
1000
0100
0000
,
1001
1001
0110
0110
,
1010
0101
0011
1100
,
2001
3200
0320
0032
,
0203
0000
0000
0000
0320
0000
0000
0000
2030
0000
0000
0000
3001
1000
0001
1000
,
0002
0000
0023
0032
0203
0320
2030
3200
,
2300
3002
0203
0320
2030
0000
3100
0000
,
0002
0023
0230
2300
3010
1001
0100
0100
,
0001
0001
1000
1000
1010
0101
1001
0100
,
0201
0000
0310
0000
2100
0000
3010
0100
,
1001
0000
0000
1000
0100
0000
1000
0001
2000
0000
3200
0000
0320
0000
0032
0000
,
0203
0001
1000
0301
,
1000
0100
0010
0001
1000
0010
0100
0001
,
2002
3000
0100
1003
,
0001
0101
1000
1100
,
0010
1000
0100
0000
0010
0001
0100
0000
,
0001
0010
1000
0000
0001
0100
1000
0000
,
0010
1000
0100
0000
1000
0001
0100
0000
,
0001
0010
0100
0000
0010
0001
1000
0000
,
0001
0100
1000
0000
0100
1000
0001
0000
,
0010
0100
0010
1000
0100
0010
0001
0000
,
0220
0030
1000
0310
,
0001
0011
1000
1010
,
0100
1000
0010
0000
0100
0001
0010
0000
,
0001
1000
0100
0000
0010
0001
0100
0000
,
0010
1000
0100
0010
0001
0100
1000
0000
,
0010
1000
0001
0110
,
0001
0010
0001
0010
0100
1000
0100
1000
,
0010
1000
0100
1000
0001
0100
0001
0010
,
0002
0000
0103
0010
2000
0000
3001
0100
,
0020
0000
1030
0100
0020
0000
0031
1000
,
0200
0000
1300
0010
0200
0000
0301
1000
,
0020
0000
0130
0000
0001
0010
0100
1000
,
0002
0103
0101
0101
,
1000
0100
0001
0100
1000
0100
0001
0000
,
1000
0010
0001
0010
1000
0010
0001
0000
,
2000
0100
0100
3100
,
1001
0000
0100
0001
0010
0001
0100
0000
,
0010
1100
0001
0001
,
0110
0000
0010
1000
0001
1000
0010
0000
,
2010
0000
3002
0000
0203
0000
0310
0100
,
0020
1000
1000
1000
1030
0001
0100
0000
,
0002
0000
0100
0000
0103
0000
0000
0000
0010
0000
0000
0010
0000
0000
0010
0000
,
2000
0000
3100
1000
0002
0000
0103
0001
,
1000
0001
0100
0010
,
1001
0000
0000
0000
,
0000
0000
0000
0000
,
0110
0000
0010
1000
0001
0000
0100
0001
1000
0000
0001
0010
0100
1000
0100
0010
,
0001
1000
0001
1000
0010
0100
0010
0100
0002
0000
0000
0000
1003
0000
0100
0000
,
0010
0001
0010
0100
2000
0000
3010
1000
,
0010
0100
0010
0001
0020
0000
0130
0001
,
0100
0010
0100
1000
0200
0000
0301
1000
,
0100
0010
0100
1000
0002
0000
0103
0001
,
0010
0100
1000
0010
0200
0000
0310
1000
,
0100
0010
0001
0100
0010
1000
0010
1000
,
0001
0100
0001
0100
0001
0010
0001
0010
,
0100
1000
0100
1000
0020
0030
1001
0000
,
1002
0000
0103
0010
2000
0000
3100
0010
,
0200
0000
1300
0010
0200
0000
0301
1000
,
0020
0000
1030
0100
0020
0000
0031
0100
,
2000
0000
3010
0000
1000
0001
0100
0010
,
2000
3001
0011
0011
,
0001
0100
1000
0100
0001
0100
1000
0000
,
0001
0010
1000
0010
0001
0010
1000
0000
,
0002
0100
0100
0103
,
0010
1000
0100
1000
0100
0010
0001
0000
,
1000
0001
0100
0000
0110
0000
0110
0000
,
0001
0010
0100
1000
0010
0100
0001
0000
,
0010
0000
1000
0000
0100
0000
1000
0010
,
0200
0001
0001
0001
0301
1000
0100
0000
,
2000
0000
0001
0000
3001
0000
0000
0000
0100
0000
0000
0100
0000
0000
0100
0000
,
0002
0000
1003
0010
2000
0000
3001
0010
,
0002
0023
0230
2300
,
3020
0230
0302
1003
,
1100
0101
1100
0101
,
0010
1000
0100
0000
0010
0001
0100
0000
,
0001
1000
0010
0100
0001
0010
0100
1000
,
0020
0000
0000
0000
,
0000
0000
0000
0000
,
0000
0000
0000
0000
,
0000
0000
0000
0030
;

//---------------dance-single - X Scale 9----------------
#NOTEDATA:;
#CHARTNAME:;
#STEPSTYPE:dance-single;
#DESCRIPTION:X Scale 9;
#CHARTSTYLE:;
#DIFFICULTY:Easy;
#METER:6;
#RADARVALUES:0.419656,0.593047,0.200290,0.383890,0.016691,352.000000,328.000000,24.000000,46.000000,0.000000,0.000000,0.000000,0.000000,0.000000,0.419656,0.593047,0.200290,0.383890,0.016691,352.000000,328.000000,24.000000,46.000000,0.000000,0.000000,0.000000,0.000000,0.000000;
#CREDIT:;
#DISPLAYBPM:111.000000:222.000000;
#NOTES:
0000
0000
0000
0000
,
0000
0000
0000
0000
,
0000
0000
0000
0000
,
0000
0000
0000
0000
,
0000
0000
0000
0000
,
1001
0010
0000
0010
,
0000
1000
0001
0100
,
1001
0010
0000
0010
,
1000
1000
0001
0001
,
1001
0010
1000
0100
,
0010
0001
1000
0001
,
1001
0100
0010
1000
,
0001
0000
0000
0000
1000
0000
0000
0000
0010
0000
0000
0010
0000
0000
0010
0000
,
0100
0000
0001
0000
0000
0000
1000
1000
,
0000
0001
0001
0000
0100
0000
0010
0000
,
1000
1000
0100
0100
,
0010
0010
0001
0001
,
1001
0100
0010
0001
,
0100
0010
1000
0001
,
0110
0000
1001
0000
1000
0100
0010
0000
,
0001
0100
0010
1000
0200
0000
0300
0000
,
0001
0001
1000
1000
0010
0000
0110
0000
,
1000
1000
0001
0001
0100
0000
0010
0000
,
1002
0013
2001
3010
,
1000
0000
0000
1000
0100
0000
0000
0000
1000
0000
0100
0000
0010
0000
0001
0000
,
0100
0100
0010
0010
,
1000
1000
0001
0001
,
2002
3000
0100
0103
,
0001
0010
0100
1000
,
0010
0100
0001
0010
,
0100
1000
0001
1000
,
0100
0100
1000
1000
,
0010
0100
0001
0010
,
0001
0010
0100
1000
,
0010
1000
0100
0001
,
0220
0030
0001
0301
,
0100
0010
1000
0100
,
1000
0001
0010
0100
,
1000
0001
0010
0100
,
1000
0001
0100
0001
,
0010
0010
0100
0100
,
1000
0001
1000
0001
,
0100
0010
0100
0010
,
2000
3000
0002
0003
,
0200
0300
0020
0030
,
2000
3000
0200
0300
,
0002
0000
0003
0000
1000
0001
1000
0001
,
2000
0000
0100
3100
,
0001
0010
0100
1000
,
0010
1000
0001
0100
,
0020
0000
0130
0000
,
0001
0001
1000
1000
,
1100
0101
0100
0100
,
0001
1000
0100
0010
,
0100
1000
0001
0100
,
0120
0000
0000
0100
0130
0000
0000
0000
,
1002
0000
0000
0000
0000
0000
0000
0000
1003
0000
0000
0001
0000
0000
0100
0000
,
0020
0000
0000
1000
1030
0000
0001
1000
,
0002
0023
0230
1300
,
1001
0000
0000
0000
,
0000
0000
0000
0000
,
0101
0000
1100
0000
0001
0001
1000
1000
,
0010
0010
0100
0100
0002
0000
0100
0000
,
0100
0103
2000
0100
,
0100
3100
0002
0010
,
0010
0013
2000
0010
,
0010
3010
0200
1000
,
0001
1300
0020
1000
,
0001
1030
0002
0010
,
0100
1003
0020
0030
,
0200
0000
0300
0000
0020
0030
0010
0000
,
2002
3000
0200
0303
,
2000
3000
0002
0003
,
0020
0030
0200
0300
,
2000
0000
3000
0000
0010
0100
0010
0100
,
0020
0000
1000
1030
,
0001
0010
0100
1000
,
0010
0010
0100
0001
,
2000
0000
3001
0000
,
1000
0010
0100
0001
,
0011
1010
0100
0100
,
0001
0010
0100
1000
,
0100
0010
0001
1000
,
1002
0000
0103
0000
,
2001
0000
0000
0000
0000
0000
0000
0000
3100
0000
0000
1000
0000
0000
0001
0000
,
0200
0000
0000
0010
0310
0000
1000
0001
,
1000
0100
0010
0001
,
0100
0100
0100
0100
,
0010
0010
0010
0010
,
1000
1000
0001
0001
,
1000
0100
0010
0001
,
0020
0000
0000
0000
,
0000
0000
0000
0000
,
0000
0000
0000
0000
,
0000
0000
0000
0030
;

//---------------dance-single - X Scale 5----------------
#NOTEDATA:;
#CHARTNAME:;
#STEPSTYPE:dance-single;
#DESCRIPTION:X Scale 5;
#CHARTSTYLE:;
#DIFFICULTY:Beginner;
#METER:3;
#RADARVALUES:0.218174,0.316292,0.083454,0.075109,0.000000,183.000000,173.000000,10.000000,9.000000,0.000000,0.000000,0.000000,0.000000,0.000000,0.218174,0.316292,0.083454,0.075109,0.000000,183.000000,173.000000,10.000000,9.000000,0.000000,0.000000,0.000000,0.000000,0.000000;
#CREDIT:;
#DISPLAYBPM:111.000000:222.000000;
#NOTES:
0000
0000
0000
0000
,
0000
0000
0000
0000
,
0000
0000
0000
0000
,
0000
0000
0000
0000
,
0000
0000
0000
0000
,
1001
0000
0000
0000
,
0000
0000
0000
0000
,
1001
0000
0000
0000
,
0010
0010
0010
0000
,
1001
0000
0000
0000
,
0000
0000
0000
0000
,
0110
0000
0000
0000
,
0000
0000
0010
0000
,
0010
0000
0000
0000
,
0100
0000
0000
0000
,
0001
0000
0001
0000
,
1000
0000
1000
0000
,
1001
0000
0010
0000
,
0100
0000
0001
0000
,
1000
0000
0010
0000
,
0100
0100
0100
0000
,
0001
0001
0001
0000
,
1000
1000
1000
0000
,
0110
0000
1001
0000
,
0100
0000
0010
0010
,
0010
0000
0000
0000
,
0100
0000
0000
0000
,
1001
0000
0000
0000
,
1000
1000
1000
0000
,
0001
0000
1000
0000
,
0001
0001
0001
0000
,
0100
0100
0100
0000
,
0010
0010
0010
0000
,
1000
0000
0100
0000
,
0010
0000
0001
0000
,
1001
0000
0000
0000
,
0001
0001
0001
0000
,
1000
0000
0100
0000
,
0010
0010
0010
0000
,
0001
0001
0001
0000
,
1000
1000
1000
0000
,
0001
0000
0010
0000
,
0100
0000
1000
0000
,
0010
0000
0010
0000
,
0100
0000
0100
0000
,
0001
0000
1000
0000
,
0001
0000
0000
0000
,
0010
0000
0000
0000
,
0100
0000
0100
0000
,
0001
0001
0001
0001
,
0001
0000
0000
0000
,
1000
1000
1000
1000
,
1000
0000
0010
0000
,
0100
0100
0100
0000
,
0010
0010
0010
0000
,
1000
0000
0000
0000
,
0001
0000
0100
0000
,
0010
0000
0010
0000
,
1000
1000
1000
0000
,
1001
0000
0000
0000
,
0000
0000
0000
0000
,
0010
0000
0100
0000
,
0001
0001
0002
0000
,
0003
0000
2000
0000
,
3000
0000
0020
0000
,
0030
0000
0200
0000
,
0300
0000
0002
0000
,
0003
0000
0200
0000
,
0300
0000
2000
0000
,
3000
0000
0001
0000
,
1000
0000
0000
0000
0020
0030
0000
0000
,
1000
0000
0100
0000
,
1000
0000
0001
0000
,
0100
0000
0010
0000
,
1000
0000
0001
0000
,
0010
0000
0100
0000
,
1000
1000
1000
0000
,
0001
0001
0001
0001
,
0001
0000
0000
0000
,
0100
0100
0100
0100
,
0100
0000
0010
0000
,
1000
1000
1000
0000
,
0100
0100
0100
0000
,
0010
0000
0000
0000
,
0001
0000
1000
0000
,
0100
0000
0100
0000
,
1000
1000
1000
0000
,
0010
0000
0010
0000
,
0100
0000
0100
0000
,
0001
0001
0001
0000
,
1000
1000
1000
0000
,
0020
0000
0000
0000
,
0000
0000
0000
0000
,
0000
0000
0000
0000
,
0000
0000
0000
0030
;
