#TITLE:Dance Around The World;
#SUBTITLE:;
#ARTIST:Delta Queens;
#TITLETRANSLIT:;
#SUBTITLETRANSLIT:;
#ARTISTTRANSLIT:;
#GENRE:;
#CREDIT:AVEX ;
#MUSIC:Dance Around The World .ogg;
#BANNER:Dance Around The World banner.png;
#BACKGROUND:Dance Around The World bg.png;
#CDTITLE:;
#SAMPLESTART:76.095;
#SAMPLELENGTH:15.512;
#SELECTABLE:YES;
#OFFSET:-0.086;
#BPMS:0.000=154.719;
#STOPS:;
#BGCHANGES:;
#FGCHANGES:;

//--------------- dance-single - SomethingRandom ----------------
#NOTES:
     dance-single:
     SomethingRandom:
     Hard:
     8:
     0,0,0,0,0:
0000
0000
0000
0000
,
0000
0000
0000
0000
,
2000
0000
0000
3200
0000
0000
0320
0000
,
0032
0000
0000
0000
,
1003
0000
1000
0000
0010
0100
0010
0000
0100
0000
0100
0000
0001
0000
0020
0000
,
0000
0100
0000
0130
,
1000
0000
1000
0000
0010
0100
0010
0000
0100
0000
0100
0000
0001
0000
2000
0000
,
0000
0000
0000
0000
0100
0000
0000
0000
3100
0000
1000
0010
1000
0010
0100
0010
,
0100
0000
0001
0000
0011
0000
0100
2100
,
0000
0100
0000
0010
3010
0000
0001
0000
,
1001
0000
1000
0000
1010
0000
1000
1002
,
0000
0100
0000
0100
0000
0103
0001
0010
,
0001
0000
0011
0000
0001
0000
0100
0120
,
0000
0100
0000
1000
1030
0000
0001
0000
,
0010
0000
0100
0000
1000
0100
0010
0001
,
0000
0000
1001
0000
0000
0000
0101
0000
0100
0000
0010
0100
0010
0100
0001
0010
,
0001
0000
0011
0000
1000
0000
0010
0200
,
0000
0010
0000
0001
0000
0310
1000
0100
,
1000
0000
1010
0000
1000
0000
0100
0020
,
0000
0100
0000
1000
0000
0130
0010
0001
,
0100
0000
0001
0000
1001
0000
0020
1000
,
0000
0100
0000
1030
0000
0001
0100
1000
,
0100
0000
0001
0000
0010
0100
1000
0100
,
0000
0000
1100
0000
0000
0000
1000
0000
0010
0000
1000
0000
0001
0010
0001
0010
,
0001
0000
1000
0100
0001
0100
1000
0020
,
0000
0200
0000
0000
0000
0330
0100
0010
,
1000
0100
0001
0100
1000
2010
0000
0020
,
0000
0000
0000
3030
0100
0001
0010
1000
,
0010
0001
0201
0000
0000
0301
0100
0010
,
0000
0110
0020
0000
0000
1030
0100
0001
,
1000
0010
0001
1000
0010
0100
1000
0100
,
0001
0100
0010
1000
1000
0100
0100
1000
,
1100
0000
0001
1000
0100
0001
0100
2000
,
0000
0000
0002
0000
0000
0000
0000
0000
0000
3003
0000
0000
1000
0000
0010
0000
,
1000
0001
0010
0001
0100
0210
0000
0010
,
0000
0310
1000
0100
0001
1000
0010
0001
,
1000
0010
0100
1000
0100
0001
1000
0010
,
0000
1010
0000
0110
0000
0101
0000
1001
,
0000
1000
0100
0001
1000
0010
0001
1000
,
0100
0001
0010
1000
1000
0010
0010
0100
,
0001
0000
0011
0000
1100
0000
1000
1010
,
0000
1000
0100
0001
0100
1000
0010
0000
,
1001
0000
1100
0000
1010
0000
1000
1100
,
0000
0100
0000
0010
0000
0001
0011
0000
,
1000
0000
1100
0000
0001
0000
0100
0220
,
0000
0330
0000
0000
1000
0000
0010
0000
1000
0000
0010
0000
1000
0000
0000
0000
,
0001
0100
0010
1000
0100
1000
0001
2002
,
0000
0000
0000
3003
,
0200
0010
0010
0310
,
2000
0000
3020
0000
0230
0000
0301
0020
,
0000
0100
0000
0100
0000
0130
1000
0100
,
0020
0000
0230
0000
2300
0000
3010
0200
,
0000
0010
0000
0010
0000
0310
0100
0001
,
0020
0000
0032
0000
2003
0000
3001
0020
,
0000
0001
0000
0001
0000
0031
1000
0100
,
0001
1000
0010
0001
1000
0100
0001
0010
,
0000
1100
0000
1001
0000
0100
0010
0100
,
0110
0000
1000
0000
1001
0000
0001
0012
,
0000
0010
0000
0013
0000
0001
0100
0001
,
1001
0000
0001
0000
0011
0000
0010
0210
,
0000
0010
0000
0310
0000
0100
0010
0001
,
1000
0000
1010
0000
0010
0000
0100
0102
,
0000
0010
0000
0010
0000
1003
0100
0001
,
1000
0010
0001
1000
0100
0001
0010
1000
,
0000
0000
0110
0000
0000
0000
1010
0000
1000
0000
0010
0100
0010
0100
0010
0100
,
0010
0000
0210
0000
0010
0000
0310
2000
,
0000
0100
0000
0100
0000
3100
0010
0100
,
1000
0000
1001
0000
0101
0000
0100
2010
,
0000
0010
0000
3010
0000
1000
0100
0001
,
0100
0000
1100
0000
1001
0000
0010
0021
,
0000
0001
0000
0031
0000
0010
0100
1000
,
0100
0000
1000
0000
0001
0010
0001
0012
,
0000
0000
1000
0000
0000
0000
0010
0000
0003
0000
0100
0010
0100
0010
0100
0000
,
0220
0000
0000
0000
,
0000
0000
0000
0000
,
0330
0000
0000
0000
;
