#TITLE:Brain child;
#SUBTITLE:;
#ARTIST:Logic System;
#TITLETRANSLIT:;
#SUBTITLETRANSLIT:;
#ARTISTTRANSLIT:;
#GENRE:;
#CREDIT:;
#BANNER:[Qualifier] - Brain child.png;
#BACKGROUND:[Qualifier] - Brain child-bg.png;
#LYRICSPATH:;
#CDTITLE:cdtitle.png;
#MUSIC:Brain child.mp3;
#OFFSET:-0.028000;
#SAMPLESTART:40.019920;
#SAMPLELENGTH:13.000000;
#SELECTABLE:YES;
#DISPLAYBPM:120.000000;
#BPMS:0.000000=120.000000
;
#STOPS:
;
#BGCHANGES:;
#KEYSOUNDS:;
#ATTACKS:;

//---------------dance-single - ----------------
#NOTES:
     dance-single:
     :
     Beginner:
     1:
     0.115112,0.228916,0.146506,0.000000,0.000000,77.000000,63.000000,14.000000,0.000000,0.000000,0.000000,0.115112,0.228916,0.146506,0.000000,0.000000,77.000000,63.000000,14.000000,0.000000,0.000000,0.000000:
// measure 0
0000
0000
0000
0000
,  // measure 1
0000
0000
0000
0000
,  // measure 2
0000
0000
0000
0000
,  // measure 3
0000
0000
0000
0000
,  // measure 4
0001
0000
0000
0000
,  // measure 5
1000
0000
0000
0000
,  // measure 6
0010
0000
0000
0000
,  // measure 7
1000
0000
0000
0000
,  // measure 8
0001
0000
0000
0000
,  // measure 9
0100
0000
0000
0000
,  // measure 10
0010
0000
0000
0000
,  // measure 11
1000
0000
0000
0000
,  // measure 12
0100
0000
0100
0000
,  // measure 13
0100
0000
0100
0000
,  // measure 14
0001
0000
0001
0000
,  // measure 15
0001
0000
0001
0000
,  // measure 16
1000
0000
1000
0000
,  // measure 17
1000
0000
1000
0000
,  // measure 18
0010
0000
0010
0000
,  // measure 19
0010
0000
0010
0000
,  // measure 20
1001
0000
0000
0000
,  // measure 21
1001
0000
0000
0000
,  // measure 22
0000
0000
0110
0000
,  // measure 23
0000
0000
0000
0000
,  // measure 24
1001
0000
0000
0000
,  // measure 25
1001
0000
0000
0000
,  // measure 26
0000
0000
0110
0000
,  // measure 27
0000
0000
0000
0000
,  // measure 28
0001
0000
1000
0000
,  // measure 29
0010
0000
1000
0000
,  // measure 30
0001
0000
0010
0000
,  // measure 31
0001
0000
1000
0000
,  // measure 32
0010
0000
0100
0000
,  // measure 33
0010
0000
1000
0000
,  // measure 34
0010
0000
0100
0000
,  // measure 35
0001
0000
0000
0000
,  // measure 36
1001
0000
1001
0000
,  // measure 37
1001
0000
1001
0000
,  // measure 38
0110
0000
0110
0000
,  // measure 39
0110
0000
0110
0000
,  // measure 40
1000
0000
1000
0000
,  // measure 41
0001
0000
0001
0000
,  // measure 42
0010
0000
0010
0000
,  // measure 43
0100
0100
0100
0100
;

//---------------dance-single - ----------------
#NOTES:
     dance-single:
     :
     Easy:
     3:
     0.161456,0.206025,0.000000,0.251154,0.000000,108.000000,108.000000,0.000000,24.000000,0.000000,0.000000,0.161456,0.206025,0.000000,0.251154,0.000000,108.000000,108.000000,0.000000,24.000000,0.000000,0.000000:
0000
0000
0000
0000
,
0000
0000
0000
0000
,
0000
0000
0000
0000
,
0000
0000
0000
0000
,
1000
0010
0100
0010
,
1000
0100
0010
0001
,
1000
0001
0010
0100
,
0010
0001
0100
0010
,
1000
0001
0100
0001
,
1000
0100
0010
0100
,
1000
0001
0010
0100
,
0010
0001
0100
0010
,
2000
0000
3000
0000
,
0002
0000
0003
0000
,
2000
0000
3000
0000
,
0002
0000
0003
0000
,
0020
0000
0030
0000
,
0200
0000
0300
0000
,
0020
0000
0030
0000
,
0200
0000
0300
0000
,
1000
0010
0001
0010
,
1000
0010
0001
0010
,
2000
0000
0002
0000
,
0000
0000
0000
3003
,
0001
0100
1000
0100
,
0001
0100
1000
0100
,
0002
0000
2000
0000
,
0000
0000
0000
3003
,
0020
0000
1030
0000
,
0020
0000
0130
0000
,
0002
0000
1003
0000
,
0002
0000
0013
0000
,
0200
0000
1300
0000
,
0200
0000
0310
0000
,
0020
0000
0031
0000
,
0020
0000
0130
0000
,
2000
3010
0100
0001
,
2000
3010
0100
0001
,
2000
3100
0010
0001
,
2000
3100
0010
0001
,
1000
0100
0001
1000
,
0010
1000
0001
0100
,
1000
0010
1000
0001
,
0100
1000
0010
0100
;

//---------------dance-single - ----------------
#NOTES:
     dance-single:
     :
     Medium:
     7:
     0.343841,0.344355,0.104647,0.041859,0.000000,230.000000,220.000000,10.000000,4.000000,0.000000,0.000000,0.343841,0.344355,0.104647,0.041859,0.000000,230.000000,220.000000,10.000000,4.000000,0.000000,0.000000:
0000
0000
0000
0000
,
0000
0000
0000
0000
,
0000
0000
0000
0000
,
0000
0000
0000
0000
,
1000
0010
1000
0001
0010
0100
1000
0000
,
0001
0100
0001
0010
0100
1000
0001
0000
,
1000
0010
0100
0000
0010
0100
0001
0000
,
1000
0001
0100
0001
0010
0100
1000
0000
,
0001
1000
0010
0000
0100
0001
1000
0000
,
0001
0010
0100
1000
0001
0100
0010
0000
,
0010
1000
0001
0010
0100
1000
0001
0000
,
1000
0001
0100
0000
0010
1000
0001
0000
,
0100
0100
0100
0000
0001
0001
0001
0000
,
1000
1000
1000
0000
0100
0100
0100
0000
,
0010
0010
0010
0000
0001
0001
0001
0000
,
1000
1000
1000
0000
0010
0010
0010
0000
,
0100
0100
0100
0000
0001
0001
0001
0000
,
1000
1000
1000
0000
0100
0100
0100
0000
,
0010
0010
0010
0000
0001
0001
0001
0000
,
1000
1000
1000
0000
0010
0010
0010
0000
,
1001
0000
0110
0000
,
1001
0000
0110
0100
,
0100
0000
2002
0000
,
0000
0000
0000
3003
,
0101
0000
1100
0000
,
0101
0000
1100
0100
,
0100
0000
0022
0000
,
0000
0000
0000
0033
,
0100
0100
0100
0100
0100
0100
0100
0000
,
1000
1000
1000
1000
1000
1000
1000
0000
,
0001
0001
0001
0001
0001
0001
0001
0000
,
0100
0100
0100
0100
0100
0100
0100
0000
,
0010
0010
0010
0010
0010
0010
0010
0000
,
1000
1000
1000
1000
1000
1000
1000
0000
,
0001
0001
0001
0001
0001
0001
0001
0000
,
0010
0010
0010
0010
0010
0010
0010
0000
,
0100
1000
0001
0000
0100
1000
0001
0000
,
0100
1000
0001
0000
0100
1000
0001
0000
,
0010
0001
1000
0000
0010
0001
1000
0000
,
0010
0001
1000
0000
0010
0001
1000
0000
,
0010
1000
0100
0000
0001
0100
1000
0000
,
0010
1000
0001
0000
0100
1000
0010
0000
,
1000
0001
0100
0000
0001
0100
1000
0000
,
0010
1000
0100
0000
0001
0100
1000
0001
;

//---------------dance-single - ----------------
#NOTES:
     dance-single:
     :
     Hard:
     9:
     0.457459,0.573926,0.020929,0.125577,0.303477,306.000000,304.000000,2.000000,12.000000,0.000000,0.000000,0.457459,0.573926,0.020929,0.125577,0.303477,306.000000,304.000000,2.000000,12.000000,0.000000,0.000000:
0000
0000
0000
0000
,
0000
0000
0000
0000
,
0000
0000
0000
0000
,
0000
0000
0000
0000
,
0001
0100
0010
1000
0010
0001
0100
0010
,
1000
0100
0010
0001
0010
1000
0100
0010
,
0001
0100
1000
0100
0001
0010
0100
1000
,
0001
0010
1000
0010
0001
0100
0010
1000
,
0001
0100
0010
0100
0001
0010
1000
0100
,
1000
0010
0100
0010
1000
0010
0001
0100
,
0010
1000
0001
0010
0100
1000
0001
0100
,
0010
1000
0001
0010
0100
1000
0001
0100
,
0001
0010
0000
0010
0000
0000
0001
0000
0000
0010
0000
0000
0001
0000
0100
0000
,
0010
1000
0000
1000
0000
0000
0010
0000
0000
1000
0000
0000
0010
0000
0100
0000
,
0001
0010
0000
0010
0000
0000
0001
0000
0000
0010
0000
0000
0001
0000
0100
0000
,
0010
1000
0000
1000
0000
0000
0010
0000
0000
1000
0000
0000
0010
0000
0100
0000
,
0010
1000
0000
0001
0000
0000
1000
0000
0000
0100
0000
0000
1000
0000
0010
0000
,
0100
0001
0000
1000
0000
0000
0001
0000
0000
0010
0000
0000
0001
0000
0100
0000
,
0010
1000
0000
0100
0000
0000
1000
0000
0000
0001
0000
0000
1000
0000
0010
0000
,
0100
0001
0000
0010
0000
0000
0001
0000
0000
1000
0000
0000
0001
0000
0100
0000
,
0010
1000
0001
0000
0010
1000
0001
0000
,
0010
0000
1000
0000
0001
0000
0000
0000
0010
0000
1000
0000
0100
0000
0010
0001
,
0000
1000
0000
0000
2002
0000
0000
0000
,
0000
0000
0000
3003
,
0001
0010
0100
0000
0001
0010
0100
0000
,
0001
0000
0010
0000
0100
0000
0000
0000
0001
0000
0010
0000
0100
0000
1000
0001
,
0000
1000
0000
0000
0220
0000
0000
0000
,
0000
0000
0000
0330
,
1000
0010
1000
0010
1000
0000
0010
1000
0010
1000
0010
0000
1000
0000
0001
0000
,
0010
0001
0010
0001
0010
0000
0001
0010
0001
0010
0001
0000
1000
0000
0001
0000
,
0010
0100
0010
0100
0010
0000
0100
0010
0100
0010
0100
0000
0010
0000
0001
0000
,
0100
0010
0100
0010
0100
0000
0010
0100
0010
0100
0010
0000
0100
0000
0001
0000
,
1000
0100
1000
0100
1000
0000
0001
0100
0001
0100
0001
0000
0010
0000
0100
0000
,
1000
0010
1000
0010
1000
0000
0001
0010
0001
0010
0001
0000
0010
0000
0100
0000
,
1000
0001
1000
0001
1000
0000
0010
0100
0010
0100
0010
0000
0001
0000
1000
0000
,
0010
0100
0010
0100
0010
0000
0001
1000
0001
1000
0001
0000
0100
0000
0010
0000
,
2000
0100
3001
0000
2000
0100
3001
0000
,
2000
0100
3001
0000
2000
0100
3001
0000
,
0002
0100
1003
0000
0002
0100
1003
0000
,
0002
0100
1003
0000
0002
0100
1003
0000
,
0001
1000
0010
0001
1000
0100
0001
1000
,
0001
0010
1000
0001
1000
0010
0100
0001
,
0010
1000
0001
0100
1000
0001
0100
0001
,
0010
0100
0001
1000
0010
0001
1000
0001
;
