#TITLE:Beast mode;
#SUBTITLE:;
#ARTIST:TAG;
#TITLETRANSLIT:;
#SUBTITLETRANSLIT:;
#ARTISTTRANSLIT:;
#GENRE:;
#CREDIT:;
#BANNER:[Qualifier] - Beast mode-banner.png;
#BACKGROUND:[Qualifier] - Beast mode-background.png;
#LYRICSPATH:;
#CDTITLE:cdtitle.png;
#MUSIC:[Qualifier] - Beast mode.ogg;
#OFFSET:-0.200000;
#SAMPLESTART:22.356119;
#SAMPLELENGTH:19.694326;
#SELECTABLE:YES;
#BPMS:0.000000=194.979996
;
#STOPS:
;
#BGCHANGES:;
#KEYSOUNDS:;
#ATTACKS:;

//---------------dance-single - ----------------
#NOTES:
     dance-single:
     :
     Hard:
     11:
     0.706322,1.122773,0.272518,0.404884,0.373739,635.000000,600.000000,35.000000,52.000000,0.000000,0.000000,0.706322,1.122773,0.272518,0.404884,0.373739,635.000000,600.000000,35.000000,52.000000,0.000000,0.000000:
// measure 0
0000
0000
0000
0000
,  // measure 1
0000
0000
0000
0000
,  // measure 2
0000
0000
0000
0000
,  // measure 3
0000
0000
0000
0000
,  // measure 4
1000
0000
0001
0010
,  // measure 5
0001
0000
0000
0000
0000
0000
1000
0010
0100
0000
0000
0000
0000
0000
0000
0000
,  // measure 6
0001
0000
1000
0000
,  // measure 7
0120
0000
0000
0000
,  // measure 8
0000
0000
0000
0000
,  // measure 9
0000
0000
0000
0000
,  // measure 10
0230
0000
0301
0010
0001
0010
0001
1000
,  // measure 11
0001
1000
0001
0100
0001
2000
0000
3000
,  // measure 12
0020
0000
1030
0100
1000
0100
1000
0001
,  // measure 13
1000
0001
1000
0010
1000
0002
0000
0003
,  // measure 14
0020
0000
0130
1000
0001
1000
0001
0100
,  // measure 15
0001
0100
0001
0010
0100
0020
0000
0030
,  // measure 16
0200
0000
0310
0001
0010
0001
1000
0100
,  // measure 17
1000
0100
1000
0001
1000
0020
0000
0030
,  // measure 18
0200
0000
0310
0000
1000
0000
0001
0020
,  // measure 19
0000
0000
0230
0000
0000
0000
0300
0000
1000
0100
1000
0100
0010
0001
0010
0001
,  // measure 20
2000
0000
3001
0000
0010
0000
0100
0020
,  // measure 21
0000
0031
0200
0000
0320
0000
2030
0000
,  // measure 22
3002
0000
0013
0200
0000
0310
0002
0000
,  // measure 23
0203
0000
0310
2000
0000
3100
0020
0000
,  // measure 24
0230
1300
0010
0100
,  // measure 25
0002
0000
1003
0020
0000
0130
0002
0000
,  // measure 26
2003
0000
3100
0000
0010
0000
0100
2000
,  // measure 27
0000
0000
3020
0000
0000
0000
0030
0000
0100
0001
0100
0001
1000
0010
1000
0010
,  // measure 28
0200
0000
0310
0000
1000
0000
0001
0020
,  // measure 29
0000
0031
2000
0000
3020
0000
0230
0000
,  // measure 30
0301
0011
0000
1000
1010
0000
0001
0011
,  // measure 31
0000
1000
1010
0000
0000
0000
0000
0000
,  // measure 32
0001
0101
0000
1000
1100
0000
0001
0101
,  // measure 33
0000
1000
1100
0000
0100
0000
0010
0000
,  // measure 34
0001
1000
0001
0000
0100
0010
1000
0001
,  // measure 35
0010
0100
0010
0000
0100
1000
0100
0010
,  // measure 36
0001
1000
0001
0000
0100
0010
1000
0001
,  // measure 37
0010
0000
0100
0000
1000
0000
0100
1000
0000
0010
0100
0000
0001
0000
0010
0000
,  // measure 38
0001
1000
0001
0000
0100
0010
1000
0001
,  // measure 39
0010
0100
0010
0000
0100
0010
0001
1000
,  // measure 40
0010
0100
0010
0000
0100
0010
1000
0001
,  // measure 41
0010
0000
0000
0100
0000
0000
0010
0000
0001
0000
0010
0000
0100
0000
1000
0000
,  // measure 42
0001
1000
0010
0100
,  // measure 43
0001
0010
0001
0000
1000
0000
0010
1000
,  // measure 44
0010
0100
0001
1000
,  // measure 45
0100
0010
0100
0000
0010
0000
0001
1000
,  // measure 46
0001
0000
1000
0000
0010
1000
0010
0000
,  // measure 47
0100
0001
0100
0000
0001
0000
0010
0000
,  // measure 48
0001
1000
0001
1000
0001
1000
0001
1000
0001
1000
0001
1000
0001
1000
0001
1000
,  // measure 49
0002
0000
1003
0100
0001
0100
2000
0000
3100
0000
0010
0001
2000
0000
3001
0000
,  // measure 50
1000
0000
0001
0000
0010
0000
0000
0000
0100
0010
0000
0001
0000
1000
0001
0100
,  // measure 51
0001
0000
1000
0000
0100
0000
0010
0100
0000
0010
0001
0000
1000
0000
0010
0000
,  // measure 52
0100
0000
0001
0000
0010
0000
0000
0000
0100
1000
0000
0010
0000
0100
0001
0000
,  // measure 53
1000
0000
0100
0000
0010
0000
0100
1000
0000
0010
0100
0000
0001
0000
0010
0000
,  // measure 54
0100
0000
1000
0000
0001
0000
0000
0000
1000
0010
0000
0100
0000
0001
0010
0001
,  // measure 55
0100
0000
0010
0000
0001
0000
0010
0001
0000
1000
0001
0000
0010
0000
0100
0000
,  // measure 56
0010
0000
0001
0000
0100
0000
0000
0000
0010
1000
0000
0001
0000
0000
0010
0000
,  // measure 57
0100
0000
0000
1000
0000
0000
0010
0000
0100
0000
0010
0100
0000
0001
1000
0000
,  // measure 58
0100
0000
0010
0000
0100
0000
0000
0000
0010
0001
0000
0100
0000
0010
1000
0000
,  // measure 59
0001
0000
1000
0000
0010
0000
0100
0001
0000
0010
0100
0000
0010
0000
0001
0000
,  // measure 60
1000
0000
0010
0000
1000
0000
0000
0000
0001
0010
0000
0100
0000
0010
0000
0001
,  // measure 61
1000
0000
0010
0000
0100
0000
0001
0010
0000
0001
1000
0000
0100
0000
0010
0000
,  // measure 62
0100
0000
1000
0000
0010
0000
0000
0000
0100
0001
0000
0010
0000
0100
0000
0010
,  // measure 63
0001
0000
1000
0000
0010
0000
1000
0001
0000
0001
0010
0100
0010
0000
0100
0000
,  // measure 64
0010
0000
0001
0000
0100
0000
0000
0000
0010
1000
0000
0001
0000
0000
0010
0000
,  // measure 65
0200
0000
0000
2300
0000
0000
3002
0000
0200
0000
0000
0000
0303
0000
0000
0000
,  // measure 66
1001
0000
0000
0101
0000
0000
0001
0000
,  // measure 67
0000
0010
0000
0000
0100
0000
0010
0000
,  // measure 68
0011
0000
0000
1100
0000
0000
0011
0000
,  // measure 69
0000
0101
0000
0000
0010
1001
0000
0000
,  // measure 70
1010
0000
0000
0110
0000
0000
0100
0000
,  // measure 71
0000
0010
0000
0000
1000
0000
0100
0000
,  // measure 72
0110
0000
0000
1100
0000
0000
0011
0000
,  // measure 73
0000
0101
0000
0000
0100
1001
0000
0000
,  // measure 74
0001
0100
0010
0000
0100
0010
1000
0000
,  // measure 75
0001
0010
0100
0000
0010
0001
1000
0000
,  // measure 76
0001
0100
0010
0000
1000
0100
0010
0000
,  // measure 77
0100
1000
0010
0000
0100
1001
0000
0000
,  // measure 78
0002
0000
0000
0200
0000
0000
0000
0000
,  // measure 79
0000
0000
0000
0303
,  // measure 80
0010
1000
0001
0010
0100
0010
0001
1000
,  // measure 81
0010
0100
0010
0100
0010
0100
0010
0100
0010
0100
0010
0100
0010
0100
0010
0100
,  // measure 82
0010
0010
0100
0100
,  // measure 83
0001
0000
0000
0000
0001
0000
0000
0000
1000
0001
1000
0001
0010
0000
0000
0000
,  // measure 84
0100
0000
0000
0010
0000
0000
0001
0000
0100
0000
0000
0010
0000
0000
1000
0000
,  // measure 85
0001
0000
0000
0010
0000
0000
0001
0000
1000
0000
0000
0100
0000
0000
1000
0000
,  // measure 86
0010
1000
0001
0100
0010
1000
0001
0100
,  // measure 87
0001
0010
0100
0010
0001
1000
0100
0010
,  // measure 88
0001
1000
0020
1030
0001
0020
0130
0010
,  // measure 89
0001
0010
0100
1000
0001
0010
0100
0010
,  // measure 90
0001
0000
0000
0100
0000
0000
0010
0000
1000
0000
0000
0100
0000
0000
0010
0000
,  // measure 91
0100
0000
0000
1000
0000
0000
0001
0000
0200
0000
0000
0000
0310
0000
0000
0000
,  // measure 92
0100
0010
1000
0001
0010
0100
0010
0001
,  // measure 93
1000
0000
0010
0000
0100
0000
0001
0000
0020
0000
0000
0000
0230
0000
0000
0300
,  // measure 94
1001
0000
0000
0101
0000
0000
0001
0000
0011
0000
0000
0110
0000
0000
1000
0000
,  // measure 95
1100
0000
0000
0011
0000
0000
0010
0000
1002
0000
0000
0000
0103
0000
0000
0000
,  // measure 96
0010
1000
0001
0010
0001
1000
0100
1000
,  // measure 97
0001
0010
0100
1000
0001
0010
0100
1000
,  // measure 98
0010
0000
0000
0010
0000
0000
0010
0000
0100
0000
0000
0100
0000
0000
0100
0000
,  // measure 99
0001
1000
0001
1000
0001
1000
0001
1000
0001
1000
0001
1000
0001
1000
0001
1000
,  // measure 100
0001
0011
0000
1010
0000
0110
0100
0100
,  // measure 101
2002
0000
0000
0000
,  // measure 102
0000
0000
0000
0000
,  // measure 103
3003
0000
0000
0000
;

//---------------dance-single - ----------------
#NOTES:
     dance-single:
     :
     Medium:
     8:
     0.502767,0.681684,0.140152,0.264732,0.077862,452.000000,434.000000,18.000000,34.000000,0.000000,0.000000,0.502767,0.681684,0.140152,0.264732,0.077862,452.000000,434.000000,18.000000,34.000000,0.000000,0.000000:
0000
0000
0000
0000
,
0000
0000
0000
0000
,
0000
0000
0000
0000
,
0000
0000
0000
0000
,
1000
0000
0001
0000
,
0000
0010
0001
0000
,
0100
0000
0010
0000
,
2002
0000
0000
0000
,
0000
0000
0000
0000
,
0000
0000
0000
3003
,
0002
0000
0000
0103
0000
0100
0000
0010
,
0000
0010
0000
1000
0000
0001
0000
0000
,
2000
0000
0000
3100
0000
0100
0000
0010
,
0000
0010
0000
0100
0000
1000
0000
0000
,
0002
0000
0000
0103
0000
0100
0000
0001
,
0000
0001
0000
1000
0000
0010
0000
0000
,
0200
0000
0000
0310
0000
0010
0000
1000
,
0000
1000
0000
0001
0000
1000
0000
0000
,
0200
0000
0000
0000
0000
0000
0310
0200
,
0000
2300
0000
0000
3010
0100
0001
1000
,
0002
0000
0000
0000
0000
0000
1003
0010
,
0000
0100
0010
0000
0100
0000
0010
0000
,
2000
0000
0000
3010
0000
0000
0100
0000
,
0002
0000
0000
0013
0000
0000
0100
0000
,
2000
0000
0000
0000
,
3002
0000
0000
2003
0000
0000
3010
0000
,
0200
0000
0000
0000
0000
0000
0310
2000
,
0000
3200
0000
0000
0310
0100
1000
0100
,
0020
0000
0000
0000
0000
0000
0130
1000
,
0000
1000
0100
0000
0010
0000
0100
0000
,
0001
1000
0000
1000
0100
0000
0001
0100
,
0000
0100
1000
0000
0000
0000
0000
0000
,
0001
1000
0000
1000
0010
0000
0001
0010
,
0000
1000
0001
0000
0000
0000
0000
0000
,
1001
0000
1000
0000
0010
0000
0100
0001
,
0000
0010
0100
0000
0010
0000
0001
0000
,
1000
0000
0010
0000
1000
0001
0010
0001
,
0000
1000
0000
1000
0000
1000
0001
0010
,
0100
0000
0010
0000
0001
0000
1000
0010
,
0000
0100
0001
0000
0010
0000
0001
0000
,
1000
0000
0001
0000
0010
0001
1000
0010
,
0100
0000
0000
0100
0000
0000
0010
0000
0100
0000
0010
0000
1000
0000
0001
0000
,
0010
0001
0010
0001
,
1000
0100
1000
0100
,
1000
0010
1000
0010
,
0100
0001
0100
0001
,
0100
0010
0100
0010
,
1000
0001
1000
0001
,
1000
0010
0100
0001
1000
0010
0100
0001
,
1000
0100
0001
0100
1000
0100
0001
0100
,
1000
0010
0100
0000
0010
1000
0001
0010
,
0100
0010
0001
0000
1000
0000
1001
0000
,
0001
0100
0010
0000
0100
0010
1000
0001
,
0010
0001
0100
0000
0010
1000
0100
0000
,
0010
0100
1000
0000
0100
0010
0001
0100
,
0001
0010
0001
0010
0001
1000
0100
0010
,
0100
0000
1000
0000
0001
0000
0000
0000
1000
0000
0000
0001
0000
0000
0100
0000
,
0010
0000
0000
1000
0000
0000
0010
0000
0100
0000
0001
0000
0010
0000
0100
0000
,
1000
0001
0010
0000
0100
0010
0001
1000
,
0010
0100
0001
0000
1000
0000
1001
0000
,
0001
1000
0010
0000
0100
0010
1000
0100
,
0010
0100
1000
0010
0100
0001
0010
0100
,
0010
0001
1000
0000
0001
0010
0001
0100
,
0010
1000
0010
1000
0010
0000
0100
0000
,
0001
0000
1000
0000
0100
0000
0000
0000
0010
0000
0000
0100
0000
0000
1000
0000
,
0001
0000
0000
1000
0000
0000
0020
0000
0200
0000
0000
0000
0330
0000
0000
0000
,
1001
0000
0000
0101
0000
0000
0001
0000
,
0000
0100
0000
0000
0010
0000
1000
0000
,
1100
0000
0000
0110
0000
0000
0011
0000
,
0000
0110
0000
0000
0100
1000
0000
0000
,
1100
0000
0000
0110
0000
0000
0010
0000
,
0000
0001
0000
0000
0100
0000
0010
0000
,
1010
0000
0000
0101
0000
0000
1010
0000
,
0000
0101
0000
0000
0001
1000
0000
0000
,
0001
1000
0010
1000
,
0001
0010
0100
0010
,
0001
0000
0100
0001
0000
0001
1000
0000
,
1000
0100
0000
0100
0010
0100
0000
0000
,
0010
0000
0000
0002
0000
0000
0000
0000
,
0000
0000
0000
0003
,
1000
0000
0000
0100
0000
0000
0001
0000
,
0000
0100
0000
0000
0020
0000
0032
0000
,
1003
0000
0000
0000
,
0000
0000
0000
0000
0000
0000
0000
0000
0001
1000
0001
1000
0001
0000
0000
0000
,
1000
0000
0000
0001
0000
0000
0100
0000
0001
0000
0000
0010
0000
0000
0100
0000
,
0010
0000
0000
0001
0000
0000
0100
0000
0010
0000
0000
1000
0000
0000
0100
0000
,
0010
0100
1000
0000
0001
0000
1000
0000
,
0010
1000
0100
0000
0010
0000
0100
0000
,
1000
0010
0100
0010
1000
0100
0010
0001
,
1000
0000
0000
0001
0000
0000
0100
0000
0000
0001
0000
0000
0010
0000
0100
0000
,
1000
0000
0000
1000
0000
0000
1000
0000
0001
0000
0000
0001
0000
0000
0001
0000
,
0100
0000
0000
0010
0000
0000
1000
0000
0200
0000
0000
0000
0310
0000
0000
0000
,
0100
1000
0001
0010
0001
1000
0010
1000
,
0001
0100
0001
1000
0200
0000
0320
0000
,
0130
0000
0000
0100
0000
0000
0100
0000
0010
0000
0000
0010
0000
0000
0010
0000
,
0001
0000
0000
1000
0000
0000
0010
0000
0200
0000
0000
0000
0302
0000
0000
0000
,
1003
0100
0010
0100
1000
0001
0100
0010
,
1000
0100
0010
0100
1000
0001
0010
0100
,
0020
0000
0000
0000
0130
0000
1000
0000
0010
0000
0000
0100
0000
0000
0002
0000
,
2000
0000
0000
0003
,
3001
1000
0000
1100
0000
1000
0001
0001
,
2002
0000
0000
0000
,
0000
0000
0000
0000
,
3003
0000
0000
0000
;

//---------------dance-single - ----------------
#NOTES:
     dance-single:
     :
     Easy:
     5:
     0.358166,0.511165,0.163511,0.132366,0.000000,322.000000,301.000000,21.000000,17.000000,0.000000,0.000000,0.358166,0.511165,0.163511,0.132366,0.000000,322.000000,301.000000,21.000000,17.000000,0.000000,0.000000:
0000
0000
0000
0000
,
0000
0000
0000
0000
,
0000
0000
0000
0000
,
0000
0000
0000
0000
,
1000
0000
0001
0000
,
0000
0010
0001
0000
,
0100
0000
0010
0000
,
2002
0000
0000
0000
,
0000
0000
0000
0000
,
0000
0000
0000
3003
,
1000
0000
0000
0010
0000
0010
0000
1000
,
0000
1000
0000
0001
0000
0001
0000
0000
,
0100
0000
0000
0010
0000
0010
0000
1000
,
0000
1000
0000
0001
0000
1000
0000
0000
,
0100
0000
0000
0010
0000
0010
0000
0100
,
0000
0100
0000
1000
0000
0010
0000
0000
,
0100
0000
0000
0010
0000
0010
0000
1000
,
0000
1000
0000
0001
0000
0100
0000
0000
,
0002
0000
0000
0000
0000
0000
1003
0001
,
0000
1000
0000
0000
0001
0000
0100
0000
,
0020
0000
0000
0000
0000
0000
0130
0001
,
0000
0100
0001
0000
0100
0000
0010
0000
,
1000
0000
0000
0010
0000
0000
0100
0000
,
0010
0000
0000
1000
0000
0000
0001
0000
,
0020
0000
0000
0000
,
0230
0000
0000
2300
0000
0000
3010
0000
,
0200
0000
0000
0000
0000
0000
0310
1000
,
0000
0001
0000
0000
1000
0000
0100
0000
,
0020
0000
0000
0000
0000
0000
0130
1000
,
0000
1000
0100
0000
0010
0000
0001
0000
,
1000
0001
0000
1000
0001
0000
1000
0001
,
0000
1000
0001
0000
0000
0000
0000
0000
,
0001
1000
0000
0001
1000
0000
0001
1000
,
0000
0001
1000
0000
0000
0000
0000
0000
,
0001
0100
0010
0000
,
0100
0010
1000
0000
,
0100
1000
0001
0000
,
1000
0010
0100
0000
,
0010
0100
0001
0000
,
0010
0100
1000
0000
,
0100
1000
0010
0000
,
0100
0100
0100
0000
,
0010
1000
0010
1000
,
0010
1000
0010
1010
,
0001
0100
0001
0100
,
0001
0100
0001
0101
,
0001
1000
0001
1000
,
0001
1000
0001
1001
,
0001
0100
0010
1000
,
0001
0010
0001
0010
0001
0010
0100
1000
,
0010
1000
0001
0010
,
0100
0010
0001
0001
,
1000
0001
0100
0001
,
0010
0001
1000
1000
,
0100
1000
0100
1000
,
0010
0100
0001
0001
,
0100
0010
1000
0001
,
1000
0001
1000
0100
,
0010
0100
1000
0010
,
0100
0001
0010
0010
,
0001
1000
0010
0100
,
0001
1000
0100
0100
,
0010
0100
0010
0001
,
0010
0100
0010
0010
,
0001
0100
0010
1000
,
0001
1000
0010
0100
,
1001
0000
0000
1001
0000
0000
0000
0000
,
0000
0000
0000
0000
,
0110
0000
0000
0110
0000
0000
0110
0000
,
0000
0110
0000
0000
0010
1000
0000
0000
,
0101
0000
0000
0101
0000
0000
0000
0000
,
0000
0000
0000
0000
,
0011
0000
0000
0011
0000
0000
1100
0000
,
0000
1100
0000
0000
1000
0001
0000
0000
,
1001
0000
0000
1020
0000
0000
0000
0000
,
0000
0000
0000
0000
,
0130
0000
0000
0001
0000
0000
0010
0000
,
0000
0100
0000
0000
0010
0001
0000
0000
,
1000
0000
0000
2000
0000
0000
0000
0000
,
0000
0000
0000
0000
,
3001
0000
0000
0100
0000
0000
0010
0000
,
0000
1000
0000
0000
0010
0000
0100
0000
,
1001
0000
0000
0000
,
0000
0000
0000
0110
,
0001
0001
1000
1000
,
0010
0010
0100
0100
,
0010
1000
0200
0000
,
0310
0001
2000
0000
,
3001
1000
0010
1000
,
0001
0010
0100
0010
,
0001
0000
1000
0000
,
0010
0000
0200
0300
,
0010
1000
0010
0100
,
0001
0010
0100
0010
,
0001
0000
1000
0000
,
0100
0000
0020
0030
,
0100
0010
0001
1000
,
0010
0100
0010
1000
,
0001
0000
1000
0000
,
0220
0000
0000
0330
,
0010
1000
0000
0001
0000
1000
0100
0010
,
0001
0000
0000
0000
;

//---------------dance-single - ----------------
#NOTES:
     dance-single:
     :
     Beginner:
     2:
     0.141264,0.275243,0.085648,0.000000,0.000000,127.000000,116.000000,11.000000,0.000000,0.000000,0.000000,0.141264,0.275243,0.085648,0.000000,0.000000,127.000000,116.000000,11.000000,0.000000,0.000000,0.000000:
0000
0000
0000
0000
,
0000
0000
0000
0000
,
0000
0000
0000
0000
,
0000
0000
0000
0000
,
0000
0000
0000
0000
,
0000
0000
0000
0000
,
1000
0000
0001
0000
,
0100
0000
0000
0000
,
0000
0000
0000
0000
,
0000
0000
0000
0000
,
0010
0000
0000
0000
,
1000
0000
0000
0000
,
0001
0000
0000
0000
,
0010
0000
0000
0000
,
0001
0000
0000
0000
,
1000
0000
0000
0000
,
0010
0000
0000
0000
,
0100
0000
0000
0000
,
0010
0000
0000
0000
,
0000
0000
1000
1000
,
0001
0000
0000
0000
,
0000
0000
0000
0000
,
1000
0000
0000
0000
,
0010
0000
0000
0000
,
0100
0000
0000
0000
,
0010
0000
0000
0000
,
1000
0000
0000
0000
,
0000
0000
0001
0001
,
0001
0000
0000
0000
,
0010
0000
0000
0000
,
0110
0000
0000
0000
,
0000
0000
0000
0000
,
1001
0000
0000
0000
,
0000
0000
0000
0000
,
1000
0000
0000
0000
,
0010
0000
0000
0000
,
0100
0000
0000
0000
,
0001
0000
0000
0000
,
0010
0000
0000
0000
,
0001
0000
0000
0000
,
1000
0000
0000
0000
,
0100
0000
1000
0000
,
0010
0000
0000
0000
,
0100
0000
0000
0000
,
0001
0000
0000
0000
,
1000
0000
0000
0000
,
0100
0000
0000
0000
,
0001
0000
0000
0000
,
0010
0000
0000
0000
,
0001
0000
1000
0000
,
0110
0000
0000
0000
,
0100
0000
0010
0000
,
1000
0000
0000
0000
,
0001
0000
0010
0000
,
0001
0000
0000
0000
,
0100
0000
0010
0000
,
1000
0000
0000
0000
,
0001
0000
1000
0000
,
0010
0000
0000
0000
,
0100
0000
0010
0000
,
1000
0000
0000
0000
,
0100
0000
1000
0000
,
0001
0000
0000
0000
,
0010
0000
0001
0000
,
0100
0000
0000
0000
,
0010
0000
0000
0000
,
1001
0000
0000
0000
,
0000
0000
0000
0000
,
0110
0000
0000
0010
,
0000
0000
0100
0000
,
1001
0000
0000
0000
,
0000
0000
0000
0000
,
0001
0000
0000
1000
,
0000
0000
0010
0000
,
0110
0000
0000
0000
,
0000
0000
0000
0000
,
0010
0000
0000
1000
,
0000
0000
0100
0000
,
0110
0000
0000
0000
,
0000
0000
0000
0000
,
0010
0000
0000
0001
,
0000
0000
1000
0001
,
1000
0000
0000
0000
,
0000
0000
0000
0110
,
1000
0000
1000
0000
,
1000
0000
1000
0000
,
0001
0001
0001
0000
,
0100
0100
0100
0000
,
0010
0000
0010
0000
,
0100
0000
0000
0000
,
1000
0000
0001
0000
,
0100
0000
0010
0000
,
1000
0000
0000
0000
,
0100
0000
0000
0000
,
1000
0000
0100
0000
,
0010
0000
0001
0000
,
1000
0000
0000
0000
,
0001
0000
0000
0000
,
0100
0000
0010
0000
,
0100
0000
0000
0000
,
1001
0000
0000
0000
,
0110
0000
0000
0000
;
