#TITLE:反復回転時計 Running Cost;
#SUBTITLE:;
#ARTIST:DJ TECHNORCH;
#TITLETRANSLIT:;
#SUBTITLETRANSLIT:;
#ARTISTTRANSLIT:;
#GENRE:;
#CREDIT:;
#BANNER:[Round 5] - Running Cost.png;
#BACKGROUND:[Round 5] - Running Cost-bg.png;
#LYRICSPATH:;
#CDTITLE:;
#MUSIC:[Round 5] - Running Cost.ogg;
#OFFSET:-0.300000;
#SAMPLESTART:75.734001;
#SAMPLELENGTH:12.000000;
#SELECTABLE:YES;
#BPMS:0.000000=139.990005
;
#STOPS:
;
#BGCHANGES:;
#KEYSOUNDS:;
#ATTACKS:;

//---------------dance-single - ----------------
#NOTES:
     dance-single:
     :
     Hard:
     10:
     0.619155,0.725381,0.197004,0.051392,0.556750,506.000000,483.000000,23.000000,6.000000,0.000000,0.000000,0.619155,0.725381,0.197004,0.051392,0.556750,506.000000,483.000000,23.000000,6.000000,0.000000,0.000000:
0000
0000
0000
0000
,
0000
0000
0000
0000
,
0000
0000
0000
0000
,
0000
0000
0000
0000
,
0000
0000
0000
0000
,
0000
0000
0000
0000
,
0000
0000
0000
0000
,
0000
0000
0000
0000
,
1001
0000
0001
0000
0010
0000
0100
0000
1000
0000
0010
0100
0000
0010
0100
0000
,
0001
0000
1000
0000
0010
0000
1000
0000
0100
0000
0010
0001
0000
0001
0100
0000
,
0010
0000
1000
0000
0001
0000
0010
0000
0100
0000
0001
0100
0000
0010
0100
0000
,
0010
0000
0001
0000
1000
0010
1000
0000
0100
0000
0010
0100
0010
0001
1000
0000
,
0010
0000
0100
0000
0001
0000
1000
0000
0100
0000
1000
0010
0000
1000
0010
0000
,
0100
0000
0001
0000
1000
0000
0001
0000
0010
0000
0100
0010
0000
0010
1000
0000
,
0010
0000
0100
0000
1000
0000
0001
0000
0100
0000
0010
1000
0000
0001
1000
0000
,
0100
0000
0010
0000
0001
1000
0001
0000
0100
0000
0010
1000
0010
0100
0001
0000
,
0010
0000
0100
0000
1000
0000
0001
0000
1000
0000
0010
0100
0000
0001
0100
0000
,
0001
0000
0010
0000
1000
0000
0010
0000
0100
0000
1000
0010
0000
0010
0100
0000
,
1000
0000
0100
0000
0001
0000
1000
0000
0100
0000
0010
0001
0000
1000
0100
0000
,
1000
0000
0000
0100
0000
0000
0010
0000
0000
0000
0001
0000
1001
0000
0000
0000
,
1000
0000
1000
0000
0010
1000
0001
0000
0020
0000
0000
0000
0130
0000
0010
0000
,
0001
0000
0100
0000
0001
1000
0100
0000
0002
0000
0000
0000
0103
0000
1000
0000
,
0100
0000
0010
0000
0100
1000
0001
0000
0200
0000
0000
0000
1300
0000
0100
0000
,
0010
0000
1000
0000
0001
1000
0100
0000
0010
0000
0000
0000
0011
0000
0000
0000
,
0001
0100
0010
0000
0100
0000
0000
0000
0000
0000
0010
0000
1010
0000
0000
0000
,
1000
0001
0010
0000
0100
0000
0000
0000
0000
0000
0010
0000
0011
0000
0000
0000
,
0001
1000
0100
0000
1000
0000
0000
0000
0000
0000
0001
0000
0101
0000
0000
0000
,
0100
0010
0100
0000
0010
1000
0010
0000
1000
0000
0001
0000
0021
0000
0000
0000
,
0031
0000
0000
0001
0000
0000
0100
0000
0000
0100
0000
0000
0100
0000
0001
0000
,
0010
0000
0000
0010
0000
0000
0100
0000
0000
0100
0000
0000
0100
0000
1000
0000
,
0010
0000
0000
0010
0000
0000
0100
0000
0000
0100
0000
0000
0100
0000
1000
0000
,
0100
0000
0000
0100
0000
0000
0001
0000
0000
0001
0000
0000
0001
0000
1000
0000
,
0100
0000
0000
0100
0000
0000
0010
0000
0000
0010
0000
0000
0010
0000
0100
0000
,
0010
0000
0000
0010
0000
0000
0001
0000
0000
0001
0000
0000
0001
0000
1000
0000
,
0010
0000
0000
0010
0000
0000
0100
0000
0000
0100
0000
0000
0100
0000
0010
0000
,
1010
0000
0000
0000
0011
0000
0000
0000
1000
0010
1000
0001
0010
0000
0001
1000
,
0010
0100
0010
1000
0001
0000
1000
0100
0000
0010
0000
0100
0000
0010
0001
0100
,
0001
0000
1000
0100
1000
0000
0010
0100
0000
1000
0000
0100
0000
0001
0000
0010
,
0001
0100
0001
1000
0100
0000
0001
0100
0000
0010
0000
0001
0000
0100
0010
1000
,
0010
0000
1000
0001
1000
0000
0010
0001
0000
0010
0000
1000
0000
0001
0000
0010
,
0001
1000
0001
0100
0010
0000
1000
0100
0000
0010
0000
1000
0000
0010
0001
0010
,
0100
0000
1000
0001
0100
0000
0010
0100
0000
0001
0000
1000
0000
0001
0000
0100
,
0010
0100
0010
1000
0001
0000
0010
0100
0000
0001
0000
0100
0000
0010
0001
1000
,
0001
0110
1001
0101
,
0110
0000
0100
0000
0010
0000
1000
0000
0100
0000
0010
0100
0000
1000
0100
0000
,
0010
0000
0001
0000
1000
0000
0001
0000
0100
0000
0010
1000
0000
1000
0100
0000
,
0010
0000
0001
0000
1000
0000
0010
0000
0100
0000
1000
0100
0000
0001
0100
0000
,
0010
0000
1000
0000
0001
0010
0001
0000
0100
0000
0001
1000
0100
0001
0100
0000
,
0010
0000
0001
0000
0100
0000
0010
0000
1000
0000
0001
0010
0000
0001
0010
0000
,
0100
0000
0010
0000
1000
0000
0010
0000
0001
0000
0100
0010
0000
0010
1000
0000
,
0001
0000
0010
0000
0100
0000
1000
0000
0001
0000
0100
0010
0000
0100
0001
0000
,
0001
0000
0000
0010
0000
0000
0100
0000
0000
0000
1000
0000
1100
0000
0000
0000
,
0100
0010
0001
0010
0100
0000
0000
0000
0010
0000
0100
0000
0110
0000
0000
0000
,
0100
0010
0001
0100
0010
0000
0000
0000
0100
0000
0010
0000
0110
0000
0000
0000
,
0010
1000
0010
0000
0100
0000
0000
0000
0010
0000
1000
0000
1100
0000
0000
0000
,
0022
0000
0000
0033
1001
0000
0001
0000
0100
0000
0010
0000
0110
0000
0000
0000
,
0100
0010
1000
0000
0001
0000
0000
0000
1000
0000
0100
0000
1100
0000
0000
0000
,
1000
0010
0100
0000
0010
0000
0000
0000
0100
0000
0001
0000
1001
0000
0000
0000
,
0001
1000
0010
0000
0100
0000
0000
0000
0001
0000
0010
0000
0011
0000
0000
0000
,
0010
0100
0010
0000
0100
0000
0100
0000
1000
0000
0001
0000
0100
0000
0000
0000
,
0010
1000
0100
0000
1000
0000
0000
0000
0001
0000
0010
0000
0100
0000
0000
0000
,
1000
0010
0100
0000
0010
0000
0000
0000
0100
0000
0001
0000
0100
0000
0000
0000
,
0010
1000
0001
0000
0010
0000
0000
0000
0100
0000
0001
0000
0100
0000
0000
0000
,
1000
0001
0100
0000
0010
0000
0010
0000
0100
0000
0001
0000
0010
0000
0100
0000
,
0010
0001
1000
0000
0010
0000
0000
0000
0000
0000
0100
0000
0010
0000
0000
0000
,
1000
0100
0010
0000
0100
0000
0000
0000
0000
0000
0010
0000
0001
0000
0000
0000
,
0100
0010
0100
0000
1000
0000
0000
0000
0000
0000
0100
0000
0001
0000
0000
0000
,
0010
0100
0010
0000
0100
0000
0100
0000
1000
0000
0001
0000
1000
0000
0000
0000
;

//---------------dance-single - ----------------
#NOTES:
     dance-single:
     :
     Medium:
     8:
     0.461307,0.580305,0.025696,0.034262,0.218417,377.000000,374.000000,3.000000,4.000000,0.000000,0.000000,0.461307,0.580305,0.025696,0.034262,0.218417,377.000000,374.000000,3.000000,4.000000,0.000000,0.000000:
0000
0000
0000
0000
,
0000
0000
0000
0000
,
0000
0000
0000
0000
,
0000
0000
0000
0000
,
0000
0000
0000
0000
,
0000
0000
0000
0000
,
0000
0000
0000
0000
,
0000
0000
0000
0000
,
0010
0000
0000
0000
0000
0000
0000
0000
0010
0000
1000
0010
0000
1000
0010
0000
,
0100
0000
0000
0000
0000
0000
0000
0000
0100
0000
0100
0001
0000
1000
0100
0000
,
0010
0000
0000
0000
0000
0000
0000
0000
0010
0000
0100
1000
0000
0001
0100
0000
,
0010
0000
0000
0000
0000
0000
0000
0000
0100
0000
0000
0000
0010
0100
0010
0000
,
0100
0000
0001
0000
1000
0000
0001
0000
0010
0000
0000
0100
0000
0000
0010
0000
,
0001
0000
1000
0000
0010
0000
1000
0000
0001
0000
0000
1000
0000
0000
0100
0000
,
0010
0000
0100
0000
1000
0000
0010
0000
0100
0000
0000
0010
0000
0000
0100
0000
,
0010
0000
1000
0000
0001
0000
0010
0000
0100
0000
0010
0100
0010
0000
0100
0000
,
0010
0000
0001
0000
1000
0000
0001
0000
0100
0000
0000
0010
0000
0000
0100
0000
,
0010
0000
1000
0000
0100
0000
0010
0000
0001
0000
0000
1000
0000
0000
0001
0000
,
0100
0000
0010
0000
0100
0000
0001
0000
1000
0000
0000
1000
0000
0000
0100
0000
,
0010
0000
0000
0010
0000
0000
0010
0000
0000
0000
0010
0000
0100
0000
0000
0000
,
1000
0000
0010
0000
0200
0000
1300
0100
,
0010
0000
1000
0000
0200
0000
0301
0100
,
0010
0000
0001
0000
0200
0000
0310
0100
,
0001
1000
0100
1100
,
1000
0100
0010
0000
0000
0010
0100
0000
,
0010
0001
1000
0000
0000
0001
0100
0000
,
0100
0010
0100
0000
0000
0010
0100
0000
,
0100
0010
0100
1000
0100
0001
1000
0000
,
1000
0000
0000
1000
0000
0000
0100
0000
0000
0010
0000
0000
0100
0000
0010
0000
,
0001
0000
0000
1000
0000
0000
0010
0000
0000
0100
0000
0000
0010
0000
0100
0000
,
0010
0000
0000
0010
0000
0000
1000
0000
0000
0001
0000
0000
1000
0000
0100
0000
,
1000
0000
0000
0100
0000
0000
0010
0000
0000
0100
0000
0000
0010
0000
0001
0000
,
0010
0000
0000
0100
0000
0000
0010
0000
0000
0100
0000
0000
0010
0000
0001
0000
,
1000
0000
0000
0010
0000
0000
1000
0000
0000
0010
0000
0000
0100
0000
0010
0000
,
0100
0000
0000
0010
0000
0000
0100
0000
0000
0001
0000
0000
0100
0000
0001
0000
,
1000
0100
0010
0001
,
1000
0000
0000
0010
0000
0000
0010
0000
0000
0000
1000
0000
0001
0000
1000
0000
,
0100
0000
0000
0100
0000
0000
0010
0000
0000
0000
0100
0000
0010
0000
0001
0000
,
1000
0000
0000
1000
0000
0000
0010
0000
0000
0000
0010
0000
1000
0000
0010
0000
,
1000
0000
0000
0010
0000
0000
0100
0000
0000
0000
0001
0000
1000
0000
0100
0000
,
0010
0000
0000
0010
0000
0000
0100
0000
0000
0000
0010
0000
0001
0000
1000
0000
,
0001
0000
0000
0010
0000
0000
0100
0000
0000
0000
0010
0000
0001
0000
0010
0000
,
0001
0000
0000
1000
0000
0000
0010
0000
0000
0000
1000
0000
0100
0000
1000
0000
,
0010
0100
0110
1001
,
1000
0000
0010
0000
0100
0000
0001
0000
1000
0000
0100
0010
0000
0100
0010
0000
,
0001
0000
0010
0000
0100
0000
1000
0000
0001
0000
1000
0010
0000
0010
0100
0000
,
0010
0000
1000
0000
0001
0000
1000
0000
0100
0000
0010
0100
0000
0010
0100
0000
,
0010
0000
0001
0000
1000
0000
0010
0000
0100
0000
0001
1000
0001
1000
0100
0000
,
0010
0000
0100
0000
0010
0000
0001
0000
1000
0000
0001
0100
0000
0001
0100
0000
,
0001
0000
1000
0000
0100
0000
0010
0000
0100
0000
0010
0100
0000
0100
1000
0000
,
0010
0000
1000
0000
0001
0000
1000
0000
0010
0000
1000
0100
0000
1000
0100
0000
,
0010
0000
0000
0010
0000
0000
0001
0000
0000
0000
1000
0000
0010
0000
0000
0000
,
1000
1000
0100
0000
0000
0001
0100
0000
,
0010
0010
0010
0000
0000
0010
0100
0000
,
0010
0001
1000
0000
0000
0010
1000
0000
,
0020
0000
0130
0100
0010
0100
0001
0000
,
1000
0100
0010
0000
0000
0010
0100
0000
,
0010
0001
1000
0000
0000
0010
1000
0000
,
1000
0001
0010
0000
0000
0010
0001
0000
,
1000
0100
0010
0100
0001
0100
1000
0000
,
1000
0010
0001
0000
0001
0010
1000
0000
,
1000
0001
0100
0000
0100
0001
1000
0000
,
0001
1000
0100
0000
0100
1000
0001
0000
,
1000
0010
0100
0001
1000
0100
0001
0000
,
0100
1000
0100
0000
1000
0100
1000
0000
,
0001
0010
1000
0000
1000
0010
0001
0000
,
1000
0001
1000
0000
0001
1000
0001
0000
,
1000
0010
0100
0010
0001
0010
1000
0000
;

//---------------dance-single - ----------------
#NOTES:
     dance-single:
     :
     Easy:
     4:
     0.321814,0.348183,0.094219,0.188438,0.111350,263.000000,252.000000,11.000000,22.000000,0.000000,0.000000,0.321814,0.348183,0.094219,0.188438,0.111350,263.000000,252.000000,11.000000,22.000000,0.000000,0.000000:
// measure 0
0000
0000
0000
0000
,  // measure 1
0000
0000
0000
0000
,  // measure 2
0000
0000
0000
0000
,  // measure 3
0000
0000
0000
0000
,  // measure 4
0000
0000
0000
0000
,  // measure 5
0000
0000
0000
0000
,  // measure 6
0000
0000
0000
0000
,  // measure 7
0000
0000
0000
0000
,  // measure 8
1000
0000
0000
0000
0010
0000
0000
0000
0100
0000
0000
0010
0000
0000
0100
0000
,  // measure 9
0001
0000
0000
0000
0010
0000
0000
0000
0100
0000
0000
0100
0000
0000
1000
0000
,  // measure 10
0010
0000
0000
0000
0100
0000
0000
0000
0010
0000
0000
1000
0000
0000
0010
0000
,  // measure 11
1000
0000
0100
0000
0010
0000
0001
0100
,  // measure 12
1000
0100
0010
0100
,  // measure 13
0001
0000
1000
0000
0001
0000
1000
1000
,  // measure 14
0001
0010
0010
0100
,  // measure 15
0010
0001
1000
1010
,  // measure 16
0010
0100
0001
0100
,  // measure 17
0010
0000
1000
0000
0001
0000
0010
0010
,  // measure 18
0100
0010
0100
1000
,  // measure 19
1000
0000
0000
0001
0000
0000
0100
0000
0000
0000
0010
0000
0100
0000
0000
0000
,  // measure 20
0100
0001
0100
0000
0100
0000
0001
0000
,  // measure 21
1000
0100
1000
0000
0010
0000
0010
0000
,  // measure 22
0100
0010
1000
0000
0001
0000
0001
0000
,  // measure 23
1000
0100
0010
0000
0100
0000
0110
0000
,  // measure 24
0010
0100
0000
1001
,  // measure 25
0001
0100
0000
0110
,  // measure 26
0010
0100
0000
1001
,  // measure 27
1000
0100
0010
0001
,  // measure 28
0002
0000
0000
2003
0000
0000
0000
0000
,  // measure 29
3020
0000
0000
0230
0000
0000
0000
0000
,  // measure 30
0302
0000
0000
2003
0000
0000
0000
0000
,  // measure 31
3200
0000
0000
0320
0000
0000
0000
0000
,  // measure 32
0230
0000
0000
0302
0000
0000
0000
0000
,  // measure 33
0203
0000
0000
0320
0000
0000
0000
0000
,  // measure 34
0032
0000
0000
0203
0000
0000
0300
0000
,  // measure 35
0110
0010
1000
0001
,  // measure 36
1000
0000
0000
0010
0000
0000
0100
0000
0000
0010
0000
0000
1000
0000
0000
0000
,  // measure 37
0001
0000
0000
0010
0000
0000
0100
0000
0000
0100
0000
0000
0010
0000
0000
0000
,  // measure 38
0001
0000
0000
1000
0000
0000
0010
0000
0000
0100
0000
0000
0010
0000
0000
0000
,  // measure 39
1000
0000
0000
0100
0000
0000
0010
0000
0000
0001
0000
0000
0010
0000
0001
0000
,  // measure 40
1000
0000
0000
0010
0000
0000
1000
0000
0000
0100
0000
0000
0010
0000
0000
0000
,  // measure 41
0010
0000
0000
0100
0000
0000
1000
0000
0000
0001
0000
0000
0100
0000
0000
0000
,  // measure 42
0010
0000
0000
0100
0000
0000
1000
0000
0000
0100
0000
0000
0010
0000
0000
0000
,  // measure 43
0100
0100
0001
0101
,  // measure 44
0100
0000
0000
0000
0001
0000
0000
0000
0100
0000
0000
0100
0000
0000
0001
0000
,  // measure 45
1000
0000
0000
0000
0100
0000
0000
0000
0010
0000
0000
0100
0000
0000
1000
0000
,  // measure 46
0001
0000
0000
0000
0100
0000
0000
0000
0010
0000
0000
0100
0000
0000
0010
0000
,  // measure 47
0010
0000
0000
0000
1000
0000
0000
0000
0001
0000
0000
1000
0000
0000
0001
0000
,  // measure 48
0010
0000
0000
0000
0100
0000
0000
0000
1000
0000
0000
0100
0000
0000
1000
0000
,  // measure 49
0001
0000
0000
0000
1000
0000
0000
0000
0010
0000
0000
0100
0000
0000
0010
0000
,  // measure 50
0100
0000
0000
0000
0001
0000
0000
0000
0100
0000
0000
0001
0000
0000
0010
0000
,  // measure 51
0100
0000
0000
0010
0000
0000
0100
0000
0000
0000
0100
0000
0010
0000
0000
0000
,  // measure 52
0001
1001
2000
3010
,  // measure 53
0010
0110
0200
0301
,  // measure 54
0001
1000
0200
0310
,  // measure 55
0110
1001
0002
1003
,  // measure 56
1000
0010
0200
0310
,  // measure 57
0100
0001
0020
0130
,  // measure 58
1000
0100
2000
3010
,  // measure 59
1000
0001
0200
0310
,  // measure 60
0100
0010
0100
0000
0000
0000
0010
0000
,  // measure 61
1000
0100
1000
0000
0000
0000
0001
0000
,  // measure 62
0001
0100
0001
0000
0000
0000
0010
0000
,  // measure 63
0100
0010
0100
0000
0010
0000
0010
0000
,  // measure 64
0100
0010
0001
0000
0000
0000
0100
0000
,  // measure 65
0010
0100
0010
0000
0000
0000
0100
0000
,  // measure 66
0010
1000
0001
0000
0000
0000
1000
0000
,  // measure 67
0001
1000
0001
0000
1000
0000
0100
0000
;
