#VERSION:0.83;
#TITLE:Pumpkin Cravings;
#SUBTITLE:;
#ARTIST:Homestuck;
#TITLETRANSLIT:;
#SUBTITLETRANSLIT:;
#ARTISTTRANSLIT:;
#GENRE:;
#ORIGIN:;
#CREDIT:;
#BANNER:[Round 3] - Pumpkin Cravings.png;
#BACKGROUND:[Round 3] - Pumpkin Cravings-bg.png;
#PREVIEWVID:;
#JACKET:[Round 5] - Pumpkin Cravings-jacket.jpg;
#CDIMAGE:;
#DISCIMAGE:;
#LYRICSPATH:;
#CDTITLE:;
#MUSIC:Pumpkin Cravings.mp3;
#OFFSET:-0.744160;
#SAMPLESTART:19.620647;
#SAMPLELENGTH:12.000000;
#SELECTABLE:YES;
#BPMS:0.000=61.000,
2.000=64.000,
6.000=61.000,
8.000=66.000,
10.000=73.000,
11.000=86.000,
12.000=105.000,
13.000=125.000,
14.000=135.000,
15.000=152.000,
16.000=160.000;
#STOPS:;
#DELAYS:;
#WARPS:;
#TIMESIGNATURES:0.000=4=4;
#TICKCOUNTS:0.000=4;
#COMBOS:0.000=1;
#SPEEDS:0.000=1.000=0.000=0;
#SCROLLS:0.000=1.000;
#FAKES:;
#LABELS:0.000=Song Start;
#BGCHANGES:;
#KEYSOUNDS:;
#ATTACKS:
;

//---------------dance-single - ----------------
#NOTEDATA:;
#CHARTNAME:;
#STEPSTYPE:dance-single;
#DESCRIPTION:;
#CHARTSTYLE:;
#DIFFICULTY:Hard;
#METER:9;
#RADARVALUES:0.722912,0.889923,0.593942,0.126708,0.368244,639.000000,564.000000,75.000000,16.000000,0.000000,0.000000,0.000000,0.000000,0.000000,0.722912,0.889923,0.593942,0.126708,0.368244,639.000000,564.000000,75.000000,16.000000,0.000000,0.000000,0.000000,0.000000,0.000000;
#CREDIT:;
#NOTES:
// measure 0
0000
0000
0000
0000
,  // measure 1
0000
0000
0000
0000
,  // measure 2
1000
0001
1000
0001
,  // measure 3
1000
0001
1000
0001
,  // measure 4
1000
0001
1000
0001
1000
0001
1000
0001
,  // measure 5
1000
0001
1000
0001
1000
0001
1000
0001
1000
0001
1000
0001
1000
0001
1000
0001
,  // measure 6
1000
0000
0100
0010
0001
0000
0100
0010
1000
0000
1010
0000
1001
0000
0001
0000
,  // measure 7
0010
0000
0100
1000
0010
0000
0100
0001
0010
0000
0011
0000
1001
0000
0001
0000
,  // measure 8
0010
0000
0000
0010
0100
0000
1000
0000
0001
0000
0000
0000
1001
0000
0000
0000
,  // measure 9
0001
0100
1000
0100
0001
0000
1001
0000
,  // measure 10
1000
1100
0100
0110
,  // measure 11
0010
0000
0001
0010
0001
0000
1000
0001
1000
0000
1001
0000
1001
0000
0001
0000
,  // measure 12
1000
0000
0000
1000
0010
0000
0100
0000
0001
0000
0000
0000
1001
0000
0000
0000
,  // measure 13
1000
0100
0001
0100
1000
0000
1001
0000
,  // measure 14
1000
1010
0001
0011
,  // measure 15
1001
0000
0000
0000
0001
1000
0000
0000
1001
0000
0000
0000
1000
0001
0000
0000
,  // measure 16
1000
0000
0100
0010
0001
0000
0100
0000
0101
0000
0110
0000
1010
0000
0000
0000
,  // measure 17
0010
0000
1000
0001
0010
0000
0100
0000
1100
0000
1001
0000
0101
0000
0000
0000
,  // measure 18
0100
0000
0010
1000
0001
0000
0010
0000
0011
0000
0001
0000
1001
0000
1000
0000
,  // measure 19
1010
0000
0000
0000
0110
0000
0000
0000
0101
0000
0001
0100
0001
0100
0001
0100
,  // measure 20
0001
0000
1000
0001
1000
0000
0100
0000
0010
0000
0010
0000
0020
0000
0000
0000
,  // measure 21
0031
0000
0010
0100
1000
0000
0001
0000
0100
0000
0100
0000
0200
0000
0000
0000
,  // measure 22
0310
0000
0000
0010
1000
0000
0100
0000
0000
0100
0010
0000
0001
0000
1000
0000
,  // measure 23
1001
0000
0001
0101
0000
1100
0000
1001
,  // measure 24
1001
0000
0000
0000
0001
0100
0001
0100
0010
0100
0010
1000
0010
1000
0010
1000
,  // measure 25
0100
0000
0000
0100
1000
0000
0001
0000
0100
0000
0000
0000
0110
0000
0000
0000
,  // measure 26
1000
0010
0001
0010
1000
0000
1001
0000
,  // measure 27
0001
0011
1000
1010
,  // measure 28
0010
0000
1000
0001
0100
0000
0100
0010
1000
0100
0010
0001
1000
0000
1001
0000
,  // measure 29
1000
0000
0000
1000
0100
0000
0010
0000
0001
0000
0000
0000
1001
0000
0000
0000
,  // measure 30
1000
0100
0001
0100
1000
0000
1100
0000
,  // measure 31
1000
1010
0010
0110
,  // measure 32
0102
0000
0000
0000
1003
0000
0000
0000
2100
0000
0000
0000
3001
1000
0001
1000
,  // measure 33
0001
0000
0100
0010
1000
0000
0100
0000
0020
0000
0000
0000
0031
0000
0000
0000
,  // measure 34
0001
0000
0100
0001
0100
0000
0010
0000
1000
0000
1000
0000
1001
0000
1001
0000
,  // measure 35
0001
0000
0010
0100
1000
0000
0001
0000
0100
0000
0100
0000
0001
0000
1000
0000
,  // measure 36
0100
0000
0000
1000
0100
0000
0010
0000
0001
0000
1000
0000
0001
0000
0100
0000
,  // measure 37
0010
0000
0000
1000
0010
0000
2000
0000
0000
0000
3002
0000
0000
0000
0013
0100
,  // measure 38
1000
1000
0001
2000
0000
3020
0000
0130
,  // measure 39
0001
0010
0100
1100
,  // measure 40
1001
0000
0001
0010
0100
0010
0001
0010
,  // measure 41
0100
0000
0010
0000
0001
0000
0010
0000
0100
1000
0100
1000
0001
1000
0001
1000
,  // measure 42
0001
0100
0010
0100
0001
0100
0010
0100
,  // measure 43
0001
0000
0100
0000
0010
0000
0100
0000
0001
0100
0001
0100
0010
0100
0010
0100
,  // measure 44
0010
1000
0100
1000
0010
1000
0100
1000
,  // measure 45
0010
1000
0010
1000
0001
1000
0001
1000
0001
0010
0100
1000
0010
0100
0001
1000
,  // measure 46
0020
0000
0130
0100
0001
0001
1000
1000
,  // measure 47
0001
0000
0001
0000
0010
0000
0010
0000
0100
0010
0100
0010
0001
1000
0001
1000
,  // measure 48
0001
0100
0010
0100
1000
0100
0010
0100
,  // measure 49
0001
0000
0100
0000
0010
0000
1000
0000
0001
0000
1000
0001
1000
0000
0000
0000
,  // measure 50
0001
0010
0100
0010
1000
0010
0100
0010
,  // measure 51
0001
0000
0010
0000
0100
0000
1000
0000
0001
0000
1000
0001
1000
0000
0000
0000
,  // measure 52
0001
0000
0000
0001
0100
0000
0010
0000
1000
0000
0000
1000
0100
0000
0010
0000
,  // measure 53
0001
0000
0000
0001
0100
0000
0010
0000
1000
0000
0001
1000
0001
1000
0001
1000
,  // measure 54
0002
0000
0003
1000
0002
0000
0003
1000
,  // measure 55
0001
1000
0001
1000
0100
1000
0100
1000
,  // measure 56
0100
0100
0010
0010
0001
0001
1000
1000
,  // measure 57
0010
0100
0010
0100
0010
0100
0010
0100
0010
0100
0010
0100
0010
0100
0010
0100
,  // measure 58
0001
0000
1001
0000
1000
0100
0001
0100
,  // measure 59
1000
0000
1001
0000
0001
0100
1000
0100
,  // measure 60
0010
1010
1000
1001
,  // measure 61
0012
0000
0100
0000
1000
1000
1003
0000
,  // measure 62
1000
0000
1001
0000
0001
0010
1000
0010
,  // measure 63
0001
0000
1001
0000
0001
0100
1000
0100
,  // measure 64
0001
0101
0100
0110
,  // measure 65
2010
3001
0021
0130
,  // measure 66
1000
0000
0001
0100
0010
0000
1000
0000
0100
0000
0000
0000
0100
0000
0000
0000
,  // measure 67
0100
0000
1000
0001
0100
0000
0010
0000
0100
0000
0100
0000
0110
0000
0110
0000
,  // measure 68
0010
0000
0100
0001
1000
0000
0100
0000
0010
0000
0010
0000
0001
0000
1000
0000
,  // measure 69
0010
0000
0000
0100
0001
0000
0020
0000
0000
0000
0000
0000
0000
0000
0130
0000
,  // measure 70
0100
1000
1000
0001
0001
1001
1001
0001
,  // measure 71
1000
0000
0000
0000
1010
0000
0001
0000
0000
0000
0011
0000
0000
0000
0010
0100
,  // measure 72
1000
0000
1000
0000
1100
0000
0100
0000
0000
0000
1100
0000
0000
0000
1000
0001
,  // measure 73
0100
0100
0101
0001
0000
0101
0000
0000
,  // measure 74
0100
0000
0000
0100
0010
0000
1000
0000
0001
0000
0000
0000
1001
0000
0000
0000
,  // measure 75
0011
0000
0000
0010
0100
0000
1000
0000
0001
0000
0000
0000
1001
0000
0000
0000
,  // measure 76
1010
0000
0000
0010
0100
0000
0001
0000
1000
0000
0000
0000
1001
0000
0000
0000
,  // measure 77
0100
0110
0110
0000
;

//---------------dance-single - ----------------
#NOTEDATA:;
#CHARTNAME:;
#STEPSTYPE:dance-single;
#DESCRIPTION:;
#CHARTSTYLE:;
#DIFFICULTY:Medium;
#METER:7;
#RADARVALUES:0.466103,0.521679,0.285092,0.562265,0.000000,412.000000,376.000000,36.000000,71.000000,0.000000,0.000000,0.000000,0.000000,0.000000,0.466103,0.521679,0.285092,0.562265,0.000000,412.000000,376.000000,36.000000,71.000000,0.000000,0.000000,0.000000,0.000000,0.000000;
#CREDIT:;
#NOTES:
0000
0000
0000
0000
,
0000
0000
0000
0000
,
1000
1000
0001
0001
,
1000
1000
0001
0001
,
1000
0001
1000
0001
,
1000
0001
1000
0001
1000
0001
1000
0001
,
1000
0010
0010
0100
0100
0010
0100
0001
,
1000
0100
0100
0010
0010
0100
0010
0000
,
0002
0000
0013
0100
1000
0000
1100
0000
,
1000
0010
0100
0010
1000
0000
1010
0000
,
0020
0130
0200
0301
,
0002
0000
2003
0000
3001
1000
0001
0000
,
2000
0000
3100
0010
0001
0000
0011
0000
,
0001
0010
0100
0010
0001
0000
0011
0000
,
2000
3100
0002
0103
,
2002
3003
0220
0330
,
1000
0000
0010
0000
0100
0100
0200
0000
,
0301
0000
0010
0000
0100
0100
0200
0000
,
0310
0000
0100
0000
1000
0001
1000
0000
,
1010
0011
2002
3003
,
0000
0001
0010
0100
1000
1000
2000
0000
,
3000
1000
0010
0100
0001
0001
0002
0000
,
2003
0000
3010
0200
0000
0301
2000
0000
,
3200
0000
0300
0010
0000
0010
0000
0100
,
0020
0000
0031
0010
1000
0010
0001
0010
,
0200
0000
1300
0001
0100
0000
0110
0000
,
1000
0010
0100
0010
1000
0000
1010
0000
,
0020
0130
2000
3001
,
0002
0000
0023
0000
0130
1000
0001
0000
,
0200
0000
0310
1000
0001
0000
1001
0000
,
1000
0001
0010
0001
1000
0000
1001
0000
,
0002
0013
0020
0130
,
2200
3300
0202
0303
,
0100
0010
1000
0000
0001
0000
0001
0000
,
1000
0100
0010
0000
0001
0001
1000
1000
,
0001
0010
0100
0000
1000
0001
1000
0000
,
0001
0000
0100
0100
0010
1000
0001
0010
,
0100
0000
1000
0100
0000
1100
0000
1000
,
0001
0000
1001
0001
0000
0101
0000
0000
,
0100
0010
1000
0001
,
1001
1000
0010
0001
,
0010
0000
1000
0000
0001
0001
1000
1000
,
0001
1000
0100
0001
,
0100
0000
1000
0000
0001
0001
1000
1000
,
0001
0010
1000
0010
,
0001
0001
0100
0100
1000
1000
0100
0100
,
0001
0100
0010
1000
,
0001
0000
0010
0000
0100
1000
0001
1000
,
0020
0230
0302
2003
,
3200
0000
0302
0000
0103
1000
0001
0000
,
0020
0032
0203
0302
,
2003
0000
3020
0000
0031
0010
1000
0000
,
0001
0000
0100
0010
0100
0000
0010
1000
,
0010
0000
1000
0001
1000
0100
0010
0001
,
2000
0000
3000
0002
2000
0000
3003
0001
,
1000
1000
0001
0001
,
1000
0001
1000
0001
,
1000
0001
1000
0001
1000
0001
1000
0001
,
1000
1010
0220
0330
,
0001
0100
0010
0100
0001
0000
1000
0000
,
2010
3001
1002
0013
,
0021
1000
0100
0130
,
0011
0110
2200
3300
,
1000
0100
0010
0100
1000
0000
0001
0000
,
0012
1003
2001
3010
,
0220
0330
2002
3003
,
0001
0100
0010
0000
1000
0000
1000
0000
,
0100
0010
0001
0000
1000
0001
1000
0000
,
0001
0010
0100
0000
1000
0001
1000
0000
,
0010
0000
0100
0002
0000
0000
0000
0000
,
2003
3020
0230
0302
,
1003
0000
0100
1000
0000
1100
0000
0001
,
0100
0100
0001
0100
0000
0101
0000
0010
,
1000
1000
0010
1000
0000
1010
0000
0000
,
0002
0000
0013
0100
1000
0000
1000
0000
,
0002
0000
0103
0010
1000
0000
1000
0000
,
0002
0000
1003
0100
0010
0000
0010
0000
,
0001
1001
1001
0000
;

//---------------dance-single - ----------------
#NOTEDATA:;
#CHARTNAME:;
#STEPSTYPE:dance-single;
#DESCRIPTION:;
#CHARTSTYLE:;
#DIFFICULTY:Easy;
#METER:5;
#RADARVALUES:0.299799,0.306870,0.023758,0.150465,0.000000,265.000000,262.000000,3.000000,19.000000,0.000000,0.000000,0.000000,0.000000,0.000000,0.299799,0.306870,0.023758,0.150465,0.000000,265.000000,262.000000,3.000000,19.000000,0.000000,0.000000,0.000000,0.000000,0.000000;
#CREDIT:;
#NOTES:
0000
0000
0000
0000
,
0000
0000
0000
0000
,
0001
0001
0001
0001
,
1000
1000
1000
1000
,
0001
0001
1000
1000
,
0001
1000
0001
1000
,
0001
0010
0100
0100
,
1000
0010
0100
0100
,
0001
0100
0001
0000
,
1000
1000
1000
0000
,
0001
0010
0010
0100
,
0100
1000
0001
0001
,
1000
0100
1000
0000
,
0001
0001
0001
0000
,
1000
0010
0010
0100
,
0002
0003
2000
3000
,
0001
0010
0010
0010
,
0000
0100
0100
0100
,
0000
1000
1000
1000
,
0001
1000
0001
0000
,
1000
0001
0010
0010
,
0001
1000
0010
0010
,
0100
0000
0000
0001
0000
0000
1000
0000
,
1000
0000
0000
0100
0000
0100
0000
0000
,
0010
0001
1000
0001
,
1000
0010
1000
0000
,
0010
0010
0010
0000
,
0100
0001
0001
1000
,
0001
0010
0010
0010
,
0001
0010
0001
0000
,
1000
1000
1000
0000
,
0100
1000
1000
0001
,
0200
0300
0020
0030
,
1000
0010
0001
0001
,
0010
1000
0001
0001
,
1000
0100
0001
0001
,
0100
1000
0001
0000
,
0100
0100
0100
0000
,
0010
0010
0010
0000
,
1000
0010
0100
0001
,
1000
0001
0010
0100
,
1000
0001
0010
0010
,
0001
0100
0010
1000
,
0001
0100
0010
0010
,
1000
0010
0100
0100
,
0001
0010
0100
0100
,
1000
0010
0010
0010
,
0010
0010
0100
0001
,
2000
3000
2000
3000
,
1000
1000
0100
1000
,
0200
0300
0200
0300
,
0100
0100
0010
0100
,
0020
0030
0002
0003
,
2000
3000
0002
2003
,
3002
0003
2000
3000
,
0010
0010
0100
0100
,
0001
0100
0010
1000
,
0001
0010
0100
1000
,
0001
0010
0010
0000
,
0001
1000
0010
0010
,
0100
0001
1000
0001
,
0010
0010
0100
0100
,
1000
0100
0100
1000
,
0001
0100
0100
0001
,
0100
0010
0010
1000
,
2020
3030
0022
0033
,
0001
0010
0100
0000
,
0010
0100
1000
0000
,
0010
0100
0001
0000
,
1000
0000
0000
1000
0000
0000
0000
0000
,
0001
0001
1000
1000
,
0001
0000
0000
0001
0000
0000
0001
0000
,
0010
0000
0000
0010
0000
0000
0010
0000
,
0100
0000
0000
0100
0000
0000
0100
0000
,
1000
1000
1000
1000
,
0001
0001
0001
0001
,
0100
0010
0100
0010
,
0000
1000
1001
0000
;
