#TITLE:+♂;
#SUBTITLE:;
#ARTIST:ギガP feat. れをる;
#TITLETRANSLIT:Plus Danshi;
#SUBTITLETRANSLIT:;
#ARTISTTRANSLIT:GigaP feat. Reol;
#GENRE:;
#CREDIT:;
#BANNER:[Round 4] - Plus Danshi.jpg;
#BACKGROUND:[Round 4] - Plus Danshi-bg.jpg;
#LYRICSPATH:[Round 4] - Plus Danshi.lrc;
#CDTITLE:;
#MUSIC:[Round 4] - Plus Danshi.ogg;
#OFFSET:-0.737169;
#SAMPLESTART:57.387875;
#SAMPLELENGTH:10.665897;
#SELECTABLE:YES;
#BPMS:0.000000=90.007004
,15.000000=45.002998
,17.000000=180.013000
,117.000000=90.007004
,132.000000=180.013000
;
#STOPS:
;
#BGCHANGES:7.500=[Round 4] - Plus Danshi.avi=1.000=1=0=0=StretchNoLoop==CrossFade==,
99999=-nosongbg-=1.000=0=0=0 // don't automatically add -songbackground-
;
#KEYSOUNDS:;
#ATTACKS:;

//---------------dance-single - ----------------
#NOTES:
     dance-single:
     :
     Hard:
     10:
     0.733047,0.902193,0.351166,0.315333,0.186333,716.000000,667.000000,49.000000,44.000000,0.000000,0.000000,0.733047,0.902193,0.351166,0.315333,0.186333,716.000000,667.000000,49.000000,44.000000,0.000000,0.000000:
// measure 0
0000
0000
0000
0000
,  // measure 1
0000
0000
0000
0000
,  // measure 2
2000
3200
0320
0032
,  // measure 3
2003
3020
0230
0302
,  // measure 4
0000
0000
1003
0000
1001
0000
0001
1000
,  // measure 5
1001
0000
0000
0000
0002
0000
0000
0000
1003
0000
0010
0100
0001
0000
0001
0000
,  // measure 6
0000
0000
0101
0000
0000
0000
0001
0010
0100
0000
0100
0000
1000
0000
0100
0000
,  // measure 7
0001
0000
0100
0000
0020
0000
0000
0000
0031
1000
0001
1000
0001
0000
0002
0000
,  // measure 8
0000
0000
1003
0001
1000
0000
0010
0000
0001
0000
0010
0000
0100
0010
0100
0010
,  // measure 9
0100
0000
0010
0000
2000
0000
0000
0000
3010
0000
1000
0001
0010
0000
0001
0000
,  // measure 10
0000
0000
0011
0000
0000
0000
0010
0100
1000
0000
1000
0000
0001
0000
0100
0000
,  // measure 11
1000
0100
0020
0000
2030
0000
3001
0010
,  // measure 12
0100
0010
0100
0010
0100
0000
0100
0000
1000
0000
1000
0000
0001
0000
0010
0000
,  // measure 13
0010
0000
0010
0000
0010
0000
0001
1000
0001
0000
1000
0000
0001
0000
0100
0000
,  // measure 14
0010
1000
0001
0010
0100
1000
0001
0000
,  // measure 15
1001
0000
0001
0010
0001
0001
1000
0010
,  // measure 16
1000
1000
0010
0100
0001
0100
0010
1000
,  // measure 17
0002
0000
0013
0100
1000
0001
0100
0100
,  // measure 18
0001
0000
0001
0000
1000
0001
1000
0000
0100
1000
0100
0000
1000
0001
1000
0000
,  // measure 19
0001
0100
0001
0000
1000
0000
0010
0000
1000
0000
1000
0000
0001
0000
0010
0000
,  // measure 20
0001
0000
0001
0000
0010
0001
0010
0000
0001
1000
0001
0000
1000
0010
1000
0000
,  // measure 21
0001
1000
0001
0000
1000
0000
0100
0000
0001
0000
0100
0000
1000
0000
0001
0000
,  // measure 22
0010
0010
0001
0100
1000
0100
0001
1000
,  // measure 23
0010
0010
1000
0010
0100
0001
0100
0010
,  // measure 24
1000
0001
0010
0100
2000
0000
3100
0010
,  // measure 25
0002
0000
0000
0000
1003
0000
0010
0000
0100
0000
0001
0100
0000
0001
1000
0000
,  // measure 26
0100
0000
0010
0000
0001
0000
1000
0001
1000
0000
0010
0000
0001
0000
0010
0000
,  // measure 27
1000
0000
0001
0000
0010
0100
1000
0001
0100
0000
0001
0100
0010
0000
0100
0010
,  // measure 28
1000
0001
1000
1001
,  // measure 29
1001
0000
0000
0000
0000
0000
1001
0000
0000
1000
0000
0000
0010
0000
0100
0001
0000
1000
0001
0000
0000
0010
0000
0000
,  // measure 30
0100
0000
1000
0100
0000
1000
0001
0000
0000
0100
0000
0000
0010
0000
0100
0010
0000
1000
0001
0010
0100
1000
0000
0001
,  // measure 31
0000
0000
1000
0000
0000
1000
0001
0000
0000
0100
0000
0000
0010
0000
0100
0010
0000
0100
0001
0000
0000
0010
0000
0000
,  // measure 32
0100
0000
1000
0100
0000
0010
0001
0000
0000
0100
0000
0000
0010
0000
0000
1000
0000
0000
2002
0000
0000
0000
0000
0000
,  // measure 33
3003
0001
0001
0001
1000
0000
1010
1000
,  // measure 34
0001
0000
0000
0000
0011
0000
0001
0000
1000
0000
0000
1000
0100
0000
0010
0000
,  // measure 35
0001
0000
0100
0000
0001
0000
1000
0000
0001
0000
0010
0000
1000
0000
0010
0001
,  // measure 36
1000
0010
0100
0200
0000
0301
0100
0010
,  // measure 37
1000
0001
0010
0100
1000
0100
0001
0100
,  // measure 38
1000
0100
0001
0100
1000
0001
0000
1001
,  // measure 39
0000
1000
0010
0100
0101
0001
1000
1001
,  // measure 40
1000
0100
1100
0100
0010
0110
0010
0001
,  // measure 41
1000
0000
1001
0000
0001
0010
0100
0010
,  // measure 42
1000
0010
0001
0001
1000
0010
0100
0010
,  // measure 43
0001
0010
1000
1000
0001
0100
0010
0100
,  // measure 44
1000
0100
0001
0001
0100
0001
1000
0001
,  // measure 45
0010
0010
0020
0000
0130
0000
0110
0100
,  // measure 46
1000
0000
1100
1000
0001
0000
1001
1000
,  // measure 47
0010
0100
0100
0100
0001
0100
0001
1000
,  // measure 48
0100
0010
0001
2000
0000
3010
0100
0001
,  // measure 49
1000
0100
0010
0001
1000
0000
1010
1000
,  // measure 50
0001
0000
1001
0001
0010
0000
0011
0001
,  // measure 51
1000
0100
0001
0100
1000
0000
1100
1000
,  // measure 52
0001
0000
1001
0001
0100
0100
0010
0010
,  // measure 53
1000
0010
0200
0000
0301
0000
0101
0001
,  // measure 54
1000
0000
1001
1000
0100
0000
1100
1000
,  // measure 55
0001
0010
1000
0010
0001
0000
0011
0001
,  // measure 56
1000
0000
1001
1000
0001
0001
0100
0100
,  // measure 57
0020
1030
0020
0230
,  // measure 58
0302
2003
0000
0000
,  // measure 59
0000
0000
0001
0001
3001
0000
0011
0001
,  // measure 60
1000
0000
0000
0000
1010
0000
1000
0000
0001
0000
0000
0001
0100
0000
0010
0000
,  // measure 61
1000
0000
0100
0000
1000
0000
0001
0000
1000
0000
0010
0000
0001
0000
0010
0100
,  // measure 62
0001
0010
0100
0200
0000
1300
0100
0010
,  // measure 63
0001
1000
0010
0100
0001
0100
1000
0100
,  // measure 64
0001
0100
1000
0100
0001
1000
0000
1001
,  // measure 65
0000
0001
0010
0100
0110
0100
1000
1100
,  // measure 66
1000
0001
1001
0001
0100
0110
0100
0010
,  // measure 67
1000
0000
1001
0000
0001
0100
0010
0100
,  // measure 68
1000
0100
0001
0001
1000
0100
0010
0100
,  // measure 69
0001
0100
1000
1000
0001
0010
0100
0010
,  // measure 70
1000
0010
0001
0001
0010
0100
1000
0001
,  // measure 71
0100
0100
0200
0000
0301
0000
0101
0001
,  // measure 72
1000
0000
1001
1000
0100
0000
1100
1000
,  // measure 73
0100
0010
0001
1000
0001
0100
0010
0100
,  // measure 74
1000
0100
0001
0002
0000
1003
0001
0010
,  // measure 75
1000
0010
0001
0010
0100
0000
0110
0000
,  // measure 76
0100
1000
1001
0000
0101
0000
0100
0010
,  // measure 77
1000
0001
0001
0001
0101
0000
1100
0000
,  // measure 78
1000
0001
0100
0000
0010
0100
0010
1000
,  // measure 79
0001
0010
0100
1000
0001
0000
0011
0000
,  // measure 80
0001
1000
0010
0000
0100
0001
0100
0010
,  // measure 81
1000
0001
0010
0100
1000
0000
1001
0000
,  // measure 82
1000
0100
0010
0000
0100
0010
0001
1000
,  // measure 83
0001
0100
0010
1000
0001
0000
0101
0000
,  // measure 84
0100
0001
0010
0000
0100
1000
0100
0010
,  // measure 85
0100
0001
0100
0010
0200
0000
1300
0100
,  // measure 86
0010
0000
0001
0000
1000
0000
0020
0000
0000
0000
0130
0010
0100
0000
0001
0000
,  // measure 87
0100
0001
1000
0100
0020
0000
0031
0001
,  // measure 88
1000
0000
0002
0000
0000
0000
0103
0010
1000
0000
0010
0000
1000
0000
0001
0000
,  // measure 89
0010
0100
0010
0100
0010
0000
0100
0000
2000
0000
0000
0000
3001
0000
0010
0100
,  // measure 90
1000
0000
0002
0000
0000
0000
0203
0000
0000
0000
0310
1000
0001
0000
0010
0000
,  // measure 91
1000
0010
0001
0100
0020
0000
2030
0000
,  // measure 92
3002
0000
0023
0000
0130
0100
1000
2000
,  // measure 93
0002
3003
0000
0000
;

//---------------dance-single - ----------------
#NOTES:
     dance-single:
     :
     Medium:
     8:
     0.533404,0.668291,0.372666,0.093167,0.021500,521.000000,469.000000,52.000000,13.000000,0.000000,0.000000,0.533404,0.668291,0.372666,0.093167,0.021500,521.000000,469.000000,52.000000,13.000000,0.000000,0.000000:
0000
0000
0000
0000
,
0000
0000
0000
0000
,
0001
0001
0010
0010
,
0100
1000
0010
0100
,
0000
0000
0010
0000
0100
0000
0001
1000
,
0001
0000
1000
0000
0010
0000
0100
0001
,
0000
1001
0000
0001
1000
1000
0001
0010
,
0001
1000
0100
0000
0010
0000
0001
0010
,
0000
0001
1000
0000
0010
0000
0100
0001
,
0100
0010
1000
0000
0001
0000
0010
0100
,
0000
0110
0000
0010
0100
0100
1000
0010
,
0100
0001
1000
0000
0010
0000
0001
0000
,
0010
0000
1000
0010
0100
0001
0010
0100
,
0010
0100
1000
0000
0100
0000
1000
0001
,
1000
0000
0010
0100
0001
0000
1000
0000
,
1001
0000
0001
0100
0001
0000
1000
0010
,
1000
0000
0001
0001
0010
0010
0100
0100
,
1000
0000
0001
0000
0010
0000
0100
1000
,
0001
0000
0100
0010
0100
0010
1000
0001
,
1000
0001
0010
0000
0100
0000
1000
0001
,
0100
0000
0010
0100
0010
0100
0001
1000
,
0001
1000
0001
0000
0010
0000
1000
0010
,
0001
0000
1000
0000
0010
0000
0001
0010
,
1000
0000
0001
0000
0100
0000
0010
1000
,
0001
0011
1100
1010
,
0101
0001
0100
0010
,
0010
0000
0100
0010
1000
0000
0010
1000
,
0001
0000
1000
0000
0100
0000
0010
0100
,
0010
0001
0001
1000
,
1000
0000
1001
0000
0001
0010
0100
1000
,
1000
0000
0000
0000
0000
0000
0001
0000
0000
0000
0000
1000
0001
0000
0000
0100
0000
0000
0010
1000
0001
0010
0000
0100
,
0000
0000
1000
0000
0000
1000
0001
0000
0000
0010
0000
0000
0100
0000
0000
0100
0000
0000
1000
0000
0000
0010
0000
0000
,
0100
0100
0001
0100
0010
1000
0002
0000
,
0003
0000
0000
0000
0001
0000
0010
0001
,
1000
0000
0010
1000
0001
0000
0100
0001
,
1000
0100
0001
0100
,
1000
0000
0100
0010
0000
0001
1000
0000
,
0001
0100
0010
0000
1010
0000
0011
0000
,
1010
0000
0011
0000
0001
1000
0000
1001
,
0000
0001
1000
0000
0001
0100
0001
1000
,
0010
1000
0001
0010
0001
1000
0100
1000
,
0001
1001
1000
0010
,
0001
0000
0010
1000
0001
0000
0010
0000
,
1000
0000
0010
0001
1000
0000
0100
0000
,
0001
0000
0100
1000
0001
0010
0100
1000
,
0100
0010
0001
0000
1000
0000
0010
0100
,
0010
0000
0100
0001
0100
0000
0001
1000
,
0001
1001
0001
0010
,
1000
0000
0010
0001
0000
0001
1000
0000
,
0010
0100
0001
0000
1020
0000
0130
0000
,
0210
0301
0101
1001
,
1100
0010
0021
0031
,
1002
1003
1010
0101
,
0011
1100
0012
1003
,
2001
3010
1010
0110
,
0101
1000
1200
0310
,
0201
0310
0110
1010
,
2002
3003
0001
0010
,
0100
1000
0000
0000
,
0000
0000
0000
0000
0001
0000
0100
0001
,
1000
0000
0100
1000
0001
0000
0010
0001
,
1000
0010
0001
0010
,
1000
0000
0001
1000
0000
1000
0001
0000
,
0010
0100
1000
0000
1100
0000
0101
0000
,
1100
0000
0101
0000
0001
0010
0000
0011
,
0000
0001
0010
0000
0100
1000
0100
0010
,
0001
0010
0001
0100
0001
1000
0010
1000
,
0001
1001
1000
0100
,
0001
0000
0100
1000
0001
0000
0100
0000
,
1000
0000
0100
0001
1000
0000
0010
0000
,
0001
0000
0010
1000
0001
0100
0010
1000
,
0010
0100
0001
0000
1000
0000
0100
0010
,
0001
0000
0010
0001
1000
0000
0001
1000
,
0010
1000
1010
0110
,
0101
0000
0001
1000
0000
1000
0001
0000
,
0010
0100
1000
0000
0100
0000
0010
0000
,
0001
0010
0001
0000
1000
0000
0010
0000
,
0100
0010
0100
0010
0100
0000
0100
0000
,
0001
0001
1000
0100
,
0010
0001
1000
0000
0001
0000
0001
0000
,
0100
0100
0001
1000
,
0010
1000
0001
0000
1000
0000
1000
0000
,
0100
0100
1000
0001
,
0100
0010
1000
0000
0001
0000
0001
0000
,
0100
0100
0110
1010
,
1001
0011
0001
0010
,
0001
1000
0000
1001
0000
1000
0001
0000
,
1000
0010
0100
0000
0001
0000
0100
0000
,
0010
1000
0000
0001
1000
0000
0001
0000
,
0010
0100
0010
0000
0100
0000
1000
0000
,
0001
1000
0000
1001
0000
0001
0100
0000
,
0001
0100
0010
0000
0100
0000
0100
0000
,
0010
0010
1000
0001
,
2002
3003
0000
0000
;

//---------------dance-single - ----------------
#NOTES:
     dance-single:
     :
     Easy:
     5:
     0.359357,0.434389,0.064500,0.028667,0.000000,351.000000,342.000000,9.000000,4.000000,0.000000,0.000000,0.359357,0.434389,0.064500,0.028667,0.000000,351.000000,342.000000,9.000000,4.000000,0.000000,0.000000:
0000
0000
0000
0000
,
0000
0000
0000
0000
,
1000
1000
0010
0010
,
0100
0001
1000
0100
,
0000
0010
0001
1000
,
0001
0100
0010
1000
,
0000
0010
0010
1000
,
1000
0001
0010
0100
,
0000
0010
0100
1000
,
0001
0100
0100
0010
,
0000
0100
0010
1000
,
1000
0001
0010
0100
,
1000
0001
0001
0001
,
0000
0100
0001
1000
,
0001
0010
0100
0110
,
0110
0100
1000
0001
,
0100
0010
0010
0010
,
0010
1000
0010
1000
,
0001
0010
0010
0100
,
0100
1000
0100
1000
,
0001
0100
0100
0010
,
0010
1000
0010
1000
,
1000
0001
0010
0001
,
0001
1000
0100
0010
,
0001
0100
0101
0010
,
1010
0001
0010
0100
,
0100
1000
0100
0001
,
0100
1000
0010
0100
,
0100
0001
0100
1000
,
0100
0000
0002
0000
0103
0100
0010
0010
,
1000
0000
0020
0000
1030
1000
0001
0000
,
1000
0001
1000
0000
0001
0000
0010
0010
,
0010
0000
0100
0100
0100
0000
2000
0000
,
3000
0000
0001
0001
,
0010
0010
0001
0001
,
1000
1000
0001
0100
,
1000
1000
0100
0001
,
1000
1000
0100
0100
,
0100
0100
0010
0000
,
0010
0000
0001
0010
,
0001
1000
0001
0100
,
0110
0110
0100
0010
,
0100
0010
1000
0001
,
1000
0001
0010
0100
,
0010
0100
0010
0010
,
0010
0010
0001
1000
,
1000
0010
0010
0100
,
0100
0100
0010
0100
,
0001
0001
0100
0010
,
1000
1000
0001
0000
,
0001
0000
0001
0001
,
0001
0000
1000
0000
,
1000
0000
1000
1000
,
1000
1000
0100
0000
,
0100
0000
0100
0100
,
0100
0100
0010
0000
,
0010
0000
0010
0010
,
0010
0000
0001
1000
,
0001
1000
0000
0000
,
0000
0000
1000
1000
,
0010
0010
0100
0100
,
0001
0001
1000
0100
,
0001
0001
0100
1000
,
0001
0001
0100
0100
,
0100
0100
0010
0000
,
0010
0000
1000
0010
,
1000
0001
1000
0100
,
0110
0110
0010
0100
,
0010
0100
1000
0001
,
1000
0001
0100
0010
,
0100
0010
0100
0100
,
0100
0100
0001
0010
,
0010
0100
0100
1000
,
1000
1000
0001
0100
,
0010
0010
1000
0100
,
0010
0010
0100
0010
,
0001
0001
1000
0001
,
1001
0000
1000
1000
,
0010
0010
1000
0010
,
1000
1000
0001
0001
,
0010
0010
0001
0010
,
0001
0001
1000
1000
,
0100
0100
1000
0100
,
1000
1000
0001
0001
,
0100
0100
0001
0100
,
0010
1000
0001
0100
,
1000
0000
1000
0100
,
0001
0001
1000
0100
,
0001
0000
0001
0100
,
1000
1000
0001
0010
,
1000
0000
1000
0010
,
0001
1000
0010
0010
,
0100
0100
0001
1000
,
0200
0300
0000
0000
;
