#TITLE:Your Adventure Log Has Vanished!;
#SUBTITLE:;
#ARTIST:Jesus-P feat. Kagamine Rin & Len;
#TITLETRANSLIT:;
#SUBTITLETRANSLIT:;
#ARTISTTRANSLIT:;
#GENRE:;
#CREDIT:Loodee;
#BANNER:;
#BACKGROUND:;
#LYRICSPATH:;
#CDTITLE:loodeecdtitleSmall.png;
#MUSIC:Your Adventure Log Has Vanished!.ogg;
#OFFSET:-0.017;
#SAMPLESTART:66.505;
#SAMPLELENGTH:22.000;
#SELECTABLE:YES;
#DISPLAYBPM:176.000;
#BPMS:0.000=176.000,324.000=88.000;
#STOPS:;
#BGCHANGES:;
#KEYSOUNDS:;

//---------------dance-single - HOLIT----------------
#NOTES:
     dance-single:
     HOLIT:
     Challenge:
     10:
     0.831,0.858,0.300,0.639,0.332:
0000
0000
0000
0000
,
0000
0000
0000
0000
,
0000
0000
0000
0000
,
0101
0000
0001
1000
0000
1000
0001
0000
0000
0000
0100
0000
0001
0000
1000
0000
,
1100
0000
0100
0010
0000
0010
0001
0000
0000
0000
0000
0000
2002
0000
0000
3003
,
1100
0000
0100
0010
0001
0000
0100
0000
2000
0000
0000
0000
3100
0000
0001
0000
,
1000
0100
1000
0100
0002
0000
0103
1000
,
0010
0100
0001
0010
0100
0000
1100
0000
,
0011
0000
0001
0100
1000
0100
0001
0000
,
1000
0000
0100
0010
0001
0000
0010
0000
2000
0000
0000
0000
3010
0000
0100
0000
,
1000
0010
0100
0010
0002
0000
0013
1000
,
0001
0010
0001
0100
0010
0000
0110
0000
,
1000
0100
0010
0100
1000
0010
0100
0001
1000
0001
0010
0100
1000
0001
0100
0001
,
1000
0000
0010
0000
1010
0000
0000
1000
0001
0000
0010
0000
0001
0000
1000
0000
,
0010
0100
0010
0000
1000
0000
0001
0000
0000
0100
0001
0000
1000
0000
0100
0000
,
0010
0000
0100
0000
1100
0000
0000
1000
0001
0000
0100
0000
0010
0000
0100
0001
,
1000
0000
0100
0010
0001
0000
0200
0000
0320
0000
2030
0000
3002
0000
0103
0000
,
0010
0000
1000
0000
1001
0000
0000
0001
0010
0000
0100
0000
1000
0000
0001
0100
,
0010
0000
1000
0000
0001
0000
1000
0100
1000
0000
0020
0000
0230
0000
0301
0000
,
1000
0000
1000
0000
2200
0000
0000
3300
0001
0000
0001
0000
0202
0000
0000
0303
,
1000
0000
0100
0000
0110
0000
0010
0001
1000
0000
0010
0000
1000
0000
0010
0100
,
0001
0000
1000
0100
1000
0000
0001
0000
0100
0000
0001
0000
0010
0000
0100
0000
,
0001
0100
1000
0010
0200
0000
2300
0000
,
3100
0010
0100
0001
0010
0100
1000
0100
,
0001
0000
0100
0000
1000
0000
0010
0100
2000
0000
0000
0000
3200
0000
0000
0000
,
0301
0000
0010
0100
1000
0000
0001
0000
0100
0000
0010
0000
1000
0000
0100
0000
,
0002
0000
0000
0000
0103
0000
0000
0010
0002
0000
0000
0000
2003
0000
0000
0000
,
3010
0000
0010
0000
2002
0000
0000
3003
0010
0000
0010
0000
2002
0000
0000
3003
,
1000
0000
0010
0000
1000
0000
0001
0010
0100
0000
1000
0000
0100
0000
0010
0001
,
1000
0000
0010
0100
0010
0000
1000
0000
0001
0000
0010
0000
0100
0000
0010
0000
,
1000
0010
0100
1000
0010
0100
2000
0000
,
3100
0000
0001
0000
0100
0000
0010
1000
0100
0000
0010
0000
0001
0000
0010
0000
,
2000
0000
0000
0000
3010
0000
0100
1000
0001
0000
0100
0000
0010
0000
1000
0000
,
0001
0000
1000
0001
0010
0000
0100
0000
0001
0000
0100
0000
1000
0000
0001
0000
,
0200
0000
0000
0000
2300
0000
0000
3100
0010
0000
1000
0000
0002
0000
0000
0000
,
1003
0000
0100
0000
0022
0000
0000
0033
0001
0000
0100
0000
2020
0000
0000
3030
,
1000
0000
0001
0000
0010
0000
0001
0010
0100
0000
2000
0000
0000
0000
0000
3000
,
1100
0000
0100
1000
0001
0000
0100
0000
0010
0000
1000
0000
0001
0000
0010
0000
,
1000
0010
0100
1000
0010
0100
0001
0100
,
1000
0100
0010
0001
0010
1000
0001
0010
,
0200
0000
0302
0000
0103
1000
0001
0100
,
2000
0000
0000
3000
1000
0000
0100
0000
0002
0000
0000
0000
0023
0000
0000
0000
,
0031
0100
1000
0100
0010
0100
0001
1000
,
0200
0000
0000
0300
0100
0000
1000
0000
0020
0000
0000
0000
0130
0000
0001
0000
,
0010
0100
0010
0001
0100
0010
1000
0100
,
0010
0000
1001
0001
0000
1000
1020
0000
,
0030
0010
0100
0001
0010
0010
0100
0000
,
1000
0000
0101
0001
0000
1000
1200
0000
,
0310
0000
0001
1000
0010
0100
0010
1000
0001
0000
0000
0000
0200
0000
0000
0300
,
1001
0001
0010
0100
1000
0010
0100
2000
,
0000
0000
3100
0000
0001
0000
1000
0100
0000
0100
0010
0000
0001
0000
0000
0000
,
1000
0010
2010
0000
3001
0010
0012
0000
,
0103
0000
0010
0000
1000
0000
0001
0010
0000
0010
0100
0000
1000
0000
0010
0000
,
0200
0000
0001
0000
0310
0010
1000
0000
,
0011
0000
0110
0000
1100
0000
1000
0001
,
0100
0010
0100
0002
0000
2003
0000
3001
,
0010
0000
0100
1000
0010
0000
0100
0001
0010
0100
1000
0001
0100
0010
1000
0001
,
1000
0100
0010
0001
1000
0001
0100
2000
,
0000
0000
3100
0000
0010
0000
1000
0001
0000
0001
1000
0000
0100
0000
0010
0000
,
0001
1000
1020
0000
0130
0001
2001
0000
,
3100
0100
0010
0000
0001
0001
1000
0010
,
0200
0000
0000
0000
2300
0000
0000
3100
0001
0000
1000
0000
0100
0000
0000
0000
,
0020
0000
0000
0000
2030
0000
0000
3010
0001
0000
1000
0000
0001
0000
0000
0000
,
0011
0000
0010
0100
0000
0100
1000
0000
0000
0000
1000
0000
0010
0000
0000
0000
,
0101
0000
0001
1000
0000
1000
0002
0000
0000
0000
0103
0000
0010
1000
0010
0100
,
0001
0001
1000
1000
0100
0100
0010
0010
,
0001
0001
1000
0010
0100
0100
0001
1000
,
0001
1000
1001
0000
1000
0001
1001
1000
,
0010
0000
1000
0000
0010
0000
0100
0000
0001
0010
0001
0000
1000
0010
1000
0000
,
0100
0010
0100
0010
0001
1000
0001
0100
,
1000
0100
1000
0100
0010
0100
0010
1000
,
0001
0010
0100
0010
0100
1000
0010
0100
,
0001
0000
0100
0010
1000
0000
0001
0010
0100
1000
0100
1000
0001
0100
0001
0010
,
0100
1000
0010
2000
0000
3001
0010
2000
,
0000
0000
3010
0000
0100
0000
1000
0001
0000
0001
0100
0000
0010
0000
1000
0000
,
0100
0010
0012
0000
1003
0010
0210
0000
,
0301
0000
1000
0000
0100
0000
0000
0100
0010
0000
0010
0000
0001
0000
1000
0000
,
0020
0000
0000
0000
0032
0000
0000
0013
0100
0000
0001
0000
1000
0000
0000
0000
,
0200
0000
0000
0000
0302
0000
0000
0103
0010
0000
0001
0000
1000
0000
0000
0000
,
1010
0000
0010
0100
0000
0100
0001
0000
0000
0000
1000
0000
0001
0000
0000
0000
,
0011
0000
0010
0100
0000
0100
2000
0000
0000
0000
0000
0000
3000
0000
0000
0000
,
0020
0000
0000
0000
0000
0000
0130
0000
0002
0000
0000
0000
0000
0000
1003
0100
,
2000
0000
0000
0000
0000
0000
3010
0000
0200
0000
0000
0000
0000
0000
0301
1000
,
0200
0000
0000
0000
0000
0000
0310
0001
2000
0000
0000
0000
0000
3010
1000
0001
,
0020
0000
0000
0000
0130
0010
0001
0000
2000
0000
0000
0000
0000
0000
3000
0000
,
0020
0000
0032
0000
,
2000
0000
0000
0000
0000
0000
0000
0000
0000
0000
0000
0000
0000
0000
0000
3003
;

//---------------dance-single - Loodee----------------
#NOTES:
     dance-single:
     Loodee:
     Hard:
     8:
     0.667,0.549,0.268,0.655,0.024:
0000
0000
0000
0000
,
0000
0000
0000
0000
,
0000
0000
0000
0000
,
0011
0000
0000
0110
0000
0000
1100
0000
0000
0000
1000
0000
0001
0000
0000
0000
,
0101
0000
0000
1010
0000
0000
1001
0000
0000
0000
0000
0000
0002
0000
0000
0000
,
0013
0010
0100
1000
0002
0000
0103
0010
,
1000
0100
0010
0100
0020
0000
0031
1000
,
0010
0100
0010
1000
0100
0000
0010
0000
,
0011
0000
0001
1000
0010
0100
0010
0000
,
1000
1000
0010
0100
0002
0000
0013
0100
,
1000
0100
1000
0100
0020
0000
0031
1000
,
0010
0100
0010
1000
0001
0000
0010
0000
,
0001
1000
0001
1000
0001
1000
0001
0100
,
0010
0000
1010
0000
1000
0001
0000
1000
,
0100
1000
0001
0000
0100
0010
2000
0000
,
3100
0000
0110
0000
0010
0001
0000
1000
,
0001
1000
0010
0000
0100
0010
2000
0000
,
3001
0000
0011
0000
0010
0001
0000
1000
,
0010
0100
0010
0000
1000
0000
1000
0001
,
0010
0110
1000
1001
,
0001
0100
0001
0100
1000
0100
0001
1000
,
0001
0001
0010
0100
1000
0010
0100
0001
,
1000
0100
0010
0100
2000
0000
3002
0000
,
0103
0010
0100
0010
1000
0100
0010
0100
,
0010
0001
1000
0010
0002
0000
0023
0000
,
0130
0001
1000
0001
0010
0100
1000
0000
,
0002
0103
0002
0023
,
0130
1100
1000
0101
,
0000
0001
0020
0000
0130
1000
0010
0100
,
0001
1000
0001
1000
0010
0100
0010
1000
,
0100
0010
0100
0010
0001
0100
0020
0000
,
1030
0100
1000
0100
0010
0001
0100
0010
,
2000
0000
3010
0100
0001
0010
0200
0000
,
1300
0001
0100
0010
1000
0100
1000
0001
,
0020
0230
0302
0203
,
1300
1001
0010
1001
,
0001
0100
1000
0100
0010
2000
0000
0000
,
3001
0010
0001
0010
0100
1000
0010
0100
,
0001
0100
0010
1000
0001
0000
1000
0100
,
0010
0100
1000
0020
0000
1030
0010
1000
,
0200
0000
0302
0000
0203
0000
1300
0001
,
0200
0000
0301
1000
0200
0000
0320
0000
,
0031
0010
0200
0000
1300
0001
0100
0001
,
1000
0000
1000
0100
0010
0000
0010
0100
,
1000
0010
0100
0001
0010
0001
0100
0010
,
1000
0000
1000
0001
0000
0001
0100
0000
,
0000
0010
1000
0001
0020
0000
0230
0000
,
1300
0000
1000
0010
0000
0010
1000
0000
,
0001
0010
0001
0010
0100
0000
0000
0000
,
1000
0010
0100
0001
0000
0020
0000
0230
,
0000
1300
0001
1000
0010
0100
0001
0000
,
0010
0100
1000
0000
1000
0100
0010
0000
,
0001
1000
0010
1000
0100
0010
0001
0100
,
0020
0000
0000
0000
0000
0000
0130
0001
,
2000
0000
3200
0000
0320
0000
0031
1000
,
0010
0100
0010
0100
0000
0002
0000
1003
,
0100
0010
1000
0010
0001
0100
0010
1000
,
0001
0100
0000
0010
1000
0001
0010
0200
,
0000
1300
0010
1000
0001
0100
0000
0100
,
0020
0032
0023
2030
,
3002
0000
0010
0000
1003
0010
1000
0000
,
0200
0302
0203
2300
,
3020
0032
0023
2030
,
3100
0000
0000
1100
0000
0000
1100
0000
0000
0000
1000
0000
0001
0000
0000
0000
,
0101
0000
0000
0101
0000
0000
0101
0000
0000
0000
0001
0000
1000
0000
0000
0000
,
1100
1100
0110
0110
,
0011
0011
1001
1001
,
1000
0010
0100
0000
0100
0001
1000
0000
,
0100
0010
0100
0010
0001
1000
0001
0100
,
0010
1000
0010
1000
0010
1000
0001
0010
,
0100
1000
0100
1000
0100
0010
0001
1000
,
0010
0100
0001
2000
0000
3001
1000
0001
,
0010
0010
0100
1000
0001
2000
0000
0000
,
3010
0100
0001
2000
0000
3100
0010
0002
,
0000
0013
0001
0100
0001
2000
0000
3010
,
0200
2300
3200
0302
,
2003
0000
0100
0000
3001
0010
0001
0010
,
0200
0302
0203
2300
,
3020
0032
0023
0230
,
0301
0000
0000
0101
0000
0000
1010
0000
0000
0000
1000
0000
0001
0000
0000
0000
,
0011
0000
0000
0110
0000
0000
1100
0000
0000
0000
0000
0000
0000
0000
0000
0000
,
2000
0000
3002
0000
,
0203
0000
0000
0000
0320
0000
0000
1030
,
0002
0000
0000
0013
0200
0000
0000
1300
,
0020
0000
0100
0000
2030
0000
0000
3000
,
0002
0000
0023
0000
,
0230
0000
0000
0000
,
0300
0000
0000
0000
;

//---------------dance-single - Loodee----------------
#NOTES:
     dance-single:
     Loodee:
     Medium:
     6:
     0.526,0.515,0.071,0.537,0.024:
0000
0000
0000
0000
,
0000
0000
0000
0000
,
0000
0000
0000
0000
,
0001
0000
0000
0001
0000
0000
0001
0000
0000
0000
0100
0000
0010
0000
0000
0000
,
1000
0000
0000
1000
0000
0000
1000
0000
0000
0000
0000
0000
0000
0000
0000
0000
,
1000
1000
0001
0000
0020
0000
0031
0000
,
1000
0010
0100
0000
0002
0000
0013
0000
,
0010
0001
0010
0001
1000
0000
0010
0000
,
0010
0000
1000
0001
1000
0001
0100
0000
,
0010
0010
1000
0000
0002
0000
0013
0000
,
0100
1000
0100
1000
0002
0000
1003
0000
,
0010
0100
0010
1000
0001
0000
1000
0000
,
0200
0320
0032
2003
,
3001
0000
0100
0000
0000
0001
0000
1000
,
0001
0000
1000
0000
0100
0010
0100
0000
,
1000
0000
0010
0000
0000
0100
0000
0001
,
1000
0000
0001
0000
0010
0100
1000
0000
,
0001
0000
0100
0000
0000
0010
0000
1000
,
0010
0000
1000
0000
0001
0010
0001
0000
,
1000
0010
0200
0000
0301
1000
0200
0000
,
0310
0001
1000
0000
0010
0100
0010
0000
,
1000
0000
0001
0000
0010
0100
1000
0000
,
0001
0100
0001
0000
2000
0000
3002
0000
,
0013
0100
0010
0100
1000
0001
1000
0000
,
0010
0100
0010
0100
0002
0000
2003
0000
,
3000
0001
0100
0001
1000
0000
0100
0000
,
0020
0031
2000
3001
,
0001
1001
0001
1001
,
1000
0100
0020
0000
0130
0000
1000
0000
,
0001
0100
0010
0000
0100
0001
1000
0000
,
0100
0010
0001
0000
0001
1000
0010
0000
,
0100
0001
0100
0001
1000
0000
0100
0000
,
0010
0001
0010
0001
1000
0000
0020
0000
,
0130
0000
0001
1000
0100
0000
1000
0000
,
0020
0230
0320
2030
,
3001
0101
0001
0101
,
0100
0010
0100
0010
2000
0000
0000
0000
,
3100
0000
0010
0001
1000
0000
0001
0000
,
1000
0010
1000
0010
0100
0000
0001
0000
,
1000
0100
0010
0001
0000
1000
0001
0000
,
0200
0000
0320
0000
0230
0000
0301
1000
,
0001
0000
0010
0100
0020
0000
0032
0000
,
1003
0010
0100
0000
0001
0000
1000
0100
,
1000
0000
0000
1000
0002
0000
0000
0103
,
0010
0000
1000
0000
0001
0010
0001
0010
,
0200
0000
0000
0000
,
0300
1000
0001
1000
0010
0000
0100
0000
,
0002
0000
0000
0000
,
1003
0100
1000
0010
0100
0000
0000
0000
,
0001
0000
1000
0100
0000
1000
0000
0001
,
0000
0010
0100
0000
1000
0100
1000
0000
,
0020
0130
0002
0103
,
0010
1000
0010
1000
0000
0001
1000
0000
,
2001
0000
0000
3100
,
0020
0000
0032
0000
2003
0000
3001
0200
,
0000
0000
0000
0000
0000
0310
0000
0000
,
1000
0100
0010
0001
1000
0100
0010
0001
,
1000
0000
0010
0000
0100
0001
0100
0001
,
0000
1000
0100
1000
0100
0000
1000
0000
,
1100
0000
0101
0000
,
0001
1000
0001
0000
0010
0100
0010
0000
,
0002
2003
3020
0230
,
0302
0023
0230
2300
,
3010
0000
0000
0010
0000
0000
0010
0000
0000
0000
0000
0000
1000
0000
0000
0000
,
0001
0000
0000
0001
0000
0000
0001
0000
0000
0000
0000
0000
1000
0000
0000
0000
,
0100
0010
0100
0010
0001
0010
0001
1000
,
0010
0010
0100
0100
,
0001
1000
0010
0000
0010
1000
0001
0000
,
0010
0100
1000
0000
0100
0000
0100
0000
,
1000
0001
1000
0000
0010
0000
0010
0000
,
0100
0001
0100
0000
0010
0000
0010
0000
,
1000
0001
1000
0000
0100
0000
0100
0000
,
0010
0001
1000
0001
1000
0001
1000
0001
,
0100
0000
0010
1000
0000
0001
1000
0002
,
0000
0000
0023
0000
0130
1000
0000
0000
,
0101
0000
1010
0000
,
1000
0100
1000
0000
0001
0100
0001
0000
,
0200
0320
2030
3002
,
0023
0032
2003
3200
,
1300
0000
0000
1000
0000
0000
1000
0000
0000
0000
0001
0000
0100
0000
0000
0000
,
0010
0000
0000
0010
0000
0000
0020
0000
0000
0000
0000
0000
0030
0000
0000
0000
,
2000
0000
3002
0000
,
0203
0000
0320
0000
,
2030
0000
3200
0000
,
0320
0000
0032
0000
,
2003
0000
3020
0000
,
0230
0000
0000
0000
,
0300
0000
0000
0000
;

//---------------dance-single - Loodee----------------
#NOTES:
     dance-single:
     Loodee:
     Easy:
     4:
     0.307,0.275,0.111,0.213,0.000:
0000
0000
0000
0000
,
0000
0000
0000
0000
,
0000
0000
0000
0000
,
0010
0000
0000
0110
0000
0000
0000
0000
,
1000
0000
0000
1001
0000
0000
0000
0000
,
0001
0000
0010
0100
0010
0000
0000
0000
,
0001
0001
1000
0000
,
0100
0000
1000
0001
1000
0000
0000
0000
,
0010
0100
0100
0001
,
1000
0000
0100
0010
0100
0000
0000
0000
,
1000
1000
0010
1000
,
0100
0010
0010
0100
,
2000
0000
0000
0000
,
3001
0000
0100
0000
0000
0001
0000
0000
,
1000
0100
0000
0100
,
1000
0000
0001
0000
0000
1000
0000
0000
,
0010
0100
0010
0100
,
0001
0000
1000
0000
0000
0100
0000
0000
,
0010
0100
0000
1000
,
0000
0110
0000
1001
,
0000
0001
0100
0001
,
1000
0000
0100
1000
,
0010
0100
0002
0003
,
1000
0100
1000
0000
0001
0000
0000
0000
,
0010
0100
2000
3000
,
0001
0000
1000
0001
,
0100
0010
0100
0001
,
0000
0101
0000
0101
,
0000
0001
1000
0100
,
1000
0000
0001
0010
,
0100
1000
0020
0030
,
1000
0010
1000
0000
0001
0000
0000
0000
,
0010
0100
0020
0030
,
0001
1000
0001
0100
,
0010
0000
1000
0100
,
0000
1100
0000
1100
,
0000
0000
0001
0000
0000
2000
0000
0000
,
3001
0100
0001
0100
,
0010
1000
0010
1000
,
0001
0000
0010
0000
,
0100
1000
0010
0000
,
0200
0000
0000
0000
0000
0300
0000
0000
0200
0000
0000
0000
0000
0300
0000
0000
,
0001
1000
0100
0010
,
0001
0000
0001
0000
,
0001
0000
0000
0000
1000
0000
0001
0010
,
0002
0000
0000
0000
,
0003
1000
0010
0100
,
0020
0000
0000
0030
,
1000
0001
1000
0001
1000
0000
0000
0000
,
0100
0000
0010
0000
,
0001
0001
0100
0010
,
1000
0000
1000
0000
,
1000
0100
0000
1000
,
0002
0000
0000
0000
,
1003
0010
1000
0001
,
0010
0000
0000
0000
,
0001
0010
0001
0000
0000
0000
0000
0000
,
1000
0000
0010
0000
,
0100
0001
1000
0100
,
0020
0000
0032
0000
,
2003
0000
3000
0000
,
0010
0000
0100
0001
,
1000
0000
0100
0010
,
0001
0000
0000
0001
0000
0000
0001
0000
,
1000
0000
0000
1000
0000
0000
0000
0000
,
1100
0000
1100
0000
,
0011
0000
0011
0000
,
0001
1000
0001
1000
,
0010
0000
0100
0100
,
0002
0000
0000
0000
,
1003
0100
1000
0100
,
0020
0000
0030
0000
,
0001
1000
0001
0000
0100
0000
0100
0000
,
0010
0000
1000
0000
,
0100
0010
0100
1000
,
0002
0000
0203
0000
,
0320
0000
0030
0000
,
1000
0001
0100
0001
,
1000
0100
1000
0010
,
0100
0000
0000
0110
0000
0000
0000
0000
,
0001
0000
0000
1001
0000
0000
0000
0000
,
2000
0000
0000
0000
,
3002
0000
0000
0000
,
0023
0000
0230
0000
,
2300
0000
3002
0000
,
0023
0000
0000
0000
,
0200
0000
0000
0000
,
0330
0000
0000
0000
;

//---------------dance-single - Blank----------------
#NOTES:
     dance-single:
     Blank:
     Beginner:
     2:
     0.112,0.137,0.039,0.047,0.000:
0000
0000
0000
0000
,
0000
0000
0000
0000
,
0000
0000
0000
0000
,
1001
0000
0000
0000
,
1001
0000
0000
0000
,
0001
0000
0000
0000
,
1000
0000
0000
0000
,
0100
0000
0000
0000
,
0100
0000
0000
0000
,
1000
0000
0000
0000
,
0010
0000
0000
0000
,
0100
0000
0000
0000
,
0001
0000
0000
0000
,
0001
0000
0000
0000
,
1000
0000
0000
0000
,
0100
0000
0000
0000
,
1000
0000
0000
0000
,
0010
0000
0000
0000
,
0100
0000
0000
0000
,
0000
0001
0000
0001
,
0000
0000
0000
0000
,
1000
0000
0000
0000
,
0100
0000
0000
0000
,
1000
0000
0000
0000
,
0010
0000
0000
0000
,
1000
0000
0000
0000
,
0001
0000
0000
0000
,
0000
1000
0000
1000
,
0000
0000
0000
0000
,
0010
0000
0000
0000
,
0100
0000
0000
0000
,
0001
0000
0000
0000
,
1000
0000
0000
0000
,
0100
0000
0000
0000
,
1000
0000
0000
0000
,
0000
0010
0000
0010
,
0000
0000
0000
0000
,
1000
0000
0000
0000
,
0001
0000
0000
0000
,
1000
0000
0000
0000
,
0100
0000
0100
0000
,
1000
0000
0000
0000
,
0001
0000
0000
0000
,
0100
0000
0000
0000
,
0100
0000
0100
0000
,
0002
0000
0000
0000
,
0003
0000
0000
0000
,
2000
0000
0000
0000
,
3000
0000
1001
0000
,
0001
0000
0000
0000
,
1000
0000
0000
0000
,
0010
0000
0010
0000
,
1000
0000
0000
0000
,
0001
0000
0000
0000
,
0010
0000
0000
0000
,
0100
0000
0000
0000
,
1000
0000
0000
0000
,
0001
0000
0000
0000
,
0100
0000
0000
0000
,
0001
0000
1000
0000
,
0001
0000
0000
0000
,
1000
0000
0000
0000
,
1000
0000
0000
0000
,
0100
0000
0000
0000
,
0100
0000
0000
0000
,
1000
0000
1000
0000
,
0001
0000
0001
0000
,
0000
0010
0000
0010
,
0000
0000
0000
0000
,
0001
0000
0000
0000
,
1000
0000
0000
0000
,
0010
0000
0000
0000
,
0100
0000
0000
0000
,
0001
0000
0000
0000
,
1000
0000
0000
0000
,
0001
0000
0010
0000
,
0001
0000
0000
0000
,
1000
0000
0000
0000
,
0010
0000
0000
0000
,
1001
0000
0000
0000
,
1001
0000
0000
0000
,
2000
0000
0000
0000
,
0000
0000
3000
0000
,
0002
0000
0000
0003
,
0200
0000
0000
0000
,
0300
0000
0000
0000
,
0020
0000
0000
0000
,
0030
0000
0000
0000
;
