#VERSION:0.81;
#TITLE:The Island;
#SUBTITLE:Pt. 1 [Dawn] (Crimsonik Remix);
#ARTIST:Pendulum;
#TITLETRANSLIT:;
#SUBTITLETRANSLIT:;
#ARTISTTRANSLIT:;
#GENRE:;
#ORIGIN:;
#CREDIT:;
#BANNER:The Island Pt. 1 [Dawn] (Crimsonik Remix) - Pendulumbn.png;
#BACKGROUND:The Island Pt. 1 [Dawn] (Crimsonik Remix) - Pendulumbg.png;
#PREVIEWVID:;
#JACKET:The Island Pt. 1 [Dawn] (Crimsonik Remix) - Pendulumjacket.png;
#CDIMAGE:;
#DISCIMAGE:;
#LYRICSPATH:The Island Pt. 1 [Dawn] (Crimsonik Remix) - Pendulum.lrc;
#CDTITLE:encorerebirth.png;
#MUSIC:The Island Pt. 1 [Dawn] (Crimsonik Remix) - Pendulum.ogg;
#OFFSET:-0.009;
#SAMPLESTART:60.979;
#SAMPLELENGTH:22.857;
#SELECTABLE:YES;
#BPMS:0.000=94.500,
18.000=63.000,
22.000=126.000,
148.000=63.000,
149.000=126.000,
161.000=63.000,
163.000=126.000,
227.000=94.500;
#STOPS:;
#DELAYS:;
#WARPS:;
#TIMESIGNATURES:0.000=4=4;
#TICKCOUNTS:0.000=4;
#COMBOS:0.000=1;
#SPEEDS:0.000=1.000=0.000=0;
#SCROLLS:0.000=1.000;
#FAKES:;
#LABELS:0.000=Song Start;
#BGCHANGES:;
#KEYSOUNDS:;
#ATTACKS:
;

//---------------dance-single - Spork!----------------
#NOTEDATA:;
#CHARTNAME:Spork! - Beginner;
#STEPSTYPE:dance-single;
#DESCRIPTION:Spork!;
#CHARTSTYLE:;
#DIFFICULTY:Beginner;
#METER:1;
#RADARVALUES:0.087,0.092,0.057,0.057,0.000,60.000,7.000,7.000,0.000,0.000,0.000,0.000,0.000,0.087,0.092,0.057,0.057,0.000,60.000,7.000,7.000,0.000,0.000,0.000,0.000,0.000;
#CREDIT:Spork!;
#OFFSET:-0.009;
#BPMS:0.000=94.500
,18.000=63.000
,22.000=126.000
,148.000=63.000
,149.000=126.000
,161.000=63.000
,163.000=126.000
;
#STOPS:;
#DELAYS:;
#WARPS:;
#TIMESIGNATURES:0.000=4=4
;
#TICKCOUNTS:0.000=4
;
#COMBOS:0.000=1
;
#SPEEDS:0.000=1.000=0.000=0
;
#SCROLLS:0.000=1.000
;
#FAKES:;
#LABELS:0.000=Song Start
;
#NOTES:
0000
0000
0000
0000
,
0000
0000
0000
0000
,
0000
0000
0000
0000
,
1000
0000
0000
0001
,
0000
0000
0200
0000
,
0300
0000
1001
0000
,
0000
0000
1000
0000
,
0001
0000
0100
0000
,
0000
0000
0100
0000
,
0001
0000
0010
0000
,
0000
0000
0010
0000
,
0100
0000
1000
0000
,
0000
0000
0001
0000
,
0000
0000
1001
0000
,
0000
0000
0001
0000
,
1000
0000
0010
0000
,
0000
0000
0010
0000
,
1000
0000
0100
0000
,
0000
0000
0100
0000
,
0010
0000
0001
0000
,
0000
0000
0001
0000
,
0010
0000
0001
0000
,
0000
0000
1000
0000
,
0000
0000
0200
0000
,
0300
0000
1000
0000
,
0010
0000
1000
0000
,
0000
0000
0001
0000
,
0000
0000
0200
0000
,
0000
0000
0300
0000
,
0000
0000
0110
0000
,
0000
0000
1000
0000
,
0000
0000
1001
0000
,
0000
0000
0001
0000
,
0000
0000
0110
0000
,
0000
0000
1000
0000
,
0000
0000
0110
0000
,
0000
0000
0001
0000
,
0000
1000
0000
0000
,
0000
0100
0000
0000
,
0000
0010
0000
0000
,
0000
1001
0000
0001
,
0000
0000
0000
0001
,
0000
0000
0000
1000
,
0000
0000
0000
1000
,
0000
0100
0000
1000
,
0000
0000
0000
1000
,
0000
0000
0000
0001
,
0000
0000
0000
0001
,
0000
0100
0000
0002
,
0000
0000
0000
0000
,
0000
2000
0000
0000
,
0000
0000
0000
3003
,
0000
0000
0000
0200
,
0000
0000
0000
0000
,
0000
0020
0000
0000
,
0000
0000
0000
0330
;

//---------------dance-single - Spork!----------------
#NOTEDATA:;
#CHARTNAME:Spork! - Light;
#STEPSTYPE:dance-single;
#DESCRIPTION:Spork!;
#CHARTSTYLE:;
#DIFFICULTY:Easy;
#METER:2;
#RADARVALUES:0.184,0.163,0.041,0.172,0.000,131.000,5.000,21.000,0.000,0.000,0.000,0.000,0.000,0.184,0.163,0.041,0.172,0.000,131.000,5.000,21.000,0.000,0.000,0.000,0.000,0.000;
#CREDIT:Spork!;
#NOTES:
0000
0000
0000
0000
,
0000
0000
0000
0000
,
0000
0000
0000
0000
,
0001
0000
0000
1000
,
0000
0000
0020
0000
,
0030
0000
1000
0000
,
0010
0000
1000
0100
,
0100
0010
0010
0000
,
0001
0000
0100
0001
,
0001
1000
1000
0000
,
0010
0000
0100
0010
,
0010
0100
0100
0000
,
0001
0000
1000
0000
,
0100
1000
0001
0000
,
0010
0000
0001
1000
,
1000
0010
0010
0000
,
1000
0000
0100
1000
,
1000
0001
0001
0000
,
0100
0000
0001
0010
,
0010
0100
0100
0000
,
0010
0000
0010
0001
,
1000
0010
0200
0000
,
0300
0100
0001
0000
,
1000
0000
0200
0000
,
0020
0000
0330
0010
,
0100
1000
0020
0000
,
0030
0010
1000
0000
,
0001
0000
0200
0000
,
0000
0000
0320
0000
,
0000
0000
0130
0000
,
1001
0000
0010
0000
,
0001
0001
1000
0000
,
0110
0000
0001
0000
,
0100
0100
0010
0000
,
1001
0000
0100
0000
,
1000
1000
0001
0000
,
0110
0000
1000
0000
,
2000
3002
0000
0000
,
0000
0203
0000
0000
,
0000
0320
0000
0000
,
0000
1030
0001
1000
,
0000
1000
1000
0100
,
0000
0100
0100
0010
,
0000
0010
0010
0002
,
0000
2003
0000
3001
,
0000
0001
0001
0100
,
0000
0100
0100
0010
,
0000
0010
0010
2000
,
0000
3002
0000
1003
,
0010
0010
0020
0000
,
0000
0100
0100
0200
,
0030
0000
0001
0002
,
0300
0000
0003
0001
,
0010
0010
0020
0000
,
0000
0100
0100
0200
,
0030
0000
1000
2300
,
0000
0001
3000
1001
;

//---------------dance-single - Spork!----------------
#NOTEDATA:;
#CHARTNAME:Spork! - Expert;
#STEPSTYPE:dance-single;
#DESCRIPTION:Spork!;
#CHARTSTYLE:;
#DIFFICULTY:Challenge;
#METER:11;
#RADARVALUES:0.722,0.735,0.591,0.501,0.480,483.000,72.000,61.000,128.000,0.000,3.000,0.000,0.000,0.722,0.735,0.591,0.501,0.480,483.000,72.000,61.000,128.000,0.000,3.000,0.000,0.000;
#CREDIT:Spork!;
#NOTES:
0000
0000
0000
0000
,
0000
0000
0000
0000
,
0000
0000
0000
0000
0000
0001
1000
0010
,
0100
0000
0000
0000
0000
0000
0000
0000
0000
1001
0000
0000
0000
0000
0000
0000
0000
0000
0100
0000
0000
0001
0000
0000
0000
0000
0000
0000
0000
0000
0000
0000
,
0000
0010
0000
0000
0001
0000
0000
0100
0000
0000
0010
0000
0000
0000
0000
0000
1000
0000
0000
0000
0000
0000
0110
0000
0000
0000
0000
0000
0001
0000
0000
0000
,
2000
0000
0000
0000
3000
000M
0M00
00M0
0001
0000
0100
0000
0101
0000
0001
0000
,
0010
0100
0110
0010
0001
1000
1M10
001M
,
M100
0000
0010
M000
0110
0000
000M
0000
1000
0000
0100
0000
1100
0000
1000
0000
,
0010
0000
0100
0000
0110
0000
0100
0010
1000
0000
0M01
0000
0M11
0000
M010
0000
,
010M
0000
0010
000M
0110
0000
M100
0010
0001
0000
1000
0000
1001
0000
0001
0000
,
0100
0010
0110
0100
1000
01M0
M101
00M1
,
10M0
0100
0110
0100
1000
0M01
1001
0001
,
1000
0010
0100
0000
0110
0000
0010
0000
0001
0000
0010
0000
1010
0000
1000
0000
,
1100
0000
01M0
0000
M010
0100
100M
0000
2001
0000
3020
0000
0230
0000
0302
0000
,
0013
0001
0100
0000
0120
0000
2030
0000
3002
0000
0M13
0000
M110
0000
0020
0000
,
023M
1300
2010
3M10
2000
31M0
0102
0203
,
0310
0000
0000
0000
0002
0000
0000
0000
0103
0000
0000
0000
0020
0000
1000
0030
0100
0000
0000
0000
2000
0000
0000
0000
30M1
0000
0000
0000
M200
0000
0000
0000
,
031M
0000
0100
M000
0110
0000
001M
1000
0002
0000
0103
0000
2100
0000
3200
0000
,
0310
1000
2100
3200
0320
0031
M201
03M2
,
2M03
3010
0210
0320
2030
3M01
20M1
3002
,
0103
0001
0010
0000
0011
0000
0001
0000
0010
0000
010M
0000
M110
0000
010M
0000
,
11M0
0000
1000
000M
0010
1000
0M01
0000
1000
0100
1000
0100
0010
0100
0010
0100
,
0010
0001
0M10
0001
1M00
0001
10M0
0001
1000
0010
100M
0010
0100
0010
M100
0010
,
0001
0010
0001
0010
M100
0010
010M
0010
2000
0000
01M0
0000
00M1
0000
0M10
0000
,
020M
3000
0000
0000
0310
0000
0000
0000
0100
0000
10M0
0000
00M1
0000
1M00
0000
,
001M
1000
0100
00M0
0100
1000
001M
1000
0100
0010
0001
0010
0100
0010
0100
0010
,
0100
1000
01M0
1000
00M1
1000
0M01
1000
0010
0100
0001
0100
M010
0100
001M
0100
,
1000
0100
1000
0100
001M
0100
M010
0100
0001
0000
1000
0100
1000
0010
0100
0000
,
0001
0000
0010
0000
0001
0000
0100
0000
0010
0000
0000
0000
1000
0001
1000
0000
0010
0000
0100
0000
0000
0000
0100
0000
0001
0000
0000
0000
1000
0000
0000
0000
,
0001
1000
0100
0010
0001
0000
0011
0000
1001
0000
0001
0000
0100
0000
10M0
0000
,
110M
0000
0000
M110
0000
0000
01M1
0000
0001
0000
1000
0000
0100
0000
001M
0000
,
M110
0000
0100
0000
110M
0000
0100
1000
00M1
0000
1000
0000
0001
0000
0M10
0000
,
101M
0000
0M10
0000
M011
0000
0M01
0000
0000
0000
1000
0001
0010
0000
0000
001M
,
M100
0000
0000
0010
0M01
0000
0000
0000
10M1
0000
1000
0000
0010
0000
0001
0000
,
M011
0000
0000
011M
0000
0000
1M10
0000
1000
0000
0100
0000
0010
0000
M001
0000
,
01M1
0000
0100
0000
M110
0000
0100
0010
1M00
0000
0001
0000
1000
0000
0100
0000
,
M101
0000
01M0
0000
110M
0000
10M0
0000
0000
0000
0M01
1000
0010
0000
000M
0000
,
M000
000M
04M0
0000
0000
0010
0001
0000
,
1000
0000
0304
0000
0000
0010
1000
0000
,
0100
0000
0043
0000
0000
0001
0100
1000
,
0100
0000
0031
0000
2002
0000
0000
0000
3000
0000
0003
0000
1010
0000
0000
0011
,
0000
0000
0001
0010
0100
0000
0100
1000
0001
0000
1000
0000
1100
0000
0000
0101
,
0000
0000
0100
0001
1000
0000
0100
1000
0001
0000
0010
0000
0011
0000
0000
1010
,
0000
0000
1000
0010
0100
0000
0100
0001
1000
0000
0001
0000
0101
0000
0000
1100
,
0000
0000
1000
0000
0100
1000
0010
0000
0100
0001
1000
0001
0100
0000
0000
0000
,
1001
0000
1000
0100
0010
0000
0100
0010
0001
0000
1000
0000
0011
0000
0000
1010
,
0000
0000
0110
0000
0101
0000
0001
1000
0100
1000
0000
0000
1100
0000
0000
0101
,
0000
0000
0001
0100
0010
0100
0010
1000
0001
0000
1000
0000
1010
0000
0000
0011
,
0000
0000
0010
0000
0100
0010
0001
0100
0010
1000
0100
1000
1001
0000
0M01
0000
,
0M20
203M
3M20
M032
0203
0310
1010
0100
,
0011
0000
0010
0000
020M
0000
23M0
0000
30M2
0000
0013
0001
2M00
0000
3010
0000
,
0100
0000
1000
0000
0100
0000
M002
0000
0M23
0000
203M
0000
3000
0000
0010
0001
,
1000
0000
0100
0010
0001
0000
0100
0010
1000
0000
0100
1000
0001
0000
1000
0000
,
0M20
M032
0M23
203M
320M
0310
0011
0100
,
1010
0000
0010
0000
M200
0000
03M2
0000
2M03
0000
3010
1000
020M
0000
0310
0000
,
0100
0000
0001
0000
0100
0000
200M
0000
3M20
0000
M032
0000
0013
0000
0100
0010
,
M100
0000
0010
0000
M100
0001
0100
0001
0100
0000
0001
0000
1000
0000
0000
0000
10M0
0000
0100
0000
10M0
0000
0001
0000
0020
0000
0000
0000
0000
0000
0000
0000
,
0000
0000
0000
0030
;

//---------------dance-single - Spork!----------------
#NOTEDATA:;
#CHARTNAME:Spork! - Standard;
#STEPSTYPE:dance-single;
#DESCRIPTION:Spork!;
#CHARTSTYLE:;
#DIFFICULTY:Medium;
#METER:6;
#RADARVALUES:0.382,0.349,0.394,0.394,0.008,230.000,48.000,48.000,0.000,0.000,0.000,0.000,0.000,0.382,0.349,0.394,0.394,0.008,230.000,48.000,48.000,0.000,0.000,0.000,0.000,0.000;
#CREDIT:Spork!;
#NOTES:
0000
0000
0000
0000
,
0000
0000
0000
0000
,
0000
0000
0000
0000
,
0001
0000
0000
1000
0000
0000
0001
0000
,
0000
0100
0000
0000
0020
0000
0000
0000
,
0030
0000
1000
2100
,
3010
0210
0301
2000
,
3200
0320
0031
0102
,
0013
0210
1300
0002
,
0203
0320
1030
0102
,
0013
2100
3001
2000
,
3002
0203
0301
2010
,
3100
0012
1003
0110
,
1001
0000
0110
0000
1000
0100
1000
0000
,
0100
0001
0110
0020
,
0032
0000
0203
0000
0301
0010
0001
0000
,
0010
1000
0110
0200
,
2300
0000
3020
0000
1030
0001
1000
0000
,
0001
0100
1001
0002
,
2003
3020
0130
0210
,
0310
0000
1002
0000
1003
0100
0010
0001
,
1000
0001
0200
0010
,
0001
0301
0020
0001
,
0100
0000
0130
0000
0010
0100
0010
0100
,
0010
0001
0100
0010
,
1001
0110
1020
0100
,
1000
1030
1200
1000
,
0010
0000
0310
0000
0011
0000
0000
1001
,
0000
0000
1010
0000
0000
0110
0000
0000
,
1001
0000
1001
0000
1000
0000
0001
0100
,
0010
0000
0000
1000
0000
0000
0001
0000
0000
0000
0000
0000
0010
0000
0000
0000
,
1001
0110
0011
0001
,
1000
0100
1000
0000
0010
0100
0010
0000
,
0110
1010
1100
0100
,
0010
0000
0000
0001
0000
0000
1000
0000
0000
0000
0000
0000
0100
0000
0000
0000
,
1001
0110
1100
1000
,
0001
0100
0001
0000
2000
0000
0000
0000
,
3001
0000
1001
0000
0000
0001
1000
0000
,
0010
0000
0110
0000
0000
0100
0010
0000
,
1000
0000
1001
0000
0000
1000
0001
1000
,
0010
0220
0330
0001
,
0001
0000
0010
0001
0100
0100
0010
0000
,
0010
0000
0100
0001
1000
1000
0100
0000
,
0100
0000
0100
0010
0001
0001
1000
0000
,
1000
0000
0001
0010
0100
1000
0001
0000
,
0202
0000
0303
0000
0100
0100
0010
0000
,
2020
0000
3030
0000
1000
1000
0001
0000
,
2002
0000
3003
0000
0001
0001
0010
0000
,
0001
1001
0110
0010
,
0100
0001
0100
0001
2000
0000
3100
0000
,
0110
0000
0100
1000
0020
0000
0230
0000
,
0000
0000
0000
0310
1000
0002
0000
0000
,
0003
1001
0110
0100
,
0010
1000
0010
1000
0002
0000
0013
0000
,
0110
0000
0100
1000
0001
0000
0002
0000
,
0000
0000
0000
0103
0010
1000
0000
0000
,
1000
0001
0000
0000
0001
1000
0000
0000
;

//---------------dance-single - Spork!----------------
#NOTEDATA:;
#CHARTNAME:Spork! - Heavy;
#STEPSTYPE:dance-single;
#DESCRIPTION:Spork!;
#CHARTSTYLE:;
#DIFFICULTY:Hard;
#METER:8;
#RADARVALUES:0.513,0.545,0.386,0.263,0.176,359.000,47.000,32.000,0.000,0.000,0.000,0.000,0.000,0.513,0.545,0.386,0.263,0.176,359.000,47.000,32.000,0.000,0.000,0.000,0.000,0.000;
#CREDIT:Spork!;
#NOTES:
// measure 0
0000
0000
0000
0000
,  // measure 1
0000
0000
0000
0000
,  // measure 2
0000
0000
0000
0000
0000
0001
0010
0001
,  // measure 3
0100
0000
0000
0000
0000
0000
0000
0000
0000
0110
0000
0000
0000
0000
0000
0000
0000
0000
0010
0000
0000
1000
0000
0000
0000
0000
0000
0000
0000
0000
0000
0000
,  // measure 4
0000
1000
0000
0000
0100
0000
0000
0010
0000
0000
0001
0000
0000
0000
0000
0000
1000
0000
0000
0000
0000
0000
0010
0000
0000
0000
0000
0000
2000
0000
0000
0000
,  // measure 5
0002
0000
3003
0000
1000
0100
1000
0010
,  // measure 6
0100
0001
0010
0001
1000
0010
0100
0100
,  // measure 7
0100
0000
0000
0001
0000
0000
0010
0000
0001
0000
0100
0000
0001
0000
0010
0000
,  // measure 8
0100
1000
0001
1000
0010
0100
0100
0100
,  // measure 9
0100
0000
0000
0001
0000
0000
1000
0000
0100
0000
0010
0000
0100
0000
1000
0000
,  // measure 10
0010
0100
0010
1000
0001
0010
0010
0010
,  // measure 11
0020
0000
0000
0000
0000
0130
1000
0001
,  // measure 12
1000
0001
1000
0000
0010
0000
0100
0000
0001
0000
0010
0000
0001
0000
0100
0000
,  // measure 13
1001
0000
1010
0000
1000
0100
0010
0001
,  // measure 14
0000
0001
0010
0001
0100
0010
0010
0000
,  // measure 15
0020
0000
0000
1030
0000
0100
1000
0010
,  // measure 16
0100
0001
1000
0100
0000
0100
1000
1000
,  // measure 17
1000
0000
0000
0001
0000
0000
0100
0000
0001
0000
0010
0000
0001
0000
1000
0000
,  // measure 18
0010
0100
0010
1000
0100
1000
0001
0001
,  // measure 19
0002
0000
0000
0000
0003
1000
0001
0100
,  // measure 20
0001
1000
0001
0000
0010
0000
0100
0000
1000
0000
0010
0000
1000
0000
0100
0000
,  // measure 21
1001
0000
0000
0000
0101
0000
0000
0000
0001
0000
0001
0010
0000
0010
0001
0000
,  // measure 22
0001
0100
0000
0100
0010
0000
0010
0000
1000
0000
1000
0100
0000
0100
1000
0000
,  // measure 23
1000
0001
0000
0001
0010
0000
0100
0000
0000
0000
0100
0000
0010
0000
0001
0000
,  // measure 24
1000
0000
1001
0000
1000
0010
1000
0100
,  // measure 25
0110
0000
0000
0000
1001
0000
0000
0000
1100
0000
0100
1000
0000
1000
0010
0000
,  // measure 26
0010
0100
0000
0100
0010
0000
1000
0000
1001
0000
1000
0001
0000
0001
0100
0000
,  // measure 27
0100
0010
0000
0010
0100
0000
0001
0000
0021
0000
0000
0000
0031
0000
0210
0000
,  // measure 28
0000
0310
1200
0000
1300
0010
1000
0100
,  // measure 29
1001
0000
1001
0000
1000
0100
0001
0100
,  // measure 30
1100
0000
0000
1001
0000
0000
0101
0000
0100
0000
0001
0000
0010
0000
0100
0000
,  // measure 31
0002
0000
0203
0000
2300
0000
3001
0100
,  // measure 32
1000
0100
0010
1000
0000
1001
0000
0001
,  // measure 33
2000
0000
3020
0000
0032
0000
0013
0100
,  // measure 34
0101
0000
0000
1001
0000
0000
1100
0000
0100
0000
1000
0000
0010
0000
0100
0000
,  // measure 35
2000
0000
3200
0000
0302
0000
1003
0100
,  // measure 36
0001
0100
1000
0010
0000
0110
0000
0100
,  // measure 37
0002
2003
3200
0000
0000
0010
1000
0000
,  // measure 38
0001
0000
0000
0000
2000
0300
0000
0000
0000
0000
0010
0000
0100
0000
0000
0000
,  // measure 39
0001
0000
0000
0000
0020
3000
0000
0000
0000
0000
1000
0000
0100
0000
0001
0000
,  // measure 40
0100
0000
2000
0030
0000
0000
0000
3001
0010
0001
1000
0000
1001
0000
0000
0101
,  // measure 41
0000
0000
0001
0000
0010
0000
1000
0000
0001
0000
0100
0000
1100
0000
0000
1010
,  // measure 42
0000
0000
1000
0000
0100
0000
0001
0000
1000
0000
0010
0000
0011
0000
0000
1001
,  // measure 43
0000
0000
1000
0000
0010
0000
0001
0000
1000
0000
0100
0000
0101
0000
0000
1001
,  // measure 44
0000
1000
0001
0010
0100
1000
1010
0000
,  // measure 45
1100
0000
1000
0000
0010
0000
0001
0000
1000
0000
0100
0000
0101
0000
0000
0011
,  // measure 46
0000
0000
1001
0000
1000
0000
0100
0000
0001
0000
0000
0000
0110
0000
0000
1100
,  // measure 47
0000
0000
1001
0000
0001
0000
0100
0000
1000
0000
0100
0000
0110
0000
0000
0101
,  // measure 48
0000
0000
0001
0000
0010
0000
0100
0000
1000
0001
1000
0001
1000
0000
0010
0000
,  // measure 49
1000
0100
1000
0010
0200
0000
1300
0100
,  // measure 50
0010
0100
0001
0010
0200
0000
0020
0000
,  // measure 51
0330
0000
0000
0000
0011
0000
0001
0000
1000
0000
1001
0000
0000
0000
1000
0001
,  // measure 52
1000
0000
0010
0000
0100
0000
0001
1000
0001
0000
0000
0000
0001
0000
0100
0000
,  // measure 53
0001
0010
0001
0100
0020
0000
0031
0010
,  // measure 54
0100
0010
1000
0100
0010
0000
2200
0000
,  // measure 55
3300
0000
1001
0001
0100
0120
0000
0000
,  // measure 56
1030
1200
0000
0000
0310
0001
2000
0000
,  // measure 57
0000
0000
0000
3000
;
