#TITLE:Rosetta;
#SUBTITLE:;
#ARTIST:Mili;
#TITLETRANSLIT:;
#SUBTITLETRANSLIT:;
#ARTISTTRANSLIT:;
#GENRE:;
#CREDIT:;
#BANNER:[Round 3] - Rosetta.png;
#BACKGROUND:[Round 3] - Rosetta-bg.png;
#LYRICSPATH:;
#CDTITLE:;
#MUSIC:[Round 3] - Rosetta.ogg;
#OFFSET:-0.249000;
#SAMPLESTART:47.163902;
#SAMPLELENGTH:19.180014;
#SELECTABLE:YES;
#BPMS:0.000000=138.000000
,315.000000=132.479996
;
#STOPS:
;
#BGCHANGES:;
#KEYSOUNDS:;
#ATTACKS:;

//---------------dance-single - ----------------
#NOTES:
     dance-single:
     :
     Hard:
     9:
     0.482843,0.683560,0.163543,0.095400,0.218058,496.000000,472.000000,24.000000,14.000000,0.000000,0.000000,0.482843,0.683560,0.163543,0.095400,0.218058,496.000000,472.000000,24.000000,14.000000,0.000000,0.000000:
1000
0100
0000
1000
,
0100
0000
1000
0100
,
0010
0100
0010
0000
,
0100
0010
0001
0100
,
0010
0000
0100
0001
,
1000
0100
0001
0000
,
0100
0010
0000
0100
,
0010
0000
0100
0010
,
0001
0100
0010
1000
,
0011
0010
0001
1000
,
0010
0100
0010
1000
,
0001
0000
0000
0010
0000
0000
0100
1000
0001
0100
0000
0000
,
1000
0100
0010
1000
,
0100
0010
0001
0010
,
0010
0100
0001
0000
0100
0000
1010
0000
,
0011
0010
0000
0001
,
0010
0100
1000
0010
0000
0000
0110
0000
0000
0010
0000
0000
,
0100
0000
0000
0010
0000
0000
1000
0000
0000
0000
0000
0000
1000
0000
0100
0000
1000
0000
0001
0000
0100
0000
0010
0000
,
0110
0000
0100
0000
0000
0010
1000
0000
,
1000
0010
0100
0001
0000
0000
0010
0000
0000
0100
0000
0000
,
0000
0100
0010
0000
0100
0000
0010
0000
,
0010
0001
1000
0000
1000
0010
0200
0000
,
0301
0010
0000
0010
0001
0100
0010
0000
,
1000
0100
0010
0000
0001
0000
1000
0000
,
0020
0130
0001
0020
,
0130
1000
0010
0200
,
0302
0000
0000
0000
2003
0000
0000
0000
0000
0000
3010
1000
0010
0000
0100
0000
,
0001
0000
0000
0000
0000
0000
0000
0000
1100
0000
0000
0000
0011
0000
0001
0010
,
0001
1000
0010
0000
0010
0100
0001
0010
,
1000
0001
0100
1000
0001
0100
0010
0100
,
0011
0000
0000
0110
0000
0000
1100
1000
,
0010
1010
0000
0000
1000
0100
0001
0100
,
1000
0000
0001
0000
1000
0010
0000
0100
0001
0000
0001
0000
0010
0100
0010
0000
,
0001
0010
0100
1000
0010
0000
1001
0000
0000
0000
0000
0000
0001
0000
0010
0000
,
1000
0010
0000
0000
0001
0010
0100
1000
,
0000
0000
1000
1000
0010
0001
0000
0010
,
1000
0010
0100
0000
0001
0000
0100
0000
0010
0000
1000
0000
0001
0010
0100
0000
,
1000
0001
0100
0101
0000
0001
0000
1000
,
0000
0000
1000
0100
0001
0000
0100
0000
0010
0000
0100
0000
1000
0000
0000
0000
,
0001
0000
0010
0000
0100
0000
1000
0001
,
0011
0000
0101
0000
,
1010
0000
0000
0000
1000
0000
0010
0000
0100
0000
0010
1000
0001
0000
0000
0000
,
0010
0100
0010
0000
0001
0000
0100
0000
0010
0100
0010
0000
1000
0000
0001
0000
,
0010
0100
0010
0000
0001
1000
0010
0000
0100
0000
0010
0100
0010
1000
0010
0000
,
1000
0100
0010
0000
0001
0010
0100
0000
0001
0100
0010
0000
0001
0000
0100
0000
,
0010
0100
0001
0000
0010
0100
1000
0000
1000
0000
0010
0100
0001
1000
0010
1000
,
0100
0010
0100
0000
0010
0000
0001
0000
1000
0001
0100
0000
0001
0000
0100
0000
,
0100
0010
1000
0000
1000
0010
0100
0000
0001
0000
1000
0100
0010
0100
1000
0000
,
0001
0100
0010
0000
0100
0010
1000
0000
1000
0010
0100
0000
1000
0000
0100
0000
,
0010
1000
0100
0000
0010
0001
0010
0000
0001
0000
0010
0100
1000
0100
0010
0001
,
0010
0100
0010
0100
0000
0000
1000
0001
,
1000
0001
0010
0001
1000
0010
0000
0000
,
0100
0010
0100
0010
0000
0010
1000
0000
,
0000
0110
0000
0000
0011
0000
0000
0101
,
0000
0000
0110
0100
1000
0100
0010
0100
,
0001
0010
0010
1000
0010
0100
0010
0001
,
0010
0000
0010
0001
0010
0000
0001
1000
0010
0000
1000
0001
0010
0000
0001
1000
,
0100
0000
0010
0100
0010
0000
0001
1000
0001
0000
0100
0010
0100
0000
0001
0000
,
0010
0200
0000
0310
,
0020
0000
0000
0031
0010
0000
0001
0000
,
0020
0000
0000
0130
2000
0000
0000
3000
,
1000
0010
0100
0000
0020
0000
0000
0031
,
0010
0000
0100
0001
0100
0000
0001
0000
,
0020
0000
0000
0130
0010
0000
0000
0000
,
0000
1100
0100
0000
,
0010
0000
0001
0000
,
0100
0000
0010
1000
,
0100
0010
0001
0020
,
0130
0000
0000
0000
0010
0000
0001
0100
0010
0000
0100
0000
0001
1000
0010
0000
,
1000
0000
0001
0010
0100
0000
0010
0000
0001
1000
0001
0000
1000
0000
0010
0100
,
0010
0000
0100
0000
0001
0010
0100
0000
0010
0000
0001
0010
0001
0000
1000
0000
,
0010
1000
0010
0000
0100
0000
0010
0000
0010
0000
1000
0000
0100
0000
0100
0000
,
1000
0001
0010
2000
0000
3010
0001
0001
,
0100
0010
0010
1000
0001
0010
0100
0001
,
0100
1000
0010
0000
1000
0000
0000
0000
,
0010
1000
0000
0010
,
1000
0100
0010
1000
,
0000
1000
0010
0000
,
0010
0001
0100
0110
,
0000
0000
0101
0000
,
0000
1100
0000
0000
;

//---------------dance-single - ----------------
#NOTES:
     dance-single:
     :
     Medium:
     7:
     0.386469,0.464821,0.238501,0.040886,0.034072,397.000000,362.000000,35.000000,6.000000,0.000000,0.000000,0.386469,0.464821,0.238501,0.040886,0.034072,397.000000,362.000000,35.000000,6.000000,0.000000,0.000000:
1000
1000
0000
0010
,
0010
0000
1000
1000
,
0001
0010
0010
0000
,
0001
0001
0000
0010
,
0010
0000
0100
0100
,
0001
0100
0100
0000
,
1000
1000
0000
0100
,
0100
0000
1000
1000
,
0001
0100
0100
0010
,
1000
0001
1000
0100
,
0010
0100
0010
0001
,
0100
0000
0000
0010
0000
0000
0100
0010
0100
0010
0000
0000
,
0100
0001
1000
0001
,
0010
0100
0010
0100
,
0010
0001
0100
0000
0100
0001
1000
0000
,
0001
0010
0000
0100
,
1000
0100
1000
0100
0000
0000
0010
0000
0000
0100
0000
0000
,
0000
0000
0000
0010
0000
0000
0001
0000
0000
0000
0000
0000
0100
0000
0001
0000
0100
0000
0001
0000
0010
0000
0001
0000
,
0010
0000
0100
0000
0010
0001
1000
0000
,
0010
0100
0010
0100
0000
0000
0010
0000
0000
1000
0000
0000
,
0001
0010
0010
0001
,
0010
0001
1000
0000
0001
1000
0010
0100
,
0010
0100
0000
0010
1000
0100
0010
0000
,
0100
0010
0001
0000
0011
0000
0010
0000
,
0100
0000
0010
0001
0010
0000
0001
0000
,
1000
0010
1000
0000
0001
0000
1000
0000
,
0001
0020
0000
0130
,
0110
0000
0001
1001
,
1000
0000
0010
0000
0110
0100
0001
0010
,
0100
0010
0100
1000
0010
0100
0001
0010
,
0100
0000
0100
0010
0000
0010
0001
1000
,
0010
0100
0000
0000
0110
0100
0010
1000
,
0100
0010
0100
0001
0100
0010
0000
0000
,
0011
0000
0000
1010
0000
0000
0011
0001
,
0100
0010
0000
0000
0100
0010
1000
0100
,
0000
0000
0010
0001
0010
0001
0000
0000
,
1010
0000
0110
0000
0101
0001
0010
0100
,
0010
0001
0011
0000
0000
0000
0000
0000
,
0000
0000
0000
0010
,
0001
0000
1000
0000
0010
0000
0100
0010
,
1000
0000
1100
0000
,
0110
0000
0000
0000
0010
0001
0010
0000
,
0001
0000
0101
0000
0100
0001
1000
0000
,
1100
0000
0100
0000
0010
0001
0010
0000
,
0110
0100
0010
1001
,
1000
0010
0100
0000
0010
0000
0101
0000
,
0100
0001
0010
0000
0001
0000
1010
0000
,
1000
0010
0100
0000
0010
0000
0110
0000
,
0100
0001
0100
0000
0010
0000
1001
0000
,
0001
1000
0100
0000
0010
0000
0011
0000
,
0001
0010
0001
0010
0000
0000
0100
1000
,
0100
1000
0010
0100
0010
0100
0000
0000
,
0001
1000
0001
1000
0000
1000
0100
0000
,
0010
0001
0000
0001
0100
0000
0001
0010
,
0100
0010
0011
0000
0001
0000
0100
0000
,
0010
0110
0100
0001
,
1000
1100
0100
0010
,
0001
1001
1000
0010
,
0100
0120
0000
0130
,
0020
0000
0000
0130
0001
0000
0010
0000
,
0020
0000
0000
0130
0010
0000
0000
0000
,
0000
0000
0010
0000
0200
0000
0000
0310
,
0100
0000
0000
0100
,
2000
0000
0000
3100
0010
0000
0000
0000
,
0000
0101
0100
0010
,
0110
0100
0001
0010
,
0001
0000
0110
0000
0000
0000
0000
0110
,
0000
0000
0001
0000
0000
1000
0000
0000
,
0010
0000
1000
0100
0010
0001
0100
0010
,
1000
0001
0010
0100
0000
0100
0010
0100
,
1000
0001
0100
0010
0001
0010
0100
0010
,
0000
0010
1000
0100
1000
0001
0100
0001
,
0010
0100
0010
0001
0000
0001
0100
0010
,
1000
0100
0010
0100
0001
0100
0010
0001
,
0010
0001
1000
0000
1000
0000
0000
0000
,
0001
0001
0000
1000
,
1000
0010
0100
0100
,
0000
0010
0010
0000
,
0100
0100
0001
0101
,
0000
0000
1010
0000
,
0000
0011
0000
0000
;

//---------------dance-single - ----------------
#NOTES:
     dance-single:
     :
     Easy:
     5:
     0.329034,0.464821,0.190801,0.047700,0.000000,338.000000,310.000000,28.000000,7.000000,0.000000,0.000000,0.329034,0.464821,0.190801,0.047700,0.000000,338.000000,310.000000,28.000000,7.000000,0.000000,0.000000:
// measure 0
0001
0100
0000
0100
,  // measure 1
0001
0000
0100
0001
,  // measure 2
0010
0001
0100
0000
,  // measure 3
0010
0100
0001
0100
,  // measure 4
0010
0000
0100
0010
,  // measure 5
1000
0100
0010
0000
,  // measure 6
0100
0010
0000
0010
,  // measure 7
0100
0000
0100
1000
,  // measure 8
0010
1000
0001
0010
,  // measure 9
0002
0000
0000
0013
0000
0000
0020
0000
,  // measure 10
0100
0030
0010
0000
1000
0000
0010
0000
,  // measure 11
0001
2000
0000
3010
,  // measure 12
0200
0000
0010
0300
0100
0000
0002
0000
,  // measure 13
0010
0003
0001
0000
1000
0000
0010
0000
,  // measure 14
0100
0000
0110
0000
0100
0010
0100
0000
,  // measure 15
0101
0000
0000
0000
0000
0100
0001
0000
,  // measure 16
1000
0100
0110
0000
,  // measure 17
0000
0010
0001
0000
0010
0000
0100
0000
,  // measure 18
0110
0000
0000
0000
0000
0010
0001
0000
,  // measure 19
0001
1000
1010
0000
,  // measure 20
0000
0010
1000
0000
1000
0000
0001
0000
,  // measure 21
1001
1000
0010
0200
,  // measure 22
0000
0310
0000
0010
0100
0000
0100
0000
,  // measure 23
0001
0010
0000
0000
,  // measure 24
0011
0001
0000
1010
,  // measure 25
1000
0000
0101
0100
,  // measure 26
0001
2000
0000
3100
,  // measure 27
0010
0000
0100
0110
,  // measure 28
0000
0000
0100
0000
0010
0000
0001
0100
,  // measure 29
0000
0010
0100
0000
0100
0010
0000
0010
,  // measure 30
1000
0000
0000
1100
0000
0000
0110
0000
,  // measure 31
0000
0011
0000
0000
0001
0000
1000
0010
,  // measure 32
0000
0100
0001
0000
0010
0100
0000
0100
,  // measure 33
0010
0000
0000
0011
0000
0000
0110
0000
,  // measure 34
0000
1100
0000
0000
1000
0001
1000
0100
,  // measure 35
0000
0000
0100
0010
0100
0010
0000
0010
,  // measure 36
0001
1000
0001
0100
,  // measure 37
0010
0100
0010
0000
0000
0100
0000
0001
,  // measure 38
0000
1000
0100
0010
0001
0100
0100
0000
,  // measure 39
0010
0100
1000
0100
,  // measure 40
0001
0010
0100
1000
0001
0100
0010
1000
,  // measure 41
0001
0010
0001
0100
0010
1000
0100
0001
,  // measure 42
0100
0000
0010
0000
0100
0010
0001
0000
,  // measure 43
0100
0000
0010
0000
0100
0001
1000
0000
,  // measure 44
0100
0000
0010
0000
0100
1000
0001
0000
,  // measure 45
0100
0000
0010
0000
0100
0010
0100
0000
,  // measure 46
0001
0000
1000
0000
0010
0100
0010
0000
,  // measure 47
0100
0000
0001
0000
1000
0010
1000
0000
,  // measure 48
0001
0000
1000
0000
0100
0010
0001
0000
,  // measure 49
1000
0100
0001
0000
0100
0000
0010
0000
,  // measure 50
0001
0000
0000
1000
,  // measure 51
0000
0010
0000
0000
,  // measure 52
0100
0000
0000
0000
0000
0000
0010
1000
,  // measure 53
0010
1000
0000
1000
0100
0000
0000
1100
,  // measure 54
0000
0000
1000
0001
0100
0001
0010
0001
,  // measure 55
1000
0010
0100
0001
0010
0001
1000
0001
,  // measure 56
0010
0100
1000
0001
,  // measure 57
0100
0010
1000
0001
,  // measure 58
0010
0100
0000
0000
,  // measure 59
0010
0000
0000
0100
0010
0000
0001
0000
,  // measure 60
0100
0000
0000
0100
0010
0000
0000
0000
,  // measure 61
0000
0000
0100
0000
0000
0000
0000
0100
,  // measure 62
0010
0000
0000
1000
,  // measure 63
0000
0000
0000
1000
0001
0000
0000
0000
,  // measure 64
0000
0010
0110
0000
,  // measure 65
1001
0000
0011
0000
,  // measure 66
0101
0000
1010
0010
,  // measure 67
1000
0100
0010
0100
,  // measure 68
1000
0000
1010
0000
0010
1000
0000
1000
,  // measure 69
0001
0000
0010
0100
0000
0000
0110
0000
,  // measure 70
0010
0001
0000
0001
1000
0000
0010
1000
,  // measure 71
0000
0000
1001
0000
0000
1000
0000
1000
,  // measure 72
0010
0000
0100
0001
0000
0001
1000
0000
,  // measure 73
1000
0010
0000
1000
0001
0000
0001
0010
,  // measure 74
0100
0010
0100
0000
0010
0000
0000
0000
,  // measure 75
0010
0100
0000
0100
,  // measure 76
0010
0001
0100
0010
,  // measure 77
0000
1000
0010
0000
,  // measure 78
0010
1000
0001
0110
,  // measure 79
0000
0000
0101
0000
,  // measure 80
0000
1001
0000
0000
;
