#TITLE:ROTARY DIAL;
#SUBTITLE:;
#ARTIST:GHOST;
#TITLETRANSLIT:;
#SUBTITLETRANSLIT:;
#ARTISTTRANSLIT:;
#GENRE:;
#CREDIT:;
#BANNER:[Round 3] - ROTARY DIAL.png;
#BACKGROUND:[Round 3] - ROTARY DIAL-bg.png;
#LYRICSPATH:[Round 3] - ROTARY DIAL.lrc;
#CDTITLE:;
#MUSIC:[Round 3] - ROTARY DIAL.mp3;
#OFFSET:-0.088155;
#SAMPLESTART:90.852654;
#SAMPLELENGTH:12.800003;
#SELECTABLE:YES;
#BPMS:0.000000=149.993286
;
#STOPS:
;
#BGCHANGES:32.250=[Round 3] - ROTARY DIAL.avi=1.000=1=0=1===CrossFade==,
322.750=[Round 3] - ROTARY DIAL-bg.png=1.000=0=0=1=====,
99999=-nosongbg-=1.000=0=0=0 // don't automatically add -songbackground-
;
#KEYSOUNDS:;
#ATTACKS:;

//---------------dance-single - ----------------
#NOTES:
     dance-single:
     :
     Hard:
     9:
     0.626528,0.646700,0.465265,0.144919,0.141105,575.000000,514.000000,61.000000,19.000000,0.000000,0.000000,0.626528,0.646700,0.465265,0.144919,0.141105,575.000000,514.000000,61.000000,19.000000,0.000000,0.000000:
0000
0000
0000
0000
,
0000
0000
0000
0000
,
0000
0000
0000
0000
,
0000
0000
0000
0000
,
1000
0000
0000
1000
0010
0000
1000
0000
0001
0000
0000
0001
0010
0000
0001
0000
,
1000
0000
0000
1000
0100
0000
1000
0000
0001
0000
0100
0000
1000
0000
0100
0000
,
0001
0000
0000
0001
0100
0000
0001
0000
1000
0000
0000
1000
0100
0000
1000
0000
,
0001
0000
0000
0001
0100
0000
0001
0000
1000
0000
0100
0000
0001
0000
0100
0000
,
1000
0100
1000
0100
1000
0000
0001
1000
0001
0000
0100
0000
0101
0000
0000
0000
,
0001
0000
0000
0001
0100
0000
0010
0000
1000
0000
0010
0000
0001
0000
0010
0000
,
1000
0010
1000
0010
1000
0000
0001
1000
0001
0000
0010
0000
0011
0000
0000
0000
,
0001
0000
0000
0001
0010
0000
0100
0000
1000
0000
0100
0000
0001
0000
0100
0000
,
0010
0001
0010
0001
0010
0000
0001
1000
0001
0000
1000
0000
1010
0000
0000
0000
,
1000
0000
0000
1000
0010
0000
0100
0000
0001
0000
0100
0000
1000
0000
0100
0000
,
0001
0100
0001
0100
0001
0000
1000
0001
1000
0000
0100
0000
0110
0000
0000
0000
,
0100
0000
0000
0100
0010
0000
0001
0000
1000
0000
0010
0000
0001
0000
0010
0000
,
1000
0010
1000
0001
1000
0100
1100
0000
,
1000
0000
0000
1000
0100
0000
0010
0000
0001
0000
0001
0000
0010
0000
0001
0000
,
1000
0000
0010
0000
0001
0010
1000
0001
,
0100
0000
0101
0000
1000
0100
1100
1000
,
0100
0100
0010
0010
0001
0001
0011
0000
,
0001
0000
0000
0001
1000
0000
0010
0000
0100
0000
0100
0000
0010
0000
0100
0000
,
0001
0000
0000
0000
0100
0000
0000
0000
0001
0100
0001
0000
1000
0000
0100
0000
,
1000
0000
1100
1000
0001
0000
0101
0000
,
1000
0010
1000
0001
1000
0100
0010
0010
,
0001
0010
0001
1000
0001
0100
0010
0010
,
1000
0010
0100
0001
,
0010
0000
0000
0000
0010
0000
0000
0000
0010
0000
0100
1000
0100
0000
1000
0000
,
0010
0010
0010
0010
,
0100
0000
0100
0000
0001
0100
0001
0100
,
0102
1003
2001
3100
,
1200
0320
0032
1003
,
0001
0000
0100
0010
1000
0000
0001
0000
1000
0000
0100
0000
0001
0000
0100
0000
,
1000
0000
0100
0010
0001
0000
1000
0000
0001
0000
0100
0000
1000
0000
0100
0000
,
0001
0100
0001
1000
0100
0000
0010
0000
0001
0000
0010
0000
1000
0000
0010
0000
,
0001
0000
1000
0001
1000
0000
0001
0000
1000
0000
0010
0000
0001
0000
0010
0000
,
1000
0000
1010
0000
0010
1000
1001
0000
,
1000
0000
0000
1000
0001
0000
1000
0000
0001
0000
0100
0000
1000
0000
0100
0000
,
0001
0000
0011
0000
0001
1000
1001
0000
,
0001
0000
0000
0001
1000
0000
0001
0000
1000
0000
0010
0000
0001
0000
0010
0000
,
1000
0100
0010
0100
0001
0100
0010
0100
,
2000
0000
3100
1000
0002
0000
0103
0000
,
0001
0100
0010
0100
1000
0100
0010
0100
,
0002
0000
0103
0010
2000
0000
3001
0000
,
1000
1000
0100
0100
0010
0000
0100
0010
,
0001
0000
1000
0010
0100
0100
0001
0000
,
0020
0000
0130
1000
0020
0000
0130
0001
,
0020
0000
0130
1000
0020
0000
0130
0001
,
1000
0010
0100
0010
0001
0010
0100
0010
,
1000
0010
0100
0001
1000
0000
1001
0001
,
1000
1000
0100
0100
0001
0001
0100
0100
,
1000
0100
0010
0001
1000
0000
1001
1000
,
0001
0010
0100
0010
1000
0010
0100
0010
,
0001
0010
0100
1000
0001
0000
1001
1000
,
0001
0001
0100
0100
1000
1000
0100
0100
,
0001
0100
0001
1000
,
0001
0000
0010
0000
0100
0000
1000
0010
,
1000
1010
1001
0011
,
0001
0000
0010
0000
1000
0000
0010
0000
0001
0000
0000
0001
0010
0000
0100
0000
,
1000
1100
0001
0101
,
1000
1000
1010
0000
0001
0001
0011
0000
,
0001
0010
1000
0001
0100
1000
0002
0000
,
1003
0010
0001
1000
0100
0001
2000
0000
,
3200
0000
0000
0000
0310
0000
0001
0010
0001
0000
1000
0000
0010
0000
0000
0000
,
0110
0000
0100
0001
1000
0100
0010
0000
,
0011
1001
1010
0110
,
0001
0000
0100
0000
1000
0000
0100
0000
0001
0000
0000
0001
0100
0000
0010
0000
,
1000
1010
0001
0011
,
1000
1000
1100
0000
0001
0001
0101
0000
,
1000
0010
0001
1000
0100
0001
2000
0000
,
3001
0010
1000
0001
0100
1000
0002
0000
,
2003
0000
0000
0000
3100
0000
0010
0100
0010
0000
0001
0000
0100
0000
0000
0000
,
0110
0000
0100
0001
1000
0100
0010
0000
,
0011
1001
1010
0110
,
0101
0000
1001
0000
1000
0100
0001
0100
,
1000
1100
0110
0011
,
1001
0000
1010
0000
0010
0100
0010
0000
,
0101
1001
1100
0110
,
0011
0000
1001
0000
0001
0010
1000
0010
,
0001
0011
1001
1010
,
0101
1001
1100
0110
;

//---------------dance-single - ----------------
#NOTES:
     dance-single:
     :
     Medium:
     7:
     0.433666,0.492724,0.221192,0.213564,0.022882,398.000000,369.000000,29.000000,28.000000,0.000000,0.000000,0.433666,0.492724,0.221192,0.213564,0.022882,398.000000,369.000000,29.000000,28.000000,0.000000,0.000000:
0000
0000
0000
0000
,
0000
0000
0000
0000
,
0000
0000
0000
0000
,
0000
0000
0000
0000
,
0002
0013
0020
0130
,
0200
0000
1300
0000
1000
0100
0010
0001
,
2000
3010
0020
0130
,
0200
0000
0301
0000
0001
0100
0010
1000
,
0001
0000
0010
0000
0100
0010
0100
0000
,
1000
0000
0000
1000
0100
0000
1000
0000
0001
0000
0000
0000
0001
0000
0000
0000
,
1000
0000
0001
0000
0100
0001
0100
0000
,
0010
0000
0000
0010
0100
0000
0010
0000
1000
0000
0000
0000
1000
0000
0000
0000
,
0001
0000
0100
0000
0010
0100
0010
0000
,
1000
0000
0000
1000
0010
0000
1000
0000
0100
0000
0000
0000
0100
0000
0000
0000
,
0010
0000
0001
0000
1000
0001
1000
0000
,
0010
0000
0000
0010
0100
0000
0001
0000
1000
0000
0000
0000
1000
0000
0000
0000
,
0001
0000
0010
0000
1000
0010
0001
0000
,
0010
0000
0100
0000
1000
0100
1000
0000
,
0001
0000
0100
0000
0010
0100
0010
1000
,
0002
0000
0003
0000
1000
0001
1000
0000
,
1010
0110
0101
1001
,
1000
0000
0010
0000
0001
0010
1000
0000
,
0001
0000
0010
0000
0100
1000
0001
0000
,
0102
1003
2100
3001
,
1000
0100
0010
0010
,
0001
0000
1000
0000
0010
1000
0010
0000
,
0100
0100
0001
0001
,
1000
0001
2002
3003
,
0001
0001
0010
0010
,
0100
0000
0100
0000
1000
0100
1000
0100
,
2000
3000
0002
0003
,
0200
0320
2030
3002
,
1003
0000
1000
0000
0100
0100
0100
0000
,
0010
0000
0001
0000
0100
0001
0100
0001
,
0100
0000
0010
0000
1000
1000
1000
0000
,
0001
0000
0010
0000
0100
0010
0100
0010
,
0100
0000
1100
0000
1000
1000
1100
0000
,
0100
0000
0000
0100
1000
0000
0001
0000
0100
0000
0000
0000
0100
0000
0000
0000
,
0001
0000
0101
0000
0100
0100
0110
0000
,
0010
0000
0000
0010
0100
0000
0010
0000
1000
0000
0000
0000
1000
0000
0000
0000
,
0001
0100
0001
1000
,
0001
0000
0010
0100
1000
0000
0001
0000
,
1000
0010
0001
0100
,
1000
0000
0100
0010
0001
0000
1000
0000
,
0001
0001
0010
0010
,
0100
0000
1000
0000
0001
1000
0001
0000
,
0200
0000
0301
0100
0020
0000
0130
0010
,
2000
0000
3010
1000
0002
0000
1003
0001
,
1000
0100
0001
0100
,
1000
0100
0010
0001
2000
0000
3000
0000
,
0001
0100
1000
0100
,
0001
0100
0010
1000
0002
0000
0003
0000
,
1000
0010
0001
0010
,
1000
0010
0100
0001
2000
0000
3000
0000
,
0001
0010
1000
0010
,
0001
0010
0100
1000
,
0001
0000
0001
0000
0001
0000
1000
0001
,
1000
0100
0010
0001
,
0001
0010
0100
1000
0001
0000
1000
0010
,
0100
0110
0001
0101
,
1000
0100
1000
0000
0001
0100
0001
0000
,
1000
0000
0010
0000
0100
0100
0100
0000
,
0001
0000
0010
0000
0100
0100
0100
0000
,
1100
0000
0011
0000
0001
1000
0001
0000
,
2002
0000
3003
0000
1000
0010
0100
0000
,
0001
0100
0010
1000
,
1000
0010
0100
0001
1000
0000
0001
0010
,
0100
0110
0010
0110
,
0100
0010
0001
0000
0100
0010
1000
0000
,
1010
0000
1001
0000
0001
1000
0001
0000
,
0011
0000
0110
0000
0010
0100
0010
0000
,
0110
0000
1100
0000
1000
0001
1000
0000
,
2002
0000
3003
0000
0001
0100
0010
0000
,
1000
0010
0001
0010
,
1000
0010
0100
0101
,
0001
0010
1000
0010
,
0001
0010
0100
1100
,
1000
0100
0001
0100
,
1000
0100
0010
0011
,
0001
0100
1000
0100
,
0001
0100
0010
1010
;

//---------------dance-single - ----------------
#NOTES:
     dance-single:
     :
     Easy:
     5:
     0.314899,0.369543,0.137291,0.106782,0.000000,289.000000,271.000000,18.000000,14.000000,0.000000,0.000000,0.314899,0.369543,0.137291,0.106782,0.000000,289.000000,271.000000,18.000000,14.000000,0.000000,0.000000:
0000
0000
0000
0000
,
0000
0000
0000
0000
,
0000
0000
0000
0000
,
0000
0000
0000
0000
,
0001
0100
0001
1000
,
0001
0010
0100
0100
,
1000
0100
1000
0001
,
1000
0010
0100
0100
,
0001
0000
1000
0000
,
0100
0000
1000
0100
,
0010
0000
0001
0000
,
1000
0000
0001
1000
,
0010
0000
0100
0000
,
0001
0000
0100
0001
,
1000
0000
0100
0000
,
0010
0000
0100
0010
,
0001
0010
0001
0001
,
1000
0001
1000
1000
,
0010
0000
0010
0000
,
0100
0000
0010
0010
,
0100
0001
0100
0101
,
0010
1000
0010
1010
,
1000
1000
0001
0001
,
0011
0000
1100
0000
,
1000
0100
1000
0100
,
0010
0001
0010
0001
,
1000
1000
1000
1000
,
0001
0001
0001
0000
,
0100
0001
0100
0001
,
1000
0010
1000
0010
,
1000
0000
1000
0000
,
0001
0001
0001
0000
,
1000
1000
0100
0000
,
0010
0010
0001
0010
,
0001
0001
1000
0000
,
0010
0010
1000
0010
,
0100
0100
0001
0000
,
0100
0100
0001
1000
,
0001
0001
0010
0000
,
0100
0100
1000
0001
,
1000
0010
0100
0001
,
0102
1003
2010
3001
,
1000
0100
0010
0001
,
0012
1003
2100
3001
,
1000
1000
0100
0100
,
0020
0032
2003
3002
,
0103
0100
0010
0010
,
1000
1000
0001
0001
,
1000
1000
1000
1000
,
0010
1000
2020
3030
,
0001
0001
0001
0001
,
0010
0001
0022
0033
,
1000
1000
1000
1000
,
0100
1000
2200
3300
,
0001
0001
0001
0001
,
0100
0001
1000
0001
,
1001
0000
0000
0000
,
1000
0100
1000
0001
,
1000
0010
0100
0001
,
1000
1000
0001
0001
,
1001
0000
0110
0000
,
0001
0010
0100
0100
,
0010
0100
1000
1000
,
0001
0001
1000
1000
,
1001
0000
0001
1000
,
0001
0010
0001
1000
,
0001
0100
0010
1000
,
0100
0100
0010
0010
,
0110
0000
1001
0000
,
1000
0100
0010
0010
,
0100
0010
0001
0001
,
0010
0010
0001
0001
,
1001
0000
1000
0010
,
0100
0100
0010
0010
,
1000
1000
0001
0001
,
0010
0010
0100
0100
,
1000
1000
0100
1000
,
0010
0010
0100
0100
,
0001
0001
1000
1000
,
0100
0100
0010
0010
,
0001
0001
1000
1000
;

//---------------dance-single - ----------------
#NOTES:
     dance-single:
     :
     Beginner:
     2:
     0.177607,0.214899,0.000000,0.000000,0.000000,163.000000,163.000000,0.000000,0.000000,0.000000,0.000000,0.177607,0.214899,0.000000,0.000000,0.000000,163.000000,163.000000,0.000000,0.000000,0.000000,0.000000:
0000
0000
0000
0000
,
0000
0000
0000
0000
,
0000
0000
0000
0000
,
0000
0000
0000
0000
,
1000
0000
1000
0000
,
1000
0000
1000
0000
,
0010
0000
0010
0000
,
0010
0000
0010
0000
,
0100
0000
0100
0000
,
0100
0000
0001
0001
,
0001
0000
0001
0000
,
0001
0000
1000
1000
,
1000
0000
1000
0000
,
1000
0000
0100
0100
,
0100
0000
0100
0000
,
0100
0000
0010
0010
,
0010
0000
0010
0000
,
0001
0001
0001
0000
,
1000
0000
1000
0000
,
1000
0000
0000
0000
,
0001
0001
0001
0000
,
0100
0100
0100
0000
,
0010
0000
0010
0000
,
1000
0000
1000
0000
,
0001
0000
0000
0000
,
0001
0000
0000
0000
,
1000
0000
1000
0000
,
1000
1000
1000
0000
,
0100
0000
0000
0000
,
0100
0000
0000
0000
,
0010
0000
0010
0000
,
0010
0000
0010
0000
,
0001
0000
0000
0000
,
0001
0000
0100
0000
,
0001
0000
0000
0000
,
1000
0000
0010
0000
,
1000
0000
0000
0000
,
0100
0000
1000
0000
,
0100
0000
0000
0000
,
0010
0000
0001
0000
,
1000
0000
1000
0000
,
1000
1000
1000
0000
,
0001
0000
0001
0000
,
0001
0001
0001
0000
,
0100
0000
0100
0000
,
0010
0010
0010
0000
,
1000
0000
1000
0000
,
1000
0000
1000
0000
,
0001
0000
0001
0000
,
0001
0000
0001
0000
,
1000
0000
1000
0000
,
1000
0000
1000
0000
,
0100
0000
0100
0000
,
0100
0000
0100
0000
,
0010
0000
0010
0000
,
0010
0000
0010
0000
,
0010
0000
0000
0000
,
0001
0000
1000
0000
,
0010
0010
0010
0000
,
0100
0000
0001
0000
,
1000
0000
1000
0000
,
0100
0100
0100
0000
,
0010
0010
0010
0000
,
0001
0000
0100
0000
,
0001
0000
1000
1000
,
1000
0000
0001
0000
,
0010
0010
0010
0000
,
0100
0000
1000
0000
,
0010
0000
0010
0000
,
0100
0100
0100
0000
,
0001
0001
0001
0000
,
1000
0000
1000
0000
,
0001
0000
0001
0001
,
0001
0000
0001
0000
,
0001
0000
0001
0000
,
1000
0000
1000
0000
,
1000
0000
1000
0000
,
0100
0000
0100
0000
,
0100
0000
0100
0000
,
0010
0000
0010
0000
,
0010
0000
0010
0000
;
