#VERSION:0.83;
#TITLE:Ashley's Song;
#SUBTITLE:;
#ARTIST:insaneintherainmusic feat. Adrisaurus & Thunderscott;
#TITLETRANSLIT:;
#SUBTITLETRANSLIT:;
#ARTISTTRANSLIT:;
#GENRE:;
#ORIGIN:;
#CREDIT:;
#BANNER:[Round 3] - Ashley's Song.png;
#BACKGROUND:[Round 3] - Ashley's Song-bg.png;
#PREVIEWVID:;
#JACKET:[Round 3] - Ashley's Song-jacket.png;
#CDIMAGE:;
#DISCIMAGE:;
#LYRICSPATH:[Round 3] - Ashley's Song.lrc;
#CDTITLE:cdtitle.png;
#MUSIC:[Round 3] - Ashley's Song.ogg;
#OFFSET:0.000000;
#SAMPLESTART:23.739130;
#SAMPLELENGTH:16.695654;
#SELECTABLE:YES;
#BPMS:0.000=230.000,
248.000=200.000,
260.000=175.000,
261.000=160.000,
262.000=150.000,
263.000=141.000,
269.000=230.000;
#STOPS:281.000=0.522;
#DELAYS:;
#WARPS:;
#TIMESIGNATURES:0.000=4=4,
248.000=3=4,
269.000=4=4,
281.000=2=4,
283.000=4=4;
#TICKCOUNTS:0.000=4;
#COMBOS:0.000=1;
#SPEEDS:0.000=1.000=0.000=0,
269.000=1.631=4.000=0;
#SCROLLS:0.000=1.000,
269.000=0.613;
#FAKES:;
#LABELS:0.000=Song Start;
#BGCHANGES:;
#KEYSOUNDS:;
#ATTACKS:
;

//---------------dance-single - ----------------
#NOTEDATA:;
#CHARTNAME:C 02 X 03;
#STEPSTYPE:dance-single;
#DESCRIPTION:;
#CHARTSTYLE:;
#DIFFICULTY:Beginner;
#METER:2;
#RADARVALUES:0.091973,0.185275,0.035767,0.092995,0.000000,90.000000,85.000000,5.000000,13.000000,0.000000,0.000000,0.000000,0.000000,0.000000,0.091973,0.185275,0.035767,0.092995,0.000000,90.000000,85.000000,5.000000,13.000000,0.000000,0.000000,0.000000,0.000000,0.000000;
#CREDIT:vincentw;
#NOTES:
// measure 0
0000
0000
0000
0000
,  // measure 1
0000
0000
0000
0000
,  // measure 2
0000
0000
0000
0000
,  // measure 3
0000
0000
0000
0000
,  // measure 4
0000
0000
0000
0000
,  // measure 5
0000
0000
0000
0000
,  // measure 6
0000
0000
0000
0000
,  // measure 7
0000
0000
0000
0000
,  // measure 8
0000
0000
0000
0000
,  // measure 9
0001
0000
0000
0000
,  // measure 10
0001
0000
0000
0000
,  // measure 11
2000
0000
0000
3000
,  // measure 12
0000
0000
0000
0000
,  // measure 13
0000
0000
0000
0000
,  // measure 14
0000
0000
0000
0000
,  // measure 15
0010
0000
0000
0000
,  // measure 16
0010
0000
0000
0000
,  // measure 17
0000
0000
0200
0000
,  // measure 18
0000
0000
0000
0000
,  // measure 19
0000
0000
0000
0000
,  // measure 20
0000
0000
0300
0000
,  // measure 21
0000
0000
0000
0000
,  // measure 22
0000
0000
0000
0000
,  // measure 23
0001
0000
0000
0000
,  // measure 24
0000
0000
0000
0000
,  // measure 25
1000
0000
0000
0000
,  // measure 26
0000
0000
0000
0000
,  // measure 27
0010
0000
0000
0000
,  // measure 28
0000
0000
0000
0000
,  // measure 29
0200
0000
0000
0300
,  // measure 30
0000
0000
0000
0000
,  // measure 31
0001
0000
0000
0000
,  // measure 32
0000
0000
0000
0000
,  // measure 33
1000
0000
0000
0000
,  // measure 34
0000
0000
0000
0000
,  // measure 35
0100
0000
0000
0000
,  // measure 36
0100
0000
0000
0000
,  // measure 37
0200
0000
0000
0300
,  // measure 38
0000
0000
0000
0000
,  // measure 39
0010
0000
0000
0000
,  // measure 40
0000
0000
0000
0000
,  // measure 41
0100
0000
0000
0000
,  // measure 42
0000
0000
0000
0000
,  // measure 43
1000
0000
0000
0000
,  // measure 44
1000
0000
0000
0000
,  // measure 45
0002
0000
0000
0003
,  // measure 46
0000
0000
0000
0000
,  // measure 47
1000
0000
0000
0000
,  // measure 48
0000
0000
0000
0000
,  // measure 49
0001
0000
0000
0000
,  // measure 50
0000
0000
0000
0000
,  // measure 51
0010
0000
0000
0000
,  // measure 52
0010
0000
0000
0000
,  // measure 53
0010
0000
0000
0000
,  // measure 54
0000
0000
0000
0000
,  // measure 55
0000
0110
0000
0000
,  // measure 56
0000
0000
0000
0000
,  // measure 57
0000
1001
0000
0000
,  // measure 58
0000
0000
0000
0000
,  // measure 59
0001
0000
0000
0000
,  // measure 60
0001
0000
0000
0000
,  // measure 61
1000
0000
0000
0000
,  // measure 62
1000
0000
0000
0000
,  // measure 63
0000
0000
0010
0000
,  // measure 64
0000
0010
0000
0000
,  // measure 65
0200
0000
0000
0300
,  // measure 66
0000
0000
0000
0000
,  // measure 67
0000
0000
0000
0000
,  // measure 68
0000
0001
0000
0000
,  // measure 69
0000
1000
0000
0000
,  // measure 70
0000
1001
0000
0000
,  // measure 71
0000
0000
0000
0001
,  // measure 72
0000
0000
0000
0001
,  // measure 73
0000
0000
0000
2000
,  // measure 74
0000
0000
0000
0000
0000
3000
0000
0000
,  // measure 75
0000
0000
0000
0010
,  // measure 76
0000
0000
0000
0010
,  // measure 77
0000
0000
0000
0200
,  // measure 78
0000
0000
0000
0000
0000
0300
0000
0000
,  // measure 79
0000
0000
0000
0002
,  // measure 80
0000
0003
0000
0000
,  // measure 81
0000
0000
0000
2000
,  // measure 82
0000
3000
0000
0000
,  // measure 83
0000
0000
0000
0100
,  // measure 84
0000
0000
0000
0100
,  // measure 85
0000
0000
0000
0020
,  // measure 86
0000
0000
0030
0000
,  // measure 87
0000
0000
0000
0110
,  // measure 88
0000
0000
0000
0000
,  // measure 89
0000
0000
0000
0001
,  // measure 90
0000
0000
0000
0001
,  // measure 91
0000
0000
0000
1000
,  // measure 92
0000
0000
0000
0001
,  // measure 93
0000
0000
0000
0010
,  // measure 94
0000
0000
0000
0010
,  // measure 95
0000
0000
0000
0001
,  // measure 96
0000
0000
0000
0010
,  // measure 97
0000
0000
0000
0100
,  // measure 98
0000
0000
0000
0100
,  // measure 99
0000
0000
0000
0010
,  // measure 100
0000
0000
0000
0100
,  // measure 101
0000
0000
0000
2000
,  // measure 102
0000
0000
0000
3000
,  // measure 103
0000
0000
0000
0002
,  // measure 104
0000
0000
0000
0003
,  // measure 105
0000
0000
0000
0001
,  // measure 106
0000
0000
0000
1000
,  // measure 107
0000
0000
0000
0001
,  // measure 108
0000
0000
0000
1000
,  // measure 109
0000
0000
0000
0001
,  // measure 110
0000
0000
0000
0100
,  // measure 111
0000
0000
0000
0001
,  // measure 112
0000
0000
0001
0000
,  // measure 113
0000
0000
0000
1000
,  // measure 114
0000
0000
0000
0010
,  // measure 115
0000
0000
0000
1000
,  // measure 116
0000
0000
0000
0010
,  // measure 117
0000
0000
0000
1000
,  // measure 118
0000
0000
0000
1000
,  // measure 119
0000
0000
0000
1000
,  // measure 120
0000
0000
0000
0000
,  // measure 121
0000
0000
0000
0010
,  // measure 122
0000
0000
0000
0010
,  // measure 123
0000
0000
0000
0010
,  // measure 124
0000
0000
0000
0000
,  // measure 125
0000
0000
0000
0100
,  // measure 126
0000
0000
0000
0100
,  // measure 127
0000
0000
0000
0010
,  // measure 128
0000
0000
0000
0000
,  // measure 129
0000
0000
1001
0000
;

//---------------dance-single - ----------------
#NOTEDATA:;
#CHARTNAME:C 03 X 05;
#STEPSTYPE:dance-single;
#DESCRIPTION:;
#CHARTSTYLE:;
#DIFFICULTY:Easy;
#METER:3;
#RADARVALUES:0.166574,0.324232,0.057228,0.250372,0.000000,163.000000,155.000000,8.000000,35.000000,0.000000,0.000000,0.000000,0.000000,0.000000,0.166574,0.324232,0.057228,0.250372,0.000000,163.000000,155.000000,8.000000,35.000000,0.000000,0.000000,0.000000,0.000000,0.000000;
#CREDIT:vincentw;
#NOTES:
// measure 0
0000
0000
0000
0000
,  // measure 1
0000
0000
0000
0000
,  // measure 2
0000
0000
0000
0000
,  // measure 3
0000
0000
0000
0000
,  // measure 4
0000
0000
0000
0000
,  // measure 5
0000
0000
0000
0000
,  // measure 6
0000
0000
0000
0000
,  // measure 7
0000
0000
0000
0000
,  // measure 8
0000
0000
0000
0000
,  // measure 9
0001
0000
0000
0000
,  // measure 10
1000
0000
0000
0000
,  // measure 11
0001
0000
0000
0002
,  // measure 12
0000
0000
0000
0000
,  // measure 13
2000
0000
0000
0000
,  // measure 14
0000
0000
0000
0000
3000
0003
0000
0000
,  // measure 15
1000
0000
0000
0000
,  // measure 16
0010
0000
0000
0000
,  // measure 17
0000
0000
2020
0000
,  // measure 18
0000
0000
0000
0000
,  // measure 19
0000
0000
0000
0000
,  // measure 20
0000
0000
3030
0000
,  // measure 21
0000
0000
0000
0000
,  // measure 22
0000
0000
0000
0000
,  // measure 23
1000
0000
0000
0000
,  // measure 24
0100
0000
0000
0000
,  // measure 25
1000
0000
0100
0000
,  // measure 26
1000
0000
0000
0000
,  // measure 27
0001
0000
0000
0000
,  // measure 28
0100
0000
0000
0000
,  // measure 29
0002
0000
0000
0203
,  // measure 30
0000
0000
0300
0000
,  // measure 31
0001
0000
0000
0000
,  // measure 32
0010
0000
0000
0000
,  // measure 33
0001
0000
0010
0000
,  // measure 34
0001
0000
0000
0000
,  // measure 35
1000
0000
0010
0000
,  // measure 36
1000
0000
0000
0000
,  // measure 37
0010
0000
0000
2002
,  // measure 38
0000
0000
0000
0000
0000
3003
0000
0000
,  // measure 39
1000
0000
0000
0000
,  // measure 40
0010
0000
0000
0000
,  // measure 41
1000
0000
0001
0000
,  // measure 42
1000
0000
0000
0000
,  // measure 43
0001
0000
0000
0000
,  // measure 44
0100
0000
0000
0000
,  // measure 45
0020
0000
0000
2030
,  // measure 46
0000
0000
3000
0000
,  // measure 47
0010
0000
0000
0000
,  // measure 48
0100
0000
0000
0000
,  // measure 49
0001
0000
1000
0000
,  // measure 50
0001
0000
0000
0000
,  // measure 51
1000
0000
0100
0000
,  // measure 52
0010
0000
0001
0000
,  // measure 53
1000
0000
0000
0000
,  // measure 54
0002
0000
0000
0000
,  // measure 55
0003
1001
0000
0000
,  // measure 56
0100
0000
0010
0000
,  // measure 57
0000
0110
0000
0000
,  // measure 58
0001
0000
1000
0000
,  // measure 59
0001
0000
0100
0000
,  // measure 60
0010
0000
0100
0000
,  // measure 61
0001
0000
1000
0000
,  // measure 62
0001
0000
0000
0000
,  // measure 63
0000
0000
2000
0000
,  // measure 64
0000
3200
0000
0000
,  // measure 65
0320
0000
0000
0032
,  // measure 66
0000
0000
0000
0000
,  // measure 67
0000
0003
0000
0000
,  // measure 68
0000
0010
0000
0010
,  // measure 69
0000
0100
0000
0100
,  // measure 70
0000
0110
0000
2002
,  // measure 71
0000
0000
3003
2000
,  // measure 72
0000
3000
0000
0000
0000
0000
0200
0000
,  // measure 73
0000
0300
0000
0000
0000
0000
0010
0000
,  // measure 74
0000
0000
0020
0000
0000
0030
0000
0000
,  // measure 75
0000
0000
0002
0000
0000
0003
0000
0000
,  // measure 76
0000
0100
0000
0001
,  // measure 77
0000
0100
0000
0010
,  // measure 78
0000
0000
0020
0000
0000
0030
0000
0000
,  // measure 79
0000
0000
0000
1000
,  // measure 80
0000
0000
2000
0000
0000
3000
0000
0000
,  // measure 81
0000
0010
0000
0100
,  // measure 82
0000
0000
0200
0000
0000
0300
0000
0000
,  // measure 83
0000
0000
0002
0000
0000
0003
0000
0000
,  // measure 84
0000
0010
0000
0100
,  // measure 85
0000
0100
0000
2000
,  // measure 86
0000
0000
3200
0000
,  // measure 87
0000
1300
0000
0011
,  // measure 88
0000
0000
0000
1000
,  // measure 89
0000
0000
0000
0001
,  // measure 90
0000
0010
0000
0001
,  // measure 91
0000
0000
0000
0010
,  // measure 92
0000
0001
0000
0010
,  // measure 93
0000
0000
0000
0001
,  // measure 94
0000
0100
0000
0001
,  // measure 95
0000
0000
0000
0100
,  // measure 96
0000
0001
0000
0100
,  // measure 97
0000
0000
0000
0010
,  // measure 98
0000
1000
0000
0010
,  // measure 99
0000
0000
0000
1000
,  // measure 100
0000
0010
0000
1000
,  // measure 101
0000
0000
0000
0200
,  // measure 102
0000
0000
0000
2300
,  // measure 103
0000
0000
0000
3020
,  // measure 104
0000
0000
0000
0230
,  // measure 105
0000
0000
0000
0301
,  // measure 106
0000
0001
0000
0000
0000
0000
0010
0000
,  // measure 107
0000
0010
0000
0000
0000
0000
0100
0000
,  // measure 108
0000
0100
0000
0000
0000
0000
1000
0000
,  // measure 109
0000
1000
0000
0000
0000
0000
0010
0000
,  // measure 110
0000
0010
0000
0000
0000
0000
0100
0000
,  // measure 111
0000
0100
0000
0000
0000
0000
0001
0000
,  // measure 112
0000
2000
0000
0000
0002
0000
0000
0000
,  // measure 113
0000
3003
0000
1000
,  // measure 114
0000
1000
0000
0000
0000
0000
0001
0000
,  // measure 115
0000
1000
0000
0000
0000
0000
0010
0000
,  // measure 116
0000
0010
0000
0000
0000
0000
0100
0000
,  // measure 117
0000
0010
0000
0000
0000
0000
1000
0000
,  // measure 118
0000
0010
0000
0100
,  // measure 119
0000
0001
0000
2000
,  // measure 120
0000
0000
0000
0000
,  // measure 121
0000
0000
3000
0001
,  // measure 122
0000
0010
0000
0100
,  // measure 123
0000
1000
0000
0002
,  // measure 124
0000
0000
0000
0000
,  // measure 125
0000
0000
0003
1000
,  // measure 126
0000
0100
0000
0001
,  // measure 127
0000
0100
0000
1000
,  // measure 128
0000
0000
0000
0000
,  // measure 129
0000
0000
1001
0000
;

//---------------dance-single - ----------------
#NOTEDATA:;
#CHARTNAME:C 05 X 08;
#STEPSTYPE:dance-single;
#DESCRIPTION:;
#CHARTSTYLE:;
#DIFFICULTY:Medium;
#METER:5;
#RADARVALUES:0.284096,0.416869,0.078688,0.278986,0.000000,278.000000,267.000000,11.000000,39.000000,0.000000,0.000000,0.000000,0.000000,0.000000,0.284096,0.416869,0.078688,0.278986,0.000000,278.000000,267.000000,11.000000,39.000000,0.000000,0.000000,0.000000,0.000000,0.000000;
#CREDIT:vincentw;
#NOTES:
// measure 0
0000
0000
0000
0000
,  // measure 1
0000
0000
0000
0000
,  // measure 2
0000
0000
0000
0000
,  // measure 3
0000
0000
0000
0000
,  // measure 4
0000
0000
0000
0000
,  // measure 5
0000
0000
0000
0000
,  // measure 6
0000
0000
0000
0000
,  // measure 7
0000
0000
0000
0000
,  // measure 8
0000
0000
0000
0000
,  // measure 9
0001
0000
0000
1000
0000
1000
0000
0000
,  // measure 10
0001
0000
0000
1000
0000
1000
0000
0000
,  // measure 11
0010
0000
0000
0010
0000
0000
0220
0000
,  // measure 12
0000
0000
0000
0000
,  // measure 13
0000
0000
0000
0000
,  // measure 14
0000
0000
0000
0000
0000
0330
0000
0000
,  // measure 15
1000
0000
0000
0001
0000
0001
0000
0000
,  // measure 16
1000
0000
0000
0001
0000
0001
0000
0000
,  // measure 17
1000
0100
2200
0000
,  // measure 18
0000
0000
0000
0000
,  // measure 19
0000
0000
0000
0000
,  // measure 20
0000
0000
3300
0000
,  // measure 21
1000
0000
0000
1000
0000
0000
1000
0000
,  // measure 22
0001
0000
0100
0000
,  // measure 23
0001
0000
0000
0001
0000
0000
0000
0000
,  // measure 24
0100
0000
0000
0100
0000
0000
0000
0000
,  // measure 25
0010
0000
0000
0010
0000
0000
0000
0000
,  // measure 26
1000
0000
0000
1000
0000
0000
0000
0000
,  // measure 27
0200
0000
0000
0300
,  // measure 28
0020
0000
0000
0030
,  // measure 29
0002
0000
0000
0203
0000
0000
0020
0000
,  // measure 30
0000
0000
0330
0000
,  // measure 31
0100
0000
0000
0010
0000
0000
0000
0000
,  // measure 32
0010
0000
0000
0100
0000
0000
0000
0000
,  // measure 33
0001
0000
0000
1000
0000
0000
0000
0000
,  // measure 34
1000
0000
0000
0001
0000
0000
0000
0000
,  // measure 35
1000
0000
0100
0000
,  // measure 36
0010
0000
0001
0000
,  // measure 37
2000
0000
3000
1002
,  // measure 38
0000
0000
0000
0000
0000
0003
0000
0000
,  // measure 39
1000
0000
0000
1000
0000
0000
0000
0000
,  // measure 40
0001
0000
0000
0100
0000
0000
0000
0000
,  // measure 41
0001
0000
0000
0001
0000
0000
0000
0000
,  // measure 42
1000
0000
0000
0010
0000
0000
0000
0000
,  // measure 43
1000
0000
0000
1000
0000
0000
0000
0000
,  // measure 44
0001
0000
0000
0010
0000
0000
0000
0000
,  // measure 45
0200
0000
0000
2300
0000
0000
0020
0000
,  // measure 46
0000
0000
3030
0000
,  // measure 47
0010
0000
0000
0100
0000
0000
0000
0000
,  // measure 48
0001
0000
0000
0010
0000
0000
0000
0000
,  // measure 49
0100
0000
1000
0000
0100
0000
0000
1000
,  // measure 50
0000
0000
1000
0000
0000
1000
0000
0000
,  // measure 51
0002
0000
0203
0000
,  // measure 52
2300
0000
3200
0000
,  // measure 53
0301
0000
1000
0001
,  // measure 54
0000
0001
0000
0000
1000
0000
0000
0000
,  // measure 55
0100
1100
0000
1000
,  // measure 56
0001
0000
0001
0000
,  // measure 57
0010
0011
0000
0001
,  // measure 58
0100
0000
0100
0000
,  // measure 59
0010
0000
1000
0100
,  // measure 60
0020
0000
0032
0000
,  // measure 61
0203
0000
2300
0000
,  // measure 62
3010
0000
0000
0000
,  // measure 63
0000
0000
0002
0000
,  // measure 64
0010
2003
0000
0100
,  // measure 65
3002
1000
1000
0023
,  // measure 66
0000
0000
0000
0000
,  // measure 67
0000
0030
0000
0000
,  // measure 68
0000
0001
1000
0001
,  // measure 69
1000
0010
0000
0100
,  // measure 70
0000
0110
0000
1000
,  // measure 71
0010
0100
0010
2000
,  // measure 72
0000
3001
0000
0000
0000
0000
0002
0000
,  // measure 73
0000
0013
0000
0000
0000
0000
0010
0000
,  // measure 74
0100
0000
1000
0000
0000
1000
0000
0000
,  // measure 75
0001
0000
0100
0000
0000
0200
0000
0000
,  // measure 76
0001
0000
0001
0300
,  // measure 77
0001
1000
0100
0010
,  // measure 78
0000
0000
0001
0000
0000
0100
0000
0000
,  // measure 79
0100
0000
0000
0100
0000
0000
0001
0000
,  // measure 80
1000
0000
0001
0000
0000
2000
0000
0000
,  // measure 81
0000
3001
0000
0000
0000
0000
0010
0000
,  // measure 82
0100
0000
0010
0000
0000
0200
0000
0000
,  // measure 83
1300
0000
0010
0000
0000
0100
0000
0000
,  // measure 84
0001
0010
0100
1000
,  // measure 85
0000
0010
0000
0000
0000
0000
0100
0000
,  // measure 86
0000
0001
0000
0000
0100
0000
0000
0001
,  // measure 87
0000
1000
0010
2020
,  // measure 88
0000
0000
0000
3030
,  // measure 89
0000
0000
0000
1000
,  // measure 90
0000
0010
0000
0100
,  // measure 91
0000
0000
0001
1000
,  // measure 92
0001
0010
0001
0100
,  // measure 93
0000
0000
0000
0001
,  // measure 94
0000
0010
0000
0100
,  // measure 95
0000
0000
0000
1000
,  // measure 96
0001
1000
0010
0100
,  // measure 97
0000
0000
0000
0001
,  // measure 98
0000
0010
0000
1000
,  // measure 99
0000
0000
0000
1000
,  // measure 100
0010
0100
0010
0001
,  // measure 101
0000
0000
0000
2200
,  // measure 102
0000
0000
3000
0020
,  // measure 103
0000
0000
0330
0021
,  // measure 104
0000
0001
0000
0100
,  // measure 105
0000
1000
0000
0000
0130
0000
0010
0000
,  // measure 106
0000
0010
0000
0000
0001
0000
0100
0000
,  // measure 107
0000
0100
0000
0000
0010
0000
1000
0000
,  // measure 108
0000
1000
0000
0000
0010
0000
0100
0000
,  // measure 109
0000
0100
0000
0000
0001
0000
0010
0000
,  // measure 110
0000
0010
0000
0000
1000
0000
0010
0000
,  // measure 111
0000
0010
0000
0000
0001
0000
1000
0000
,  // measure 112
0000
0010
0000
0000
1020
0000
0000
0000
,  // measure 113
0000
0130
0000
0001
,  // measure 114
0000
0001
0000
0000
0100
0000
0010
0000
,  // measure 115
0000
0010
0000
0000
1000
0000
0100
0000
,  // measure 116
0000
0100
0000
0000
0001
0000
0100
0000
,  // measure 117
0000
0200
0000
0000
0000
0000
1300
0000
,  // measure 118
0100
0010
0000
0001
,  // measure 119
0100
0010
0000
1000
,  // measure 120
0000
0001
0000
1000
,  // measure 121
1000
0000
0001
0010
,  // measure 122
0100
1000
0000
0010
,  // measure 123
0100
0001
0100
0010
,  // measure 124
0000
0100
0000
0010
,  // measure 125
0010
0000
0000
0100
0000
0000
0001
0000
,  // measure 126
0100
0010
1000
0100
,  // measure 127
1000
0010
0100
0001
,  // measure 128
0000
0010
0000
0100
,  // measure 129
0000
1000
0000
0000
1001
0000
0000
0000
;

//---------------dance-single - ----------------
#NOTEDATA:;
#CHARTNAME:C 09 X 14;
#STEPSTYPE:dance-single;
#DESCRIPTION:;
#CHARTSTYLE:;
#DIFFICULTY:Hard;
#METER:9;
#RADARVALUES:0.578410,0.741101,0.157377,0.586586,0.486437,566.000000,544.000000,22.000000,82.000000,0.000000,0.000000,0.000000,0.000000,0.000000,0.578410,0.741101,0.157377,0.586586,0.486437,566.000000,544.000000,22.000000,82.000000,0.000000,0.000000,0.000000,0.000000,0.000000;
#CREDIT:vincentw;
#NOTES:
// measure 0
0000
0000
0000
0000
,  // measure 1
0000
0000
0000
0000
,  // measure 2
0000
0000
0000
0000
,  // measure 3
0000
0000
0000
0000
,  // measure 4
0000
0000
0000
0000
,  // measure 5
0000
0000
0000
0000
,  // measure 6
0000
0000
0000
0000
,  // measure 7
0000
0000
0000
0000
,  // measure 8
0000
0000
0000
0000
,  // measure 9
1000
0100
0000
0010
0000
0001
0000
1000
,  // measure 10
0001
0100
0000
0010
0000
1000
0000
0001
,  // measure 11
0100
0000
0000
0100
0000
0000
0120
0000
,  // measure 12
0000
0000
0000
0000
0000
0000
0030
0010
,  // measure 13
1000
0010
1000
0001
0010
0001
0010
0100
,  // measure 14
1000
0001
0100
0001
0000
0000
1000
0000
,  // measure 15
0001
0010
0000
0100
0000
1000
0000
0001
,  // measure 16
1000
0010
0000
0100
0000
0001
0000
1000
,  // measure 17
0001
0001
2001
0000
,  // measure 18
0000
0000
0000
0000
,  // measure 19
3000
0000
0000
0000
0000
1000
0000
0000
0100
0000
0000
0000
0000
0010
0000
0000
0001
0000
0000
0000
0010
0000
0000
0000
0100
0000
0000
0000
2000
0000
0000
0000
,  // measure 20
0000
0000
0000
0000
0000
0000
0000
0000
3001
0000
0000
0000
0000
0100
0000
0000
0010
0000
0000
0000
0000
1000
0000
0000
0000
0000
0000
0000
0000
0000
0000
0000
,  // measure 21
0001
0010
0001
1000
0100
1000
0001
0000
,  // measure 22
1000
0000
0000
0000
0000
1000
0000
0000
0010
0000
0000
0000
0000
0000
0000
0000
1000
0000
0000
0000
0000
0000
0000
0000
0001
0000
0000
0000
0000
0000
0000
0000
,  // measure 23
1000
0000
0000
0000
0000
0000
0000
0000
0010
0000
0000
0000
0000
0200
0000
0000
0000
0000
0000
0000
0000
0000
0000
0000
0310
0000
0000
0000
0000
0000
0000
0000
,  // measure 24
1000
0000
0000
0000
0000
0000
0000
0000
0001
0000
0000
0000
0000
0020
0000
0000
0000
0000
0000
0000
0000
0000
0000
0000
0031
0000
0000
0000
0000
0000
0000
0000
,  // measure 25
0100
0000
0000
0000
0000
0000
0000
0000
0010
0000
0000
0000
0000
2000
0000
0000
0000
0000
0000
0000
0000
0000
0000
0000
3100
0000
0000
0000
0000
0000
0000
0000
,  // measure 26
0010
0000
0000
0000
0000
0000
0000
0000
0001
0000
0000
0000
0000
0200
0000
0000
0000
0000
0000
0000
0000
0000
0000
0000
0310
0000
0000
0000
0000
0000
0000
0000
,  // measure 27
1000
0000
0000
0000
0000
0010
0000
0000
0000
0000
0000
0000
0000
0001
0000
0000
0000
0000
0000
0000
0000
0010
0000
0000
0000
0000
0000
0000
0000
2000
0000
0000
,  // measure 28
0000
0000
3001
0001
,  // measure 29
0011
0000
0000
0000
0000
0000
0000
0000
0000
0000
0000
0000
0000
0100
0000
0000
0000
0000
0000
0000
0000
0000
0000
0000
1010
0000
0000
0000
0000
0000
0000
0000
,  // measure 30
0000
0000
0000
0000
0000
1000
0000
0000
0010
0000
0000
0000
0000
0100
0000
0000
0001
0000
0000
0000
0000
0000
0000
0000
1000
0000
0000
0000
0000
0000
0000
0000
,  // measure 31
0100
0000
0000
0000
0000
0000
0000
0000
0010
0000
0000
0000
0000
0002
0000
0000
0000
0000
0000
0000
0000
0000
0000
0000
0013
0000
0000
0000
0000
0100
0000
0000
,  // measure 32
0000
0000
0000
0000
0000
0100
0000
0000
1000
0000
0000
0000
0000
0000
0000
0000
0010
0000
0000
0000
0000
0000
0000
0000
1000
0000
0000
0000
0000
0000
0000
0000
,  // measure 33
0100
0000
0000
0000
0000
0000
0000
0000
0001
0000
0000
0000
0000
0200
0000
0000
0000
0000
0000
0000
0000
0000
0000
0000
1300
0000
0000
0000
0000
0000
0000
0000
,  // measure 34
0010
0000
0000
0000
0000
0000
0000
0000
0001
0000
0000
0000
0000
0020
0000
0000
0000
0000
0000
0000
0000
0000
0000
0000
1030
0000
0000
0000
0000
0000
0000
0000
,  // measure 35
0001
0100
0010
0100
,  // measure 36
1000
0000
0000
0000
0000
0000
0000
0000
0100
0000
0000
0000
0000
0010
0000
0000
0000
0000
0000
0000
0000
0100
0000
0000
0000
0000
0000
0000
0000
0000
0000
0000
,  // measure 37
0001
0000
0000
0000
0000
1000
0000
0000
0010
0000
0000
0000
0000
1000
0000
0000
0001
0000
0000
0000
0000
0000
0000
0000
2200
0000
0000
0000
0000
0000
0000
0000
,  // measure 38
0000
0000
0000
0000
0000
3300
0001
0000
,  // measure 39
0010
0000
0000
0000
0000
0000
0000
0000
0100
0000
0000
0000
0000
1000
0000
0000
0000
0000
0000
0000
0000
1000
0000
0000
0100
0000
0000
0000
0000
0000
0000
0000
,  // measure 40
0010
0000
0000
0000
0000
0000
0000
0000
0001
0000
0000
0000
0000
0100
0000
0000
0000
0000
0000
0000
0000
0100
0000
0000
0001
0000
0000
0000
0000
0000
0000
0000
,  // measure 41
1000
0000
0000
0000
0000
0000
0000
0000
0010
0000
0000
0000
0000
0100
0000
0000
0000
0000
0000
0000
0000
0100
0000
0000
0010
0000
0000
0000
0000
0000
0000
0000
,  // measure 42
1000
0000
0000
0000
0000
0000
0000
0000
0001
0000
0000
0000
0000
0010
0000
0000
0000
0000
0000
0000
0000
0010
0000
0000
0001
0000
0000
0000
0000
0000
0000
0000
,  // measure 43
1000
0000
0000
0000
0000
0000
0000
0000
0010
0000
0000
0000
0000
0100
0000
0000
0000
0000
0000
0000
0000
0010
0000
0000
0001
0000
0000
0000
0000
0000
0000
0000
,  // measure 44
1000
0000
0000
0000
0000
0000
0000
0000
0100
0000
0000
0000
0000
0010
0000
0000
0000
0000
0000
0000
0000
0100
0000
0000
0001
0000
0000
0000
0000
0000
0000
0000
,  // measure 45
1100
0000
0000
0000
0000
0000
0000
0000
0000
0000
0000
0000
0000
0010
0000
0000
0000
0000
0000
0000
0000
0000
0000
0000
0101
0000
0000
0000
0000
0000
0000
0000
,  // measure 46
0000
0000
0000
0000
0000
0001
0000
0000
0010
0000
0000
0000
0000
0100
0000
0000
1000
0000
0000
0000
0000
0000
0000
0000
0010
0000
0000
0000
0000
0000
0000
0000
,  // measure 47
1000
0000
0000
0000
0000
0000
0000
0000
0001
0000
0000
0000
0000
0010
0000
0000
0000
0000
0000
0000
0000
0001
0000
0000
0000
0000
0000
0000
0000
1000
0000
0000
,  // measure 48
0000
0000
0000
0000
0000
1000
0000
0000
0010
0000
0000
0000
0000
0100
0000
0000
0001
0000
0000
0000
0000
0000
0000
0000
0010
0000
0000
0000
0000
0000
0000
0000
,  // measure 49
1000
0000
0000
0000
0000
0000
0000
0000
0001
0000
0000
0000
0000
0000
0000
0000
0100
0000
0000
0000
0000
0000
0000
0000
1000
0000
0000
0000
0000
0001
0000
0000
,  // measure 50
0000
0000
0000
0000
0000
0000
0000
0000
1010
0000
0000
0000
0000
0000
0000
0000
0100
0000
0000
0000
0000
0001
0000
0000
0000
0000
0000
0000
0000
0000
0000
0000
,  // measure 51
2000
3020
0230
2300
,  // measure 52
3002
0203
0320
0032
,  // measure 53
0013
0000
0000
0000
0000
0000
0000
0000
0001
0000
0000
0000
0000
0010
0000
0000
0100
0000
0000
0000
0000
0010
0000
0000
0001
0000
0000
0000
0000
0000
0000
0000
,  // measure 54
1000
0000
0000
0000
0000
0000
0000
0000
0000
0000
0000
0000
0000
0000
0000
0000
0000
0000
0000
0000
0000
0000
0000
0000
0000
0000
0000
0000
0000
0000
0010
0000
0000
0000
0000
0000
0000
0000
0000
0000
0000
0000
0000
0000
0000
0000
0000
0000
0100
0000
0000
0000
0000
0000
0000
0000
0000
0000
0000
0000
0000
0000
0000
0000
0000
0000
0000
0000
0000
0000
0000
0000
0000
0000
0000
0000
0000
0000
0001
0000
0000
0000
0000
0000
0000
0000
0000
0000
0000
0000
0000
0000
0000
0000
0000
0000
1000
0000
0000
0000
0000
0000
0000
0000
0000
0000
0000
0000
0000
0000
0000
0000
0100
0000
0000
0000
0000
0000
0000
0000
0000
0000
0000
0000
0000
0000
0000
0000
1000
0000
0000
0000
0000
0000
0000
0000
0000
0000
0000
0000
0000
0000
0000
0000
0100
0000
0000
0000
0000
0000
0000
0000
0000
0000
0000
0000
0000
0000
0000
0000
0000
0000
0000
0000
0000
0000
0000
0000
0000
0000
0000
0000
0000
0000
0000
0000
0000
0000
0000
0000
0000
0000
0000
0000
0000
0000
0000
0000
0000
0000
0000
0000
,  // measure 55
0010
0000
0000
0000
0000
0000
0000
0000
1002
0000
0000
0000
0000
0000
0000
0000
0000
0000
0000
0000
0010
0003
0000
0000
1000
0000
0000
0000
0010
0000
0000
0000
,  // measure 56
0001
0000
0000
0000
0000
0000
0000
0000
0000
0000
0000
0000
0000
0000
0000
0000
0000
0000
0000
0000
0000
0000
0000
0000
0000
0000
0000
0000
0000
0000
0000
0000
0000
0000
0000
0000
0000
0000
0000
0000
0000
0000
0000
0000
0000
0000
0000
0000
0010
0000
0000
0000
0000
0000
0000
0000
0000
0000
0000
0000
0000
0000
0000
0000
0000
0000
0000
0000
0000
0000
0000
0000
0000
0000
0000
0000
0000
0000
0100
0000
0000
0000
0000
0000
0000
0000
0000
0000
0000
0000
0000
0000
0000
0000
0000
0000
0000
0000
0000
0000
0000
0000
0000
0000
0000
0000
0000
0000
0000
0000
0000
0000
0000
0000
0000
0000
0000
0000
0000
0000
0000
0000
0000
0000
0000
0000
0000
0000
1000
0000
0000
0000
0000
0000
0000
0000
0000
0000
0000
0000
0000
0000
0000
0000
0010
0000
0000
0000
0000
0000
0000
0000
0000
0000
0000
0000
0000
0000
0000
0000
1000
0000
0000
0000
0000
0000
0000
0000
0000
0000
0000
0000
0000
0000
0000
0000
0010
0000
0000
0000
0000
0000
0000
0000
0000
0000
0000
0000
0000
0000
0000
0000
,  // measure 57
1000
0000
0201
0000
0000
0301
0010
0100
,  // measure 58
0010
0000
0000
0000
0000
0000
0000
0000
0001
0000
0000
0000
0000
1000
0000
0000
0000
0000
0000
0000
0000
0001
0000
0000
1000
0000
0000
0000
0000
0000
0000
0000
,  // measure 59
0001
0010
0100
0010
,  // measure 60
1000
0010
0001
0100
,  // measure 61
0010
0100
1000
0100
,  // measure 62
0002
0000
0000
0000
0000
0000
0000
0000
0000
0000
0000
0000
0000
1000
0000
0000
0000
0000
0000
0000
0000
0000
0000
0000
1003
0000
0000
0000
0000
0000
0000
0000
,  // measure 63
0010
0000
0100
0000
0010
0000
0100
0000
0000
0000
0000
0000
0001
0000
0000
0000
0000
0000
1000
0000
0000
0100
0000
0000
,  // measure 64
0010
0100
1000
0000
0001
0100
0010
0100
,  // measure 65
2000
3002
0023
2030
,  // measure 66
0000
0000
0000
0000
,  // measure 67
0000
0000
0000
0000
0000
0000
0000
0000
3010
0000
0000
0000
0000
0000
0000
0000
0010
0000
0000
0000
0000
0100
0000
0000
0000
0000
0000
0000
0000
0010
0000
0000
,  // measure 68
0100
0000
0000
0000
0000
0000
0000
0000
0001
0000
0000
0000
0000
0000
0000
0000
1000
0000
0000
0000
0000
0010
0000
0000
0100
0000
0000
0000
0000
0000
0000
0000
,  // measure 69
0001
0000
0000
0000
0000
0000
0000
0000
0010
0000
0000
0000
0000
0000
0000
0000
0001
0000
0000
0000
0000
1000
0000
0000
0100
0000
0000
0000
0000
0000
0000
0000
,  // measure 70
0010
0000
1001
0001
0100
0010
0001
1000
,  // measure 71
0100
0010
1000
0001
0010
0100
2000
0000
,  // measure 72
0000
3010
0000
0010
0000
0010
0200
0000
,  // measure 73
0000
0301
0000
1000
0010
0100
0001
0010
,  // measure 74
0100
1000
0100
0010
0001
0200
0000
0000
,  // measure 75
0301
0000
0010
0100
1000
0002
0000
0000
,  // measure 76
0010
0000
0000
0000
0000
0000
0000
0000
0000
0000
0000
0000
0000
0000
0000
0000
1000
0000
0000
0000
0000
0000
0000
0000
0003
0000
0000
0000
0000
0001
0000
0000
,  // measure 77
0100
0000
0000
0000
0000
0100
0000
0000
0010
0000
0000
0000
0000
0010
0000
0000
1000
0000
0000
0000
0000
1000
0000
0000
0001
0000
0000
0000
0000
0100
0000
0000
,  // measure 78
0000
0000
0000
0000
0000
0001
0000
0000
0100
0000
0000
0000
0000
0001
0000
0000
0010
0000
0000
0000
0000
0011
0000
0000
0000
0000
0000
0000
0000
0000
0000
0000
,  // measure 79
1001
0000
0000
0000
0000
0000
0000
0000
0000
0000
0000
0000
0000
0000
0000
0000
0000
0000
0000
0000
0000
0000
0000
0000
0000
0000
0000
0000
0000
0000
0000
0000
0000
0000
0000
0000
0000
0000
0000
0000
0000
0000
0000
0000
0000
0000
0000
0000
0000
0000
0000
0000
0000
0000
0000
0000
0000
0000
0000
0000
0000
0000
0000
0000
0000
0000
0000
0000
0000
0000
0000
0000
0000
0000
0000
0000
0000
0000
1100
0000
0000
0000
0000
0000
0000
0000
0000
0000
0000
0000
0000
0000
0000
0000
0000
0000
0000
0000
0000
0000
0000
0000
0000
0000
0000
0000
0000
0000
0000
0000
0000
0000
0000
0000
0000
0000
0000
0000
0000
0000
0000
0000
0000
0000
0000
0000
0000
0000
0000
0000
0000
0000
0000
0000
0000
0000
0000
0000
0000
0000
0000
0000
0000
0000
0000
0000
0000
0000
0000
0000
0000
0000
0000
0000
0000
0000
0000
0000
0000
0000
0000
0000
0000
0000
0000
0000
0000
0000
0000
0000
0000
0000
0000
0000
0000
0000
1000
0000
0000
0000
0000
0000
0000
0000
0000
0000
0000
0000
0000
0000
0000
0000
,  // measure 80
0001
0000
0000
0000
0000
0000
0000
0000
0000
0000
0000
0000
0000
0000
0000
0000
1000
0000
0000
0000
0000
0000
0000
0000
0000
0000
0000
0000
0000
0000
0000
0000
0001
0000
0000
0000
0000
0000
0000
0000
0000
0000
0000
0000
0000
0000
0000
0000
1000
0000
0000
0000
0000
0000
0000
0000
0000
0000
0000
0000
0000
0000
0000
0000
0000
0000
0000
0000
0000
0000
0000
0000
0000
0000
0000
0000
0000
0000
0000
0000
0000
0000
0000
0000
0000
0000
0000
0000
0000
0000
0000
0000
0000
0000
0000
0000
0001
0000
0000
0000
0000
0000
0000
0000
0000
0000
0000
0000
0000
0000
0000
0000
0000
0000
0000
0000
0000
0000
0000
0000
0000
0000
0000
0000
0000
0000
0010
0000
0000
0000
0000
0000
0000
0000
0000
0000
0000
0000
0000
0000
0000
0000
0000
0000
0000
0000
0000
0000
0000
0000
0000
0000
0000
0000
0000
0000
0000
0000
0000
0000
0000
0000
0000
0000
0000
0000
0000
0000
0000
0000
0000
0000
0000
0000
1000
0000
0000
0000
0000
0000
0000
0000
0000
0000
0000
0000
0000
0000
0000
0000
0000
0000
,  // measure 81
0010
0000
0000
0000
0000
0000
0000
0000
0000
0000
0000
0000
0000
0000
0000
0000
0000
0000
0000
0000
0000
0000
0000
0000
0000
0000
0000
0000
0000
0000
0002
0000
0000
0000
0000
0000
0000
0000
0000
0000
0000
0000
0000
0000
0000
0000
0000
0000
0000
0000
0000
0000
0000
0000
0000
0000
0000
0000
0000
0000
0000
0000
0000
0000
0000
0000
0000
0000
0000
0000
0000
0000
0000
0000
0000
0000
0000
0000
0000
0000
0000
0000
0000
0000
0000
0000
0000
0000
0000
0000
0000
0000
0000
0000
0000
0000
0003
0000
0000
0000
0000
0000
0000
0000
0000
0000
0000
0000
0000
0000
0000
0000
0000
0000
0000
0000
0000
0000
0000
0000
0000
0000
0000
0000
0000
0000
0000
0000
0000
0000
0000
0000
0000
0000
0000
0000
0000
0000
0000
0000
0000
0000
0000
0000
0000
0000
0000
0000
0000
0000
0000
0000
0000
0000
0000
0000
0000
0000
0000
0000
0000
0000
0000
0000
0000
0000
0000
0000
0000
0000
0000
0000
0000
0000
0000
0000
0010
0000
0000
0000
0000
0000
0000
0000
0000
0000
0000
0000
0000
0000
0000
0000
,  // measure 82
0100
0000
0000
0000
0000
0000
0000
0000
0000
0000
0000
0000
0000
0000
0000
0000
0010
0000
0000
0000
0000
0000
0000
0000
0000
0000
0000
0000
0000
0000
0000
0000
0100
0000
0000
0000
0000
0000
0000
0000
0000
0000
0000
0000
0000
0000
0000
0000
0010
0000
0000
0000
0000
0000
0000
0000
0000
0000
0000
0000
0000
0000
0000
0000
0000
0000
0000
0000
0000
0000
0000
0000
0000
0000
0000
0000
0000
0000
0000
0000
0000
0000
0000
0000
0000
0000
0000
0000
0000
0000
0000
0000
0000
0000
0000
0000
0001
0000
0000
0000
0000
0000
0000
0000
0000
0000
0000
0000
0000
0000
0000
0000
0000
0000
0000
0000
0000
0000
0000
0000
0000
0000
0000
0000
0000
0000
0200
0000
0000
0000
0000
0000
0000
0000
0000
0000
0000
0000
0000
0000
0000
0000
0000
0000
0000
0000
0000
0000
0000
0000
0000
0000
0000
0000
0000
0000
0000
0000
0000
0000
0000
0000
0000
0000
0000
0000
0000
0000
0000
0000
0000
0000
0000
0000
0000
0000
0000
0000
0000
0000
0000
0000
0000
0000
0000
0000
0000
0000
0000
0000
0000
0000
,  // measure 83
1300
0000
0000
0000
0000
0100
0000
0000
0010
0000
0000
0000
0100
0000
0000
0000
0001
0000
0000
0000
0200
0000
0000
0000
0000
0000
0000
0000
0300
0000
0000
0000
,  // measure 84
0000
0000
0000
0000
0000
0001
0000
0000
0100
0000
0000
0000
0010
0000
0000
0000
0001
0000
0000
0000
1000
0000
0000
0000
0100
0000
0000
0000
0000
0000
0000
0000
,  // measure 85
0010
0000
0000
0000
0000
2000
0000
0000
0000
0000
0000
0000
0000
0000
0000
0000
3000
0000
0000
0000
0100
0000
0000
0000
1000
0000
0000
0000
0010
0000
0000
0000
,  // measure 86
0001
0000
0000
0000
0000
0010
0000
0000
1000
0000
0000
0000
0000
0000
0000
0000
0001
0000
0000
0000
0000
0010
0000
0000
0100
0000
0000
0000
0000
0010
0000
0000
,  // measure 87
1000
0000
0000
0000
0000
0010
0000
0000
0001
0000
0000
0000
0000
0000
0000
0000
0100
0000
0000
0000
0000
0000
0000
0000
0020
0000
0000
0000
0000
2000
0000
0000
,  // measure 88
0000
0000
0000
0000
0000
0000
0000
0000
0000
0000
0000
0000
0000
0000
0000
0000
0000
0000
0000
0000
0000
0000
0000
0000
3030
0000
0000
0000
0000
1000
0000
0000
,  // measure 89
0100
0000
0000
0000
0000
0001
0000
0000
0200
0000
0000
0000
0000
0001
0000
0000
0000
0000
0000
0000
0000
0000
0000
0000
1300
0000
0000
0000
0000
0000
0000
0000
,  // measure 90
0010
0000
0000
0000
0000
0200
0000
0000
0000
0000
0000
0000
0000
0000
0000
0000
0301
0000
0000
0000
0000
0000
0000
0000
1000
0000
0000
0000
0000
0000
0000
0000
,  // measure 91
0100
0000
0000
0000
0000
0020
0000
0000
0000
0000
0000
0000
0000
0000
0000
0000
0031
0000
0000
0000
0000
0000
0000
0000
0100
0000
0000
0000
0000
0000
0000
0000
,  // measure 92
0010
0000
0000
0000
0000
2000
0000
0000
0000
0000
0000
0000
0000
0000
0000
0000
3001
0000
0000
0000
0000
0000
0000
0000
0010
0000
0000
0000
0000
0000
0000
0000
,  // measure 93
0100
0000
0000
0000
0000
2000
0000
0000
0000
0000
0000
0000
0000
3001
0000
0000
0100
0000
0000
0000
0000
0010
0000
0000
0100
0000
0000
0000
0000
0000
0000
0000
,  // measure 94
0001
0000
0000
0000
0000
0020
0000
0000
0000
0000
0000
0000
0000
0000
0000
0000
0130
0000
0000
0000
0000
0000
0000
0000
0010
0000
0000
0000
0000
0000
0000
0000
,  // measure 95
0100
0000
0000
0000
0000
2000
0000
0000
0000
0000
0000
0000
0000
0000
0000
0000
3010
0000
0000
0000
0000
0000
0000
0000
0100
0000
0000
0000
0000
0000
0000
0000
,  // measure 96
1000
0000
0000
0000
0000
0200
0000
0000
0000
0000
0000
0000
0000
0000
0000
0000
0301
0000
0000
0000
0000
0000
0000
0000
1000
0000
0000
0000
0000
0000
0000
0000
,  // measure 97
0100
0000
0000
0000
0000
0002
0000
0000
0000
0000
0000
0000
0000
0103
0000
0000
0010
0000
0000
0000
0000
0001
0000
0000
0100
0000
0000
0000
0000
0000
0000
0000
,  // measure 98
0001
0000
0000
0000
0000
0020
0000
0000
0000
0000
0000
0000
0000
0000
0000
0000
1030
0000
0000
0000
0000
0000
0000
0000
0001
0000
0000
0000
0000
0000
0000
0000
,  // measure 99
0100
0000
0000
0000
0000
2000
0000
0000
0000
0000
0000
0000
0000
0000
0000
0000
3010
0000
0000
0000
0000
0000
0000
0000
0100
0000
0000
0000
0000
0000
0000
0000
,  // measure 100
1000
0000
0000
0000
0000
0002
0000
0000
0000
0000
0000
0000
0000
0000
0000
0000
0013
0000
0000
0000
0000
0000
0000
0000
1000
0000
0000
0000
0000
0000
0000
0000
,  // measure 101
0100
0000
0000
0000
0000
0020
0000
0000
0000
0000
0000
0000
0000
0000
0000
0000
0031
0000
0000
0000
0000
0000
0000
0000
2000
0000
0000
0000
0000
0000
0000
0000
,  // measure 102
0000
0010
0000
3020
,  // measure 103
0000
0100
0000
0230
,  // measure 104
0000
0302
0000
0023
,  // measure 105
0000
0000
0000
0000
0030
2000
0000
0000
0000
0000
0000
0000
0000
0000
0000
0000
3020
0000
0000
0000
0000
0000
0000
0000
0031
0000
0000
0000
0000
0000
0000
0000
,  // measure 106
0100
0000
0000
0000
0000
0001
0000
0000
0000
0000
0000
0000
0000
0000
0000
0000
1010
0000
0000
0000
0000
0000
0000
0000
1000
0000
0000
0000
0000
0000
0000
0000
,  // measure 107
0100
0000
0000
0000
0000
1000
0000
0000
0000
0000
0000
0000
0000
0000
0000
0000
0011
0000
0000
0000
0000
0000
0000
0000
1000
0000
0000
0000
0000
0000
0000
0000
,  // measure 108
0010
0000
0000
0000
0000
1000
0000
0000
0000
0000
0000
0000
0000
0000
0000
0000
0101
0000
0000
0000
0000
0000
0000
0000
0001
0000
0000
0000
0000
0000
0000
0000
,  // measure 109
0010
0000
0000
0000
0000
0001
0000
0000
0000
0000
0000
0000
0000
0000
0000
0000
1100
0000
0000
0000
0000
0000
0000
0000
1000
0000
0000
0000
0000
0000
0000
0000
,  // measure 110
0100
0000
0000
0000
0000
0001
0000
0000
0000
0000
0000
0000
0000
0000
0000
0000
0110
0000
0000
0000
0000
0000
0000
0000
0001
0000
0000
0000
0000
0000
0000
0000
,  // measure 111
0010
0000
0000
0000
0000
1000
0000
0000
0000
0000
0000
0000
0000
0000
0000
0000
0110
0000
0000
0000
0000
0000
0000
0000
1000
0000
0000
0000
0000
0000
0000
0000
,  // measure 112
0000
0000
0000
0000
0000
0001
0000
0000
0000
0000
0000
0000
0000
0000
0000
0000
1001
0000
0000
0000
0000
0000
0000
0000
0000
0000
0000
0000
0000
1000
0000
0000
,  // measure 113
0100
0000
0000
0000
0000
1000
0000
0000
0001
0000
0000
0000
0000
0010
0000
0000
0001
0000
0000
0000
0000
0000
0000
0000
1000
0000
0000
0000
0000
0000
0000
0000
,  // measure 114
0010
0000
0000
0000
0000
0100
0000
0000
0000
0000
0000
0000
0000
0010
0000
0000
1000
0000
0000
0000
0000
0000
0000
0000
0001
0000
0000
0000
0000
0000
0000
0000
,  // measure 115
0010
0000
0000
0000
0000
0100
0000
0000
0000
0000
0000
0000
0000
0010
0000
0000
0001
0000
0000
0000
0000
0000
0000
0000
1000
0000
0000
0000
0000
0000
0000
0000
,  // measure 116
0100
0000
0000
0000
0000
0001
0000
0000
0000
0000
0000
0000
0000
0100
0000
0000
1000
0000
0000
0000
0000
0000
0000
0000
0001
0000
0000
0000
0000
0000
0000
0000
,  // measure 117
0100
0000
0000
0000
0000
1000
0000
0000
0000
0000
0000
0000
0000
0100
0000
0000
0001
0000
0000
0000
0000
0000
0000
0000
2000
0000
0000
0000
0000
0000
0000
0000
,  // measure 118
3200
0320
0032
2003
,  // measure 119
3002
0023
0032
0013
,  // measure 120
0000
0000
0000
0000
0000
0000
0000
0000
0001
0000
0000
0000
0000
0100
0000
0000
0000
0000
0000
0000
0000
0000
0000
0000
0001
0000
0000
0000
0000
0000
0000
0000
,  // measure 121
0001
0000
0000
0000
0000
0010
0000
0000
0000
0000
0000
0000
0000
0000
0000
0000
0100
0000
0000
0000
0000
0000
0000
0000
2000
0000
0000
0000
0000
0000
0000
0000
,  // measure 122
3200
0302
0203
2300
,  // measure 123
3020
0000
0000
0000
0000
0000
0000
0000
0032
0000
0000
0000
0000
0000
0000
0000
0023
0000
0000
0000
0000
0000
0000
0000
1030
0000
0000
0000
0000
1000
0000
0000
,  // measure 124
0100
0010
0001
0100
,  // measure 125
0010
0000
0000
0000
0000
1000
0000
0000
0000
0000
0000
0000
0000
1000
0000
0000
0010
0000
0000
0000
0000
0000
0000
0000
2000
0000
0000
0000
0000
0000
0000
0000
,  // measure 126
3020
0230
0320
0032
,  // measure 127
0203
0320
0230
1300
,  // measure 128
0000
0001
0010
0100
1000
0001
0100
0010
,  // measure 129
1000
0001
0000
0000
1001
0000
0000
0000
;
