#TITLE:Vrosteroid;
#SUBTITLE:;
#ARTIST:Ginsuke feat. Macne Nana;
#TITLETRANSLIT:;
#SUBTITLETRANSLIT:;
#ARTISTTRANSLIT:;
#GENRE:;
#CREDIT:Loodee;
#BANNER:Vrosteroid-bn.png;
#BACKGROUND:Vrosteroid-bg.png;
#LYRICSPATH:;
#CDTITLE:loodeecdtitleSmall.png;
#MUSIC:Vrosteroid.ogg;
#OFFSET:-0.697;
#SAMPLESTART:107.519;
#SAMPLELENGTH:20.789;
#SELECTABLE:YES;
#DISPLAYBPM:140.000:160.000;
#BPMS:0.000=160.000,118.000=157.800,120.000=156.700,122.000=155.300,124.000=153.700,126.000=152.300,128.000=150.900,130.000=148.900,132.000=148.700,134.000=146.700,136.000=145.200,138.000=143.800,140.000=142.400,142.000=140.500,144.000=140.000,148.000=320.000,149.000=160.000,149.500=80.000,150.000=240.000,150.375=80.000,150.500=240.000,150.875=80.000,151.000=240.000,151.375=80.000,151.500=240.000,151.875=80.000,152.000=320.000,152.500=160.000,152.750=80.000,153.000=320.000,153.500=160.000,153.750=80.000,154.000=240.000,154.375=80.000,154.500=240.000,154.875=80.000,155.000=160.000,156.000=240.000,156.250=120.000,156.500=320.000,157.250=160.000,157.625=80.000,158.000=240.000,158.375=80.000,158.500=240.000,158.875=80.000,159.000=240.000,159.375=80.000,159.500=240.000,159.875=80.000,160.000=320.000,160.500=160.000,160.750=80.000,161.000=240.000,161.375=80.000,161.500=240.000,161.875=80.000,162.000=240.000,162.375=80.000,162.500=240.000,162.875=80.000,163.000=160.000,164.000=120.000,164.333=160.000,164.667=240.000,165.000=240.000,165.333=160.000,165.667=120.000,166.000=240.000,166.188=80.000,166.250=240.000,166.438=80.000,166.500=240.000,166.688=80.000,166.750=240.000,166.938=80.000,167.000=240.000,167.188=80.000,167.250=240.000,167.438=80.000,167.500=240.000,167.688=80.000,167.750=240.000,167.938=80.000,168.000=240.000,168.375=80.000,168.500=240.000,168.875=80.000,169.000=320.000,169.500=160.000,169.750=80.000,170.000=240.000,170.167=160.000,170.333=120.000,170.500=240.000,170.667=160.000,170.833=120.000,171.000=240.000,171.333=160.000,171.667=120.000,172.333=160.000,172.667=240.000,173.333=160.000,173.667=120.000,174.000=240.000,174.375=80.000,174.500=240.000,174.875=80.000,175.000=240.000,175.375=80.000,175.500=240.000,175.875=80.000,176.000=240.000,176.333=160.000,176.667=120.000,177.000=240.000,177.333=160.000,177.667=120.000,178.000=160.000,180.000=320.000,181.000=160.000,181.500=80.000,182.000=240.000,182.375=80.000,182.500=240.000,182.875=80.000,183.000=240.000,183.375=80.000,183.500=240.000,183.875=80.000,184.000=320.000,184.500=160.000,184.750=80.000,185.000=320.000,185.500=160.000,185.750=80.000,186.000=240.000,186.375=80.000,186.500=240.000,186.875=80.000,187.000=160.000,188.000=240.000,190.375=80.000,190.500=240.000,190.875=80.000,191.000=240.000,191.375=80.000,191.500=240.000,191.875=80.000,192.000=240.000,192.188=80.000,192.250=240.000,192.438=80.000,192.500=240.000,192.688=80.000,192.750=240.000,192.938=80.000,193.000=240.000,193.188=80.000,193.250=240.000,193.438=80.000,193.500=240.000,193.688=80.000,193.750=240.000,193.938=80.000,194.000=160.000,196.000=120.000,196.333=160.000,196.667=240.000,197.333=160.000,197.667=120.000,198.000=240.000,198.188=80.000,198.250=240.000,198.438=80.000,198.500=240.000,198.688=80.000,198.750=240.000,198.938=80.000,199.000=240.000,199.188=80.000,199.250=240.000,199.438=80.000,199.500=240.000,199.688=80.000,199.750=240.000,199.938=80.000,200.000=240.000,200.375=80.000,200.500=240.000,200.875=80.000,201.000=320.000,201.500=160.000,201.750=80.000,202.000=240.000,202.375=80.000,202.500=240.000,202.875=80.000,203.000=320.000,203.500=160.000,203.750=80.000,204.000=120.000,204.333=160.000,204.667=240.000,205.333=160.000,205.667=120.000,206.000=240.000,206.375=80.000,206.500=240.000,206.875=80.000,207.000=240.000,207.375=80.000,207.500=240.000,207.875=80.000,208.000=240.000,208.333=160.000,208.667=120.000,209.000=160.000,212.000=-160.000,220.000=160.000,228.000=-160.000,236.000=160.000,244.000=-160.000,248.000=160.000,252.000=-160.000,256.000=160.000,260.000=-160.000,264.000=160.000,268.000=-160.000,272.000=160.000,276.000=-160.000,280.000=160.000,284.000=-160.000,288.000=160.000,292.000=-160.000,296.000=160.000,300.000=-160.000,304.000=160.000,308.000=-160.000,312.000=160.000,316.000=-160.000,320.000=160.000,324.000=-160.000,328.000=160.000,332.000=-160.000,336.000=160.000,340.000=-160.000,344.000=160.000,348.000=-160.000,352.000=160.000,356.000=-160.000,360.000=160.000,364.000=-160.000,369.000=169.700,376.000=320.000,376.500=160.000,376.750=80.000,377.000=240.000,377.333=160.000,377.667=120.000,378.000=240.000,378.375=80.000,378.500=240.000,378.875=80.000,379.000=240.000,379.375=80.000,379.500=240.000,379.875=80.000,380.000=240.000,380.375=80.000,380.500=240.000,380.875=80.000,381.000=240.000,381.375=80.000,381.500=240.000,381.875=80.000,382.000=240.000,382.375=80.000,382.500=240.000,382.875=80.000,383.000=120.000,383.333=160.000,383.667=240.000,384.000=320.000,384.500=160.000,384.750=80.000,385.000=240.000,385.333=160.000,385.667=120.000,386.000=240.000,386.375=80.000,386.500=240.000,386.875=80.000,387.000=240.000,387.375=80.000,387.500=240.000,387.875=80.000,388.000=240.000,388.375=80.000,388.500=240.000,388.875=80.000,389.000=240.000,389.375=80.000,389.500=240.000,389.875=80.000,390.000=240.000,390.188=80.000,390.250=240.000,390.438=80.000,390.500=240.000,390.688=80.000,390.750=240.000,390.938=80.000,391.000=120.000,391.333=160.000,391.667=240.000,392.000=160.000,394.000=320.000,394.250=160.000,394.375=80.000,394.500=320.000,394.750=160.000,394.875=80.000,395.000=320.000,395.250=160.000,395.375=80.000,395.500=320.000,395.750=160.000,395.875=80.000,396.000=320.000,396.250=160.000,396.375=80.000,396.500=320.000,396.750=160.000,396.875=80.000,397.000=320.000,397.250=160.000,397.375=80.000,397.500=320.000,397.750=160.000,397.875=80.000,398.000=320.000,398.250=160.000,398.375=80.000,398.500=320.000,398.750=160.000,398.875=80.000,399.000=120.000,399.333=160.000,399.667=240.000,400.000=160.000,407.000=240.000,408.333=160.000,408.667=120.000,409.000=240.000,409.333=160.000,409.667=120.000,410.000=240.000,410.375=80.000,410.500=240.000,410.875=80.000,411.000=240.000,411.375=80.000,411.500=240.000,411.875=80.000,412.000=240.000,412.375=80.000,412.500=240.000,412.875=80.000,413.000=240.000,413.375=80.000,413.500=240.000,413.875=80.000,414.000=240.000,414.375=80.000,414.500=240.000,414.875=80.000,415.000=120.000,415.333=160.000,415.667=240.000,416.000=320.000,416.375=160.000,416.563=80.000,416.750=320.000,417.125=160.000,417.313=80.000,417.500=320.000,417.750=160.000,417.875=80.000,418.000=240.000,422.000=160.000,426.000=240.000,431.000=160.000,432.000=120.000,432.333=160.000,432.667=240.000,433.000=160.000,440.000=480.000,440.500=240.000,441.000=160.000,441.500=80.000,442.000=160.000,448.000=480.000,448.500=240.000,449.000=160.000,449.500=80.000,450.000=160.000,456.000=480.000,456.500=240.000,457.000=160.000,457.500=80.000,458.000=160.000,464.000=480.000,464.500=240.000,465.000=160.000,465.500=80.000,466.000=160.000,468.000=240.000,468.333=160.000,468.667=120.000,469.000=240.000,469.333=160.000,469.667=120.000,470.000=160.000,472.000=480.000,472.500=240.000,473.000=160.000,473.500=80.000,474.000=160.000,480.000=320.000,480.375=160.000,480.563=80.000,480.750=240.000,481.000=160.000,481.250=120.000,481.500=240.000,481.667=160.000,481.833=120.000,482.000=160.000,488.000=480.000,488.500=240.000,489.000=160.000,489.500=80.000,490.000=160.000,496.000=480.000,496.500=240.000,497.000=160.000,497.500=80.000,498.000=160.000,500.000=320.000,500.500=160.000,500.750=80.000,501.000=320.000,501.500=160.000,501.750=80.000,502.000=160.000;
#STOPS:188.000=0.094
,188.750=0.093
,189.500=0.063
,228.000=0.596
,244.000=0.075
,252.000=0.075
,260.000=0.075
,268.000=0.075
,276.000=0.075
,284.000=0.075
,292.000=0.075
,300.000=0.075
,308.000=0.075
,316.000=0.075
,324.000=0.075
,332.000=0.075
,340.000=0.075
,348.000=0.075
,356.000=0.075
,364.000=0.075
,407.000=0.125
,418.000=0.062
,418.500=0.063
,419.000=0.062
,419.500=0.063
,420.000=0.062
,420.500=0.063
,421.000=0.062
,421.500=0.063
,426.000=0.062
,426.500=0.063
,427.000=0.062
,427.500=0.063
,428.000=0.062
,428.500=0.063
,429.000=0.062
,429.500=0.063
,430.000=0.062
,430.500=0.063
;
#BGCHANGES:;
#KEYSOUNDS:;

//---------------dance-single - Loodee----------------
#NOTES:
     dance-single:
     Loodee:
     Challenge:
     10:
     0.764,1.000,0.497,0.542,0.512:
0000
0000
0000
0000
,
0000
0000
0000
0000
,
0000
0000
0000
0000
,
0000
0000
0000
0000
,
0000
0000
0000
0000
,
0101
0000
0000
0000
,
0000
0000
0000
0000
,
1100
0000
0000
0000
,
0000
0000
0000
0000
,
1001
0001
0010
0100
0010
0001
1000
0010
,
0110
0100
0001
1000
0100
0010
0001
1000
,
0001
1000
0001
0010
0100
1000
0010
0100
0001
1000
0100
1000
0100
0010
0001
1000
,
0010
0000
0000
0101
,
0021
0000
0000
0000
0130
1000
0001
1000
,
1020
0000
0000
0000
0130
0010
1000
0100
,
2100
0000
0000
0000
3010
0100
0001
0010
,
0012
0000
0000
0000
1003
0010
0100
0001
,
0201
0000
0000
0000
0301
0010
0100
1000
,
1002
0000
0000
0000
0103
0001
0100
0010
,
2010
0000
0000
0000
3001
0010
0100
0010
,
0012
0000
0000
0000
0013
0100
1000
0010
,
0101
0000
0001
0000
1000
0000
0100
0000
0010
0000
0001
0000
1000
0010
0100
0000
,
0110
0000
0010
0000
1000
0000
0001
0000
1000
0000
0100
0000
0010
0100
1000
0000
,
1100
0000
0100
0000
0010
0000
0001
0000
0100
0000
0010
0000
1000
0001
0100
0000
,
1010
0000
1000
0000
0001
0000
0010
0000
0100
0000
0010
0000
0001
1000
0010
0000
,
0110
0100
0001
0100
0001
1000
0001
1000
,
1100
0100
0010
0001
1000
0100
0010
0001
,
0100
0010
1000
0001
0100
0001
1000
0100
0010
0001
0100
0010
1000
0001
0010
0100
,
1000
0100
1000
0100
0010
0001
0100
0010
1000
0001
0100
0001
0010
0001
1000
0010
,
1000
0001
1000
0001
1000
0100
0010
0001
1000
0010
0100
0001
1000
0010
0100
0010
,
1000
0001
1000
0001
0010
0100
1000
0010
0100
0001
1000
0100
1000
0100
0010
0001
,
1000
0010
0100
0001
1000
0001
1000
0100
0010
0001
0100
0001
1000
0010
0100
0001
,
1000
0100
0010
0100
1000
0010
0100
0001
1000
0100
0010
0100
0010
0001
1000
0001
,
0100
0010
1000
0001
1000
0010
1000
0001
0010
0100
0010
0100
1000
0010
0100
0001
,
1000
0001
0010
0001
1000
0010
0100
0001
1000
0100
0010
0001
1000
0001
0100
0010
,
1000
0001
0010
0100
1000
0100
0010
0001
1000
0010
0100
0001
1000
0100
1000
0100
,
0010
0001
1000
0010
0100
0001
1000
1000
,
1200
0000
0000
0000
0000
0000
0000
0300
0110
0000
0010
0000
0001
0000
0100
0000
,
1000
0000
0000
0000
0100
0000
0000
0000
0001
0000
1000
0000
0200
0000
0000
0300
,
2001
0000
0020
0000
0030
0000
0000
3000
0011
0000
0001
0000
0010
0000
0100
0000
,
0001
0000
0000
0000
0100
0000
1000
0000
0001
0000
0100
0000
0020
0000
0000
0030
,
0201
0000
0000
0000
0320
0000
0000
0000
1030
0100
1000
0100
0010
0001
1000
0001
,
0100
0000
0010
0000
0100
0000
0000
0000
0101
0000
0001
0000
0020
0000
0000
0030
,
2100
0000
0000
0000
3002
0000
0000
0003
0101
0000
0100
0000
0001
0000
1000
0000
,
0200
0000
0000
0000
0010
0000
0000
0300
1100
0000
0001
0000
1100
0000
0000
0000
,
1002
0000
0000
0000
0103
0010
0001
0010
,
1000
0000
0000
0000
0001
0000
0000
0000
0010
0000
0100
0000
0020
0000
0000
0030
,
0011
0000
0000
1100
0000
0000
1010
0000
0101
0000
0001
0000
1000
0000
0001
0000
,
0010
0100
0010
0100
1000
0100
0010
0001
0100
0000
0100
0000
0020
0000
0000
0030
,
2001
0000
0000
0000
3020
0000
0000
0000
0130
0001
0100
0001
1000
0001
0010
0100
,
1000
0001
0100
0000
1000
0100
0010
0000
,
0102
0000
2003
0000
3100
0010
0001
0010
,
1100
0000
0000
0000
0021
0000
0000
0000
0230
0000
2300
0000
3020
0000
0000
0030
,
MMMM
0000
0000
0000
,
0000
0000
0000
0000
,
0000
0000
0000
0000
,
0000
0000
0000
0000
0000
0000
0000
0000
0000
0000
0000
0000
0000
0000
0000
0000
0000
0000
0000
0000
0000
0000
0000
0000
0000
0000
0000
0M00
0000
0M00
0000
00M0
,
0000
0000
M000
0000
000M
0000
M000
0M00
0000
0000
0000
0000
0000
0000
0000
0000
0000
0000
0000
0000
0000
0000
0000
0000
0000
0000
0000
0000
0000
0000
0000
0000
,
0000
0000
0000
0000
,
0000
0000
0000
0000
,
0000
0000
0000
0000
0000
0000
0000
0000
0000
0000
0000
0000
0000
0000
0M00
M000
,
000M
0MM0
0000
0000
0000
0000
0000
0000
0000
0000
0000
0000
0000
0000
0000
0000
,
0000
0000
0000
0000
0000
0000
0000
0000
0000
0000
0000
0000
0000
0000
0000
000M
,
M000
M000
0000
0M00
00M0
0000
0000
0000
0000
0000
0000
0000
0000
0000
0000
0000
,
0000
0000
0000
0000
,
00M0
00M0
00M0
M000
0000
0000
0000
0000
0000
0000
0000
0000
0000
0000
0000
0000
,
0000
0000
0000
0000
,
0000
0000
0000
0000
,
0000
0000
0000
0000
,
M00M
0M00
0M00
0000
0000
0000
0000
0000
0000
0000
0000
0000
0000
0000
0000
0000
,
0000
0000
0000
0000
,
000M
000M
00M0
0000
0000
0000
0000
0000
0000
0000
0000
0000
0000
0000
0000
0000
,
0000
0000
0000
0000
0000
0000
0000
00M0
,
MM00
00M0
0000
0000
0000
0000
0000
0000
0000
0000
0000
0000
0000
0000
0000
0000
,
0000
0000
0000
0000
0000
0000
0000
0000
0000
0000
0000
0000
0000
0000
0000
0M0M
,
00M0
00M0
0M0M
0000
0000
0000
0000
0000
0000
0000
0000
0000
0000
0000
0000
0000
,
0000
0000
0000
0000
,
M000
0M00
0MM0
0M00
0000
0000
0000
0000
0000
0000
0000
0000
0000
0000
0000
0000
,
0000
0000
0000
0000
0000
0000
0000
0000
0000
0000
0000
0000
0000
0000
0000
M000
,
000M
0M00
0M00
000M
0000
0000
0000
0000
0000
0000
0000
0000
0000
0000
0000
0000
,
0000
0000
0000
0000
0000
0000
0000
0000
0000
0000
0000
0000
0000
0000
0000
00M0
,
0M00
0M00
M000
0000
0000
0000
0000
0000
0000
0000
0000
0000
0000
0000
0000
0000
,
0000
0000
0000
0000
0000
0000
0000
0000
0000
0000
0000
0000
0000
0000
0000
00M0
,
MM00
0000
00M0
000M
0000
0000
0000
0000
0000
0000
0000
0000
0000
0000
0000
0000
,
0000
0000
0000
0000
,
00M0
0M0M
MM00
0000
0000
0000
0000
0000
0000
0000
0000
0000
0000
0000
0000
0000
,
0000
0000
0000
0000
0000
0000
0000
0000
0000
0000
0000
0000
0000
0000
0000
0M00
,
MM00
0MM0
0000
0000
0000
0000
0000
0000
0000
0000
0000
0000
0000
0000
0000
0000
,
0000
0000
0000
0000
0000
0000
0000
M000
,
00M0
0MM0
0M00
0000
0000
0000
0000
0000
0000
0000
0000
0000
0000
0000
0000
M000
,
0000
000M
0000
0000
0M00
0000
0000
0000
0000
0000
0000
0000
0000
0000
0000
0000
,
MM00
00MM
0000
0000
0000
0000
0000
0000
0000
0000
0000
0000
0000
0000
0000
0000
,
0000
0000
0000
0000
,
0000
0000
0000
0000
,
2001
0000
3200
0000
0310
0001
0100
0001
,
0010
0000
0100
0000
1000
0000
0010
0000
1000
0000
0100
0000
0020
0000
0000
0030
,
0012
0000
2003
0000
3010
0100
0001
0100
,
0010
0000
1000
0000
0100
0000
1000
0000
0010
0100
0001
0100
0020
0000
0000
0030
,
0102
2003
3200
0000
0310
0001
1000
0010
,
1000
0000
0001
0000
0010
0000
0001
0000
1000
0000
0010
0000
0200
0000
0000
0300
,
2001
0000
3100
0000
0010
0000
0001
0000
1100
0000
0001
0000
0200
0000
0000
0300
,
0110
0000
0000
0000
0000
0110
1001
0000
,
1200
0000
0320
0000
0130
1000
0010
0100
,
0001
0000
0010
0000
0001
0000
0100
0000
0010
0000
1000
0000
0200
0000
0000
0300
,
0011
0000
0000
0101
0000
0000
1010
0000
1000
0000
0010
0000
0001
0000
0010
0000
,
1000
0000
0010
0000
0001
0000
0010
0000
1000
0000
1000
0000
0002
0000
0000
0003
,
0021
0230
2300
0000
3001
0010
1000
0010
,
0001
0000
0010
0000
1000
0000
0010
0000
0001
0000
1000
0000
0020
0000
0000
0030
,
0102
0000
0000
0000
0000
0000
0000
0000
0000
0000
0000
0000
0000
0000
0000
0000
0000
0000
0000
0000
0000
0000
0000
0000
0000
0000
0000
0000
0003
1000
0000
0000
0001
0000
0000
0000
0000
0000
0000
0000
1000
0000
0000
0000
0000
0000
0000
0000
0001
0000
0000
0000
0000
0000
0000
0000
0000
0000
0000
0000
0000
0000
0000
0000
,
1100
0000
0000
0000
,
0012
0000
0000
0000
0103
1000
0100
0010
,
0001
0010
2000
0000
3002
0000
0013
0000
,
0210
0000
0000
0000
0310
0100
0010
1000
,
0010
0100
2000
0000
3001
0100
0010
0100
,
2001
0000
0000
0000
3010
0100
0010
0001
,
1000
0100
0002
0000
0023
0000
0130
0000
,
2100
0000
0000
0000
3010
0100
0010
0001
,
0020
0000
0000
0000
2030
0000
0000
3000
1001
0000
0100
0000
1001
0000
0000
0000
,
0021
0000
0000
0000
0130
0001
0100
0010
,
1000
0010
0002
0000
0203
0000
0310
0000
,
1010
0000
0000
0001
0000
0000
0001
0000
0010
0000
0100
0000
0010
0000
1000
0000
,
0010
0001
2000
0000
3010
0010
0101
0000
,
2001
0000
0000
0000
3001
0100
0010
1000
,
0100
0001
2000
0000
3020
0000
0130
0000
,
2100
0000
0000
0000
3010
0100
0001
1000
,
1002
0023
0031
1000
,
1010
0000
0000
0001
0000
1000
0100
0010
;

//---------------dance-single - Loodee----------------
#NOTES:
     dance-single:
     Loodee:
     Hard:
     8:
     0.527,0.759,0.166,0.422,0.011:
0000
0000
0000
0000
,
0000
0000
0000
0000
,
0000
0000
0000
0000
,
0000
0000
0000
0000
,
0000
0000
0000
0000
,
1100
0000
0000
0000
,
0000
0000
0000
0000
,
0101
0000
0000
0000
,
0000
0000
0000
0000
,
1000
0100
1000
0100
0010
0001
1000
0001
,
1000
0010
0100
0010
1000
0001
0010
0100
,
1100
0000
0001
0000
0101
0100
0010
0000
,
0000
0000
0000
1010
,
1002
0000
0000
0000
0013
0100
0010
0000
,
0021
0000
0000
0130
1000
0001
1000
0000
,
1020
0000
0000
0000
0130
0001
0100
0000
,
2001
0000
0000
3100
0010
0001
1000
0010
,
2000
0000
0000
0000
3001
0100
0010
0000
,
0102
0000
0000
1003
0001
1000
0100
0000
,
0120
0000
0000
0000
0031
1000
0001
0000
,
0201
0000
0000
0310
1000
0010
0100
0001
,
2000
0000
3100
0000
0100
0010
0001
1000
,
0020
0000
0130
0001
1000
0001
1000
0100
,
0020
0000
0031
0000
0001
1000
0010
1000
,
0200
0000
0310
0100
1000
0001
0100
0001
,
1000
0100
1000
0100
1000
0100
1000
0100
,
0010
0001
1000
0001
1000
0001
1000
0001
,
0100
0010
0100
1000
0100
0010
1000
0001
,
1000
0100
0010
0001
0010
1000
0010
0100
,
1000
0000
0001
0010
0000
0010
0001
0000
,
1000
0000
0010
0100
0000
0100
0001
1000
,
0001
0000
0010
0100
0000
0100
1000
0000
,
0001
0000
1000
0010
0000
0010
0100
0001
,
0010
0000
0100
1000
0000
1000
0001
0000
,
1000
0000
0010
0100
0000
0100
0010
1000
,
0001
0000
0010
0100
0000
0100
0010
0000
,
0011
0000
0000
0000
0001
1000
0010
0010
,
2001
0000
0000
0000
3010
0100
0010
0100
,
0002
0023
0130
1000
,
2100
0000
0000
0000
3001
0010
0001
0010
,
0200
2300
3001
0100
,
0201
0000
0000
0000
0310
1000
0010
1000
,
0200
0000
0320
0000
0130
1000
0001
0000
,
0200
0000
0000
0000
0310
1000
0001
1000
,
0002
0000
2003
0000
3100
0010
0001
0000
,
0012
0000
0000
0000
1003
0010
1000
0010
,
2000
3002
0013
0100
,
1000
0000
0000
0001
0000
0000
1000
0000
0010
0000
0100
0000
0010
0000
0100
0000
,
0002
0000
2003
0000
3100
0010
0100
0000
,
2100
0000
0000
0000
3001
0100
0001
1000
,
0200
0000
0320
0000
0031
1000
0001
0000
,
0200
0000
0000
0000
0310
1000
0001
1000
,
0100
0000
0100
0000
1000
0001
1000
0000
,
MMMM
0000
0000
0000
,
0000
0000
0000
0000
,
0000
0000
0000
0000
,
0000
0000
0000
0000
,
MM00
00M0
0M00
000M
0000
0000
0000
0000
,
0000
0000
0000
0000
,
0000
0000
0000
0000
,
0000
0000
0000
0000
,
M000
0000
0000
0000
,
0000
0000
0000
0000
,
0M00
0000
0000
0000
,
0000
0000
0000
0000
,
00M0
0000
0000
0000
,
0000
0000
0000
0000
,
000M
0000
0000
0000
,
0000
0000
0000
0000
,
M000
0000
0000
0000
,
0000
0000
0000
0000
,
0M00
0000
0000
0000
,
0000
0000
0000
0000
,
00M0
0000
0000
0000
,
0000
0000
0000
0000
,
000M
0000
0000
0000
,
0000
0000
0000
0000
,
00M0
0000
0000
0000
,
0000
0000
0000
0000
,
0M00
0000
0000
0000
,
0000
0000
0000
0000
,
M000
0000
0000
0000
,
0000
0000
0000
0000
,
0M00
0000
0000
0000
,
0000
0000
0000
0000
,
00M0
0000
0000
0000
,
0000
0000
0000
0000
,
000M
0000
0000
0000
,
0000
0000
0000
0000
,
00M0
0000
0000
0000
,
0000
0000
0000
0000
,
0M00
0000
0000
0000
,
0000
0000
0000
0000
,
0000
0000
0000
0000
,
0002
0000
0000
0000
1003
0100
1000
0100
,
0010
0001
0010
0001
1000
0010
2000
0000
,
3002
0000
0000
0000
0103
0010
0100
0010
,
1000
0001
1000
0001
1000
0000
0010
0000
,
2000
0000
0000
0000
3100
0010
0100
0010
,
0001
0010
0001
1000
0001
1000
0020
0000
,
1030
0100
0010
0001
0010
0100
1000
0000
,
1010
0000
0000
0000
0000
0001
1000
0000
,
1002
0000
0000
0000
0103
0010
0100
0010
,
1000
0001
1000
0001
0100
0010
2000
0000
,
3001
0000
0000
0010
0000
0000
0100
0000
1000
0000
0100
0000
0010
0000
0100
0000
,
1000
0100
0010
0100
1000
0001
1000
0000
,
0020
0000
0000
0000
0130
0001
1000
0001
,
0100
0001
1000
0001
0100
0001
0020
0000
,
0230
0000
0000
0000
1300
0001
1000
0000
,
1001
0000
0000
0000
,
2010
0000
0000
0000
3001
0010
0001
0010
,
0100
1000
0100
0000
0100
0000
1000
0000
,
0002
0000
0000
0000
0103
0010
0100
0001
,
1000
0001
1000
0000
1000
0000
0010
0000
,
2000
0000
0000
0000
3100
0010
0001
1000
,
0001
0010
0100
0000
1000
0000
0010
0000
,
0200
0000
0000
0000
0301
1000
0001
0010
,
0200
0000
2300
0000
3010
0100
0010
0000
,
2000
0000
0000
0000
3010
0100
0010
0100
,
0001
1000
0001
0000
0001
0000
0010
0000
,
0100
0000
0000
1000
0000
0000
0100
0000
1000
0000
0001
0000
1000
0000
0010
0000
,
0100
0010
1000
0000
1000
0001
0010
0000
,
0200
0000
0000
0000
0310
0100
1000
0001
,
0100
0001
0020
0000
0230
0000
1300
0000
,
0020
0000
0000
0000
0130
0001
1000
0001
,
0020
0230
0300
1000
,
0001
0000
0000
0000
;

//---------------dance-single - Loodee----------------
#NOTES:
     dance-single:
     Loodee:
     Medium:
     5:
     0.389,0.569,0.203,0.376,0.000:
0000
0000
0000
0000
,
0000
0000
0000
0000
,
0000
0000
0000
0000
,
0000
0000
0000
0000
,
0000
0000
0000
0000
,
0110
0000
0000
0000
,
0000
0000
0000
0000
,
1001
0000
0000
0000
,
0000
0000
0000
0000
,
1000
0100
1000
0000
0001
0100
0001
0000
,
0010
0100
1000
0000
0010
0100
0001
0000
,
1000
0000
0001
0000
1000
0010
0100
0000
,
0000
0000
0000
0110
,
2002
0000
3003
0000
,
0202
0000
0303
0000
,
2200
0000
3300
0000
,
0022
0000
0033
0000
,
2020
0000
3030
0000
,
0220
0000
0330
0000
,
2002
0000
3003
0000
,
2200
0000
3300
0000
,
2000
0000
0000
0000
3001
0100
0001
0000
,
0020
0000
0000
0000
0130
1000
0100
0000
,
2000
0000
0000
0000
3010
0100
0010
0000
,
0200
0000
0000
0000
0301
1000
0001
1000
,
0002
0000
0000
0000
0013
0100
1000
0000
,
2000
0000
0000
0000
3001
0100
0010
0000
,
0020
0000
0000
0000
1030
0001
1000
0000
,
2000
0000
0000
0000
3100
0010
0001
1000
,
0010
0000
0000
0100
0000
0100
0000
0000
,
0001
0000
0000
1000
0000
1000
0000
0100
,
1000
0000
0000
0010
0000
0010
0000
0000
,
0100
0000
0000
0001
0000
0001
0000
0010
,
0100
0000
0000
1000
0000
1000
0000
0000
,
0001
0000
0000
0100
0000
0100
0000
0001
,
0010
0000
0000
0100
0000
0100
0000
0000
,
1100
0000
0000
0000
0000
0000
0100
0010
,
1002
0000
0000
0000
1003
0100
1000
0000
,
0010
0100
0001
1000
,
0200
0000
0000
0000
0310
0001
0010
0000
,
0100
1000
0010
0100
,
0002
0000
0000
0000
1003
0100
1000
0100
,
2000
0000
3001
0100
,
0020
0000
0000
0000
1030
0001
1000
0000
,
0100
0010
0001
0001
,
0201
0000
0000
0000
0310
1000
0010
0000
,
0100
0001
0010
0100
,
2000
0000
0000
0000
3001
0100
0001
0000
,
1000
0000
0100
0000
0010
0100
0010
0000
,
0002
0000
0000
0000
1003
0010
0100
0000
,
0001
0010
0100
1000
,
0200
0000
0000
0000
1300
0001
0100
0000
,
0110
0000
0010
0000
1000
0001
1000
0000
,
0000
0000
0000
0000
,
0000
0000
0000
0000
,
0000
0000
0000
0000
,
0000
0000
0000
0000
,
0000
0000
0000
0000
,
0000
0000
0000
0000
,
0000
0000
0000
0000
,
0000
0000
0000
0000
,
0000
0000
0000
0000
,
0000
0000
0000
0000
,
0000
0000
0000
0000
,
0000
0000
0000
0000
,
0000
0000
0000
0000
,
0000
0000
0000
0000
,
0000
0000
0000
0000
,
0000
0000
0000
0000
,
0000
0000
0000
0000
,
0000
0000
0000
0000
,
0000
0000
0000
0000
,
0000
0000
0000
0000
,
0000
0000
0000
0000
,
0000
0000
0000
0000
,
0000
0000
0000
0000
,
0000
0000
0000
0000
,
0000
0000
0000
0000
,
0000
0000
0000
0000
,
0000
0000
0000
0000
,
0000
0000
0000
0000
,
0000
0000
0000
0000
,
0000
0000
0000
0000
,
0000
0000
0000
0000
,
0000
0000
0000
0000
,
0000
0000
0000
0000
,
0000
0000
0000
0000
,
0000
0000
0000
0000
,
0000
0000
0000
0000
,
0000
0000
0000
0000
,
0000
0000
0000
0000
,
0000
0000
0000
0000
,
0000
0000
0000
0000
,
0000
0000
0000
0000
,
2000
0000
0000
0000
3001
0100
0001
0000
,
1000
0100
1000
0000
0001
0100
0001
0000
,
0020
0000
0000
0000
0130
1000
0100
0000
,
1000
0001
1000
0000
0001
0100
0001
0000
,
2000
0000
0000
0000
3100
0010
0100
0000
,
1000
0001
1000
0000
0010
0100
0010
0000
,
1001
0000
0011
0000
,
0110
0000
0000
1001
,
0002
0000
0000
0000
1003
0010
1000
0000
,
0001
0100
0001
0000
1000
0010
0100
0000
,
0002
0000
0000
0000
0013
0100
0010
0100
,
1000
0100
1000
0000
0001
1000
0001
0000
,
0200
0000
0000
0000
0310
1000
0010
1000
,
0001
1000
0001
0000
1000
0000
0100
0000
,
0020
0000
0031
0001
,
1000
0000
0000
0000
,
2010
0000
3001
0010
,
0100
1000
0100
0000
1000
0000
0000
0000
,
0201
0000
0310
0100
,
0001
1000
0001
0000
0010
0000
0010
0000
,
0210
0000
1300
0001
,
0010
0100
0010
0000
0001
0000
0000
0000
,
2010
0000
3001
0100
,
0010
0000
0010
0000
0010
1000
0010
0000
,
1002
0000
0013
0100
,
1000
0100
1000
0000
0001
0000
0000
0000
,
0012
0000
1003
0010
,
0100
0010
0100
0000
0001
1000
0001
0000
,
0021
0000
0130
1000
,
0001
0100
0010
0000
1000
0000
0000
0000
,
1020
0000
0130
0001
,
2000
3002
1003
0001
,
0010
0000
0000
0000
;

//---------------dance-single - Loodee----------------
#NOTES:
     dance-single:
     Loodee:
     Easy:
     4:
     0.313,0.427,0.038,0.271,0.000:
0000
0000
0000
0000
,
0000
0000
0000
0000
,
0000
0000
0000
0000
,
0000
0000
0000
0000
,
0000
0000
0000
0000
,
0110
0000
0000
0000
,
0000
0000
0000
0000
,
1001
0000
0000
0000
,
0000
0000
0000
0000
,
0001
0010
0001
0010
,
0100
1000
0100
1000
,
0001
0000
0100
0000
0010
0100
0010
0000
,
1000
0000
0000
0001
,
0002
0000
0013
0000
,
0200
0000
1300
0000
,
0020
0000
0130
0000
,
0002
0000
0000
0000
1003
0100
1000
0000
,
0020
0000
1030
0000
,
0002
0000
0013
0000
,
0200
0000
0310
0000
,
0002
0000
0000
0000
1003
0010
1000
0000
,
0001
0010
0100
0010
,
0001
1000
0001
1000
,
0010
0100
0010
1000
,
0001
0010
0100
0010
,
0200
0000
1300
0001
,
0200
0000
0310
1000
,
0001
0000
1000
0000
0001
1000
0001
0000
,
0010
0000
0100
0000
1000
0100
1000
0000
,
0001
0000
0100
0000
,
0001
0000
0100
0001
,
1000
0000
0100
0000
,
1000
0000
0100
0010
,
0001
0000
0100
0000
,
0001
0000
1000
0000
,
0010
0000
0100
0000
,
0001
0000
0100
0000
0010
0000
0100
0010
,
2000
0000
3001
0010
,
0001
0010
0100
1000
,
0020
0000
0130
0001
,
1000
0001
1000
0100
,
0020
0000
0130
1000
,
0001
1000
0010
0100
,
0002
0000
0013
0100
,
0010
0000
0001
0000
1000
0010
1000
0000
,
0020
0000
0130
0001
,
1000
0100
1000
0100
,
0020
0000
0031
0100
,
0001
0000
0010
0000
0100
1000
0100
0000
,
2000
0000
3010
0100
,
0001
0100
0010
1000
,
0002
0000
0013
0100
,
1000
0000
0002
0000
0000
0000
0000
0003
,
0000
0000
0000
0000
,
0000
0000
0000
0000
,
0000
0000
0000
0000
,
0000
0000
0000
0000
,
0000
0000
0000
0000
,
0000
0000
0000
0000
,
0000
0000
0000
0000
,
0000
0000
0000
0000
,
0000
0000
0000
0000
,
0000
0000
0000
0000
,
0000
0000
0000
0000
,
0000
0000
0000
0000
,
0000
0000
0000
0000
,
0000
0000
0000
0000
,
0000
0000
0000
0000
,
0000
0000
0000
0000
,
0000
0000
0000
0000
,
0000
0000
0000
0000
,
0000
0000
0000
0000
,
0000
0000
0000
0000
,
0000
0000
0000
0000
,
0000
0000
0000
0000
,
0000
0000
0000
0000
,
0000
0000
0000
0000
,
0000
0000
0000
0000
,
0000
0000
0000
0000
,
0000
0000
0000
0000
,
0000
0000
0000
0000
,
0000
0000
0000
0000
,
0000
0000
0000
0000
,
0000
0000
0000
0000
,
0000
0000
0000
0000
,
0000
0000
0000
0000
,
0000
0000
0000
0000
,
0000
0000
0000
0000
,
0000
0000
0000
0000
,
0000
0000
0000
0000
,
0000
0000
0000
0000
,
0000
0000
0000
0000
,
0000
0000
0000
0000
,
0000
0000
0000
0000
,
2000
0000
3100
0100
,
0010
0010
0100
1000
,
0002
0000
0103
0100
,
0010
0010
1000
0001
,
0010
0100
1000
1000
,
0001
0001
1000
0010
,
0100
0000
0001
0000
1000
0100
0010
0000
,
1001
0000
0000
0000
,
1002
0000
0103
0100
,
0010
0010
0100
0001
,
0020
0000
0230
0000
,
1000
0000
0000
0000
1300
0001
0100
0000
,
0020
0000
0230
0000
,
0001
0000
0310
1000
,
0002
0000
0000
0000
0013
0100
0010
0000
,
0001
0000
0000
0000
,
2000
0000
3010
0100
,
0010
0100
0001
0000
,
0020
0000
0130
1000
,
0100
0010
0001
0001
,
0200
0000
0310
0100
,
1000
0100
0010
0000
,
2000
0000
3100
0010
,
0100
0000
0100
0000
1000
0001
1000
0000
,
0020
0000
0130
0001
,
1000
0100
1000
0000
,
0002
0000
0103
0010
,
1000
0000
0001
0000
0010
0001
0010
0000
,
0200
0000
1300
0010
,
0100
1000
0100
0000
,
0002
0000
1003
0100
,
2000
0000
3000
0100
,
1001
0000
0000
0000
;

//---------------dance-single - Loodee----------------
#NOTES:
     dance-single:
     Loodee:
     Beginner:
     1:
     0.092,0.142,0.008,0.000,0.000:
0000
0000
0000
0000
,
0000
0000
0000
0000
,
0000
0000
0000
0000
,
0000
0000
0000
0000
,
0000
0000
0000
0000
,
0001
0000
0000
0000
,
0000
0000
0000
0000
,
1000
0000
0000
0000
,
0000
0000
0000
0000
,
0001
0000
0000
0000
,
1000
0000
0000
0000
,
0100
0000
0100
0000
,
0000
0000
0000
0000
,
1000
0000
0000
0000
,
0001
0000
0000
0000
,
0100
0000
0000
0000
,
0010
0000
0000
0000
,
1000
0000
0000
0000
,
0100
0000
0000
0000
,
0010
0000
0000
0000
,
0100
0000
0000
0000
,
1000
0000
0000
0000
,
0001
0000
0000
0000
,
0100
0000
0000
0000
,
0001
0000
0000
0000
,
0010
0000
0000
0000
,
0010
0000
0000
0000
,
0100
0000
0000
0000
,
0010
0000
0000
0000
,
0001
0000
0000
0000
,
0000
0000
0000
0000
,
1000
0000
0000
0000
,
0000
0000
0000
0000
,
0001
0000
0000
0000
,
0000
0000
0000
0000
,
1000
0000
0000
0000
,
0100
0000
0000
0000
,
0100
0000
0000
0000
,
1000
0000
0000
0000
,
0001
0000
0000
0000
,
1000
0000
0000
0000
,
0010
0000
0000
0000
,
1000
0000
0000
0000
,
0100
0000
0000
0000
,
1000
0000
0000
0000
,
1000
0000
0000
0000
,
0001
0000
0000
0000
,
0100
0000
0000
0000
,
0001
0000
0000
0000
,
0010
0000
0000
0000
,
0001
0000
0000
0000
,
1000
0000
0000
0000
,
0010
0000
0000
0000
,
0000
0000
0000
0000
,
0000
0000
0000
0000
,
0000
0000
0000
0000
,
0000
0000
0000
0000
,
0000
0000
0000
0000
,
0000
0000
0000
0000
,
0000
0000
0000
0000
,
0000
0000
0000
0000
,
0000
0000
0000
0000
,
0000
0000
0000
0000
,
0000
0000
0000
0000
,
0000
0000
0000
0000
,
0000
0000
0000
0000
,
0000
0000
0000
0000
,
0000
0000
0000
0000
,
0000
0000
0000
0000
,
0000
0000
0000
0000
,
0000
0000
0000
0000
,
0000
0000
0000
0000
,
0000
0000
0000
0000
,
0000
0000
0000
0000
,
0000
0000
0000
0000
,
0000
0000
0000
0000
,
0000
0000
0000
0000
,
0000
0000
0000
0000
,
0000
0000
0000
0000
,
0000
0000
0000
0000
,
0000
0000
0000
0000
,
0000
0000
0000
0000
,
0000
0000
0000
0000
,
0000
0000
0000
0000
,
0000
0000
0000
0000
,
0000
0000
0000
0000
,
0000
0000
0000
0000
,
0000
0000
0000
0000
,
0000
0000
0000
0000
,
0000
0000
0000
0000
,
0000
0000
0000
0000
,
0000
0000
0000
0000
,
0000
0000
0000
0000
,
0000
0000
0000
0000
,
1000
0000
0100
0000
,
0000
0000
0000
0000
,
1000
0000
0001
0000
,
0000
0000
0000
0000
,
0100
0000
0001
0000
,
0000
0000
0000
0000
,
0010
0000
0000
0000
,
0001
0000
0000
0000
,
0001
0000
1000
0000
,
1000
0000
0000
0000
,
0010
0000
1000
0000
,
1000
0000
0000
0000
,
0100
0000
0010
0000
,
0010
0000
0000
0000
,
0001
0000
0000
0000
,
1000
0000
0000
0000
,
0010
0000
0000
0000
,
0100
0000
0100
0000
,
0001
0000
0000
0000
,
1000
0000
1000
0000
,
0001
0000
0000
0000
,
0010
0000
0010
0000
,
0001
0000
0000
0000
,
1000
0000
0000
0000
,
1000
0000
0000
0000
,
0010
0000
0010
0000
,
1000
0000
0000
0000
,
0001
0000
0001
0000
,
0001
0000
0000
0000
,
0100
0000
0100
0000
,
0001
0000
0000
0000
,
1000
0000
0000
0000
,
1001
0000
0000
0000
;
