#TITLE:New Day;
#SUBTITLE:;
#ARTIST:TANUKI vs. JAKAZiD;
#TITLETRANSLIT:;
#SUBTITLETRANSLIT:;
#ARTISTTRANSLIT:;
#GENRE:;
#CREDIT:;
#BANNER:New Day-bn.png;
#BACKGROUND:New Day-bg.png;
#LYRICSPATH:;
#CDTITLE:;
#MUSIC:New Day.ogg;
#OFFSET:0.000000;
#SAMPLESTART:11.332221;
#SAMPLELENGTH:22.588238;
#SELECTABLE:YES;
#BPMS:0.000000=85.000000
,14.000000=170.000000
,82.000000=85.000000
,90.000000=170.000000
,104.000000=85.000000
,105.000000=170.000000
,231.000000=85.000000
,232.000000=170.000000
,248.000000=85.000000
,249.000000=170.000000
,279.000000=85.000000
,280.000000=170.000000
;
#STOPS:
;
#BGCHANGES:;
#KEYSOUNDS:;
#ATTACKS:;

//---------------dance-single - ----------------
#NOTES:
     dance-single:
     :
     Hard:
     11:
     0.789848,0.805738,0.527598,0.238503,0.545666,659.000000,73.000000,33.000000,0.000000,0.000000,0.000000,0.789848,0.805738,0.527598,0.238503,0.545666,659.000000,73.000000,33.000000,0.000000,0.000000,0.000000:
0000
0000
0000
0000
,
0000
0000
0000
0000
,
1000
0000
0000
0000
0100
0000
0000
1000
0100
0000
0000
0000
0010
0000
0000
0000
0001
0000
0000
0000
0010
0000
0000
0100
1000
0000
0001
0000
0100
0001
0100
0000
,
0020
0000
0000
2000
0000
0000
0000
0000
0030
0000
0000
0000
0000
0000
0000
0000
,
3000
0000
0010
0000
0100
0000
0010
0000
2010
0000
0000
3010
0000
0000
0101
0000
,
0000
0001
0000
0000
1000
0010
1000
0100
0000
0000
0011
0000
0011
0000
0000
0100
,
0000
1000
0000
0000
0010
0100
0001
0100
0010
0000
0000
1000
0000
0000
0101
0000
,
0000
0001
0000
0000
0100
0010
0100
0001
0000
0000
1100
0000
1000
0000
0001
0010
,
0000
0000
0010
0000
0100
0000
0100
0000
1200
0000
0000
1300
0000
0000
1010
0000
,
0000
0100
0000
0000
0001
0010
0001
0100
0000
0000
1010
0000
1010
0000
0000
0100
,
0000
0001
0000
0000
0010
0100
1000
0100
0020
0000
0000
0031
0000
0000
1100
0000
,
0000
1000
0000
0000
0010
0100
0001
0100
0020
0000
1000
0030
1000
0000
0001
0010
,
0000
0000
0010
0000
0100
0000
0100
0000
1000
0000
0010
0000
0100
0000
0001
1000
,
0001
0000
0010
0000
0100
1000
0100
1000
0001
0000
0100
0000
1000
0000
0100
0010
,
0100
0000
0001
0000
0010
0100
0010
0001
1000
0000
0010
0000
0001
0000
0010
0100
,
0010
0000
1000
0000
0100
0010
0100
0010
0001
0000
0010
0000
1000
0000
0010
0001
,
0010
0000
0100
0000
1000
0001
1000
0010
0100
0000
0001
0000
0010
0000
0100
1000
,
0100
0000
1000
0000
0001
0100
0001
0100
0020
0000
0032
0000
2003
0000
3200
0000
,
0301
0000
0020
0000
0130
1000
0100
1000
0001
0000
0100
0000
0010
0000
1000
0010
,
1000
0000
0001
0000
0010
0100
0010
0100
1000
0000
0001
1000
0000
0001
1000
0001
,
1000
0010
0100
0000
0110
0000
0000
0000
1000
0000
0000
0000
1000
0020
0000
0030
,
1000
0000
0000
0000
1000
0002
0000
0003
0100
0000
0000
0000
0100
2000
0000
3000
,
0100
0000
0000
0000
0100
0020
0000
0030
1000
0000
0000
0000
1000
0000
0000
0000
,
0001
0020
0001
0000
0130
0000
0100
0000
,
1000
0200
1000
0000
0310
0001
0010
0001
,
1000
0000
0010
0000
1000
0000
0010
0000
0100
0001
0100
0001
1000
0100
1000
0100
,
0010
0000
0001
0100
0201
0010
0010
0010
,
0310
1010
1000
0001
0021
0100
0130
0110
,
0010
0001
1000
0010
1020
0100
0100
0100
,
0130
0101
0001
1000
1200
0010
0310
0110
,
0000
0000
0001
1000
1002
0100
0100
0100
,
0103
0110
1000
0100
1200
0010
0310
0110
,
1000
0001
0100
0001
2001
0100
0100
0100
,
3100
0000
0110
0000
0001
0000
1000
0001
0000
1000
0001
1000
0001
0000
0100
0000
,
0100
0000
0100
0000
1010
0000
0000
0000
1000
0000
0101
0000
0000
0000
0001
0010
,
0001
0000
1000
0010
1000
0000
0000
0000
0001
0000
1000
0100
0010
0100
0010
0100
,
1000
0000
0001
0000
1001
0000
0000
0000
0010
0000
0101
0000
0000
0000
1000
0100
,
1000
0000
0010
1000
0010
0000
0000
0000
0100
0000
0011
0000
0010
0100
1000
0000
,
1010
0000
0100
0000
0101
0000
0000
0000
0010
0000
1100
0000
0000
0000
0001
0010
,
0001
0000
1000
0100
1000
0000
0000
0000
0010
0000
0101
0000
0001
0100
0010
0100
,
0001
0100
0100
0000
1010
0000
0000
0001
,
0000
0000
0011
0000
1000
0000
0000
0000
1100
0000
0000
0000
0100
0010
0001
1000
,
0010
0000
0010
0000
0100
0000
0001
0000
1000
0000
0100
0010
0000
0100
1000
0000
,
0010
0000
0001
0000
0010
0000
1000
0000
0001
0000
0100
0010
0000
0100
0010
0000
,
1000
0000
0100
0000
0010
0000
1000
0000
0010
0000
0001
0010
0000
0001
1000
0000
,
0010
0000
0001
0000
0010
0000
0100
0000
0001
0000
1000
0010
0000
0100
0010
0000
,
1000
0000
1000
0000
0001
0000
0010
0000
0100
0000
1000
0001
0000
1000
0001
0000
,
0010
0100
2000
3020
0032
2003
3100
0020
,
1030
0000
0100
0000
0010
0000
0001
0000
0100
0000
1000
0100
0000
0100
0001
0000
,
1000
0000
0010
0000
0100
0000
0001
0000
0010
0000
1000
0010
0000
0010
0001
0000
,
0001
0001
0100
0000
0100
0000
0010
1000
,
0010
0100
0100
0001
,
0001
0000
0010
0000
0010
0000
0100
1000
,
0100
0010
0010
0001
,
0001
0000
1000
0010
1000
0010
0100
0010
,
0100
0000
0010
1000
0001
0000
0010
0000
0001
0000
0010
0000
0100
0000
0010
0000
,
0100
0000
0010
0001
1000
0000
0010
0000
0001
0000
1000
0000
0100
0000
0001
0000
,
0010
0000
0100
0000
1000
0010
1000
0010
0100
0001
0100
0001
0020
0000
0000
0030
,
0100
0000
0000
0000
0100
0000
0000
0000
1100
0000
0000
0010
0000
0000
0101
0000
,
0000
1000
1001
0000
0110
1000
0000
1000
,
0101
0000
0000
0000
0001
0000
0000
0000
0011
0000
0000
0100
0000
0000
1010
0000
,
0000
0000
0100
0000
1001
0000
0000
0000
0010
0000
1001
0000
0000
0000
0000
0100
,
0010
0000
0000
0000
1010
0000
0000
0100
0000
0000
0011
0000
0000
0000
1000
0000
,
0101
0000
1010
0100
0000
0100
0001
0000
,
1000
0010
0100
0000
0000
0000
0100
0001
1000
0000
0000
0000
1000
0100
0010
0000
,
0000
0000
0010
0001
0100
0000
0100
0000
0010
1000
0010
1000
0001
0000
0000
0000
,
0001
0000
0001
0000
0110
0000
0000
1000
0000
0000
0110
0000
0000
0000
0001
0000
,
1010
0000
0101
0010
0000
0010
1100
0000
,
1000
0000
1000
0000
0110
0000
0000
0011
0000
0000
1100
0000
0000
0000
0010
0000
,
0110
0000
0000
0000
1000
0000
0101
0000
0000
0000
0000
0000
0020
0030
0000
0000
,
1100
0000
0000
0001
0000
0000
1010
0000
0000
0000
0100
0000
1001
0000
0000
0000
,
0011
0000
0100
0000
0000
0000
0000
0000
1000
0000
0000
0000
0001
0100
0010
0000
,
0000
0000
1000
0010
0100
0000
0000
0000
0001
0010
0100
0000
0000
0000
1000
0000
,
0000
0000
0000
0000
0200
0000
0300
0000
0010
0000
0000
0000
0011
0000
0000
1000
,
0000
0000
1000
0000
0010
0100
0010
0000
1000
0000
0000
1000
0000
0000
0100
0000
,
0000
0000
0010
0001
1000
0000
0000
0000
0010
0000
0000
1000
0010
0000
1000
0001
,
0000
0001
1000
0000
0010
0000
0100
0000
0001
0000
0000
0010
0001
0000
1000
0001
,
0000
0001
0100
0000
0010
0000
1000
0000
0001
0000
0000
0000
1100
0000
0000
0001
,
0000
0000
0001
0000
0100
0010
0100
0000
0001
0000
0000
0001
0000
0000
0010
0000
,
0000
0000
0100
1000
0001
0000
0000
0000
0100
0000
0000
0001
0100
0000
0001
1000
,
0000
1000
0001
0000
0100
0000
0010
0000
1000
0000
0000
0100
1000
0000
0001
1000
,
0000
1000
0010
0100
0001
1000
0100
0000
0110
0000
0000
0000
0001
0000
0000
0100
,
0000
0000
0100
0000
0010
1000
0010
0000
0100
0000
0000
0100
0010
0000
1000
0000
,
0000
0000
0001
0010
0100
0000
0000
0000
0010
0000
0000
0001
1000
0000
0010
0001
,
0000
0001
0010
0000
1000
0000
0000
0000
0100
0000
0000
1000
0001
0000
0010
1000
,
0000
1000
0010
0000
0100
0000
0000
0000
1000
0000
0000
0000
1010
0000
0000
0000
,
0000
0000
0100
0010
0100
0000
0101
0000
0001
0000
0000
0000
0011
0000
1000
0000
,
0000
1100
0100
0000
1000
0000
0101
0000
,
0000
1000
0100
0020
0000
0000
0000
0130
,
1000
0000
0001
0100
0000
0000
0000
0000
0000
0000
0000
0000
0000
0000
0000
0000
;

//---------------dance-single - ----------------
#NOTES:
     dance-single:
     :
     Medium:
     8:
     0.644268,0.645042,0.498688,0.238503,0.177070,522.000000,69.000000,33.000000,0.000000,0.000000,0.000000,0.644268,0.645042,0.498688,0.238503,0.177070,522.000000,69.000000,33.000000,0.000000,0.000000,0.000000:
0000
0000
0000
0000
,
0000
0000
0000
0000
,
1000
0000
0010
0000
0100
0000
0010
0000
1000
0000
0001
0000
0010
0100
1000
0100
,
0020
0000
0000
0002
0000
0000
0000
0000
0030
0000
0000
0000
0000
0000
0003
0000
,
0000
0000
1000
0000
0010
0000
1000
0000
0001
0000
0000
0001
0000
0000
0010
0000
,
0000
0010
0000
0000
0100
0000
0010
0000
0000
0000
0001
0000
1000
0000
0000
0100
,
0000
0100
0000
0000
1000
0000
0010
0000
0100
0000
0000
0100
0000
0000
0001
0000
,
0000
0001
0000
0000
1000
0000
0100
0000
0000
0000
0010
0000
0010
0000
0001
1000
,
0000
0000
0010
0000
0100
0000
0001
0000
1000
0000
0000
1000
0000
0000
0010
0000
,
0000
0010
0000
0000
0100
0000
0010
0000
0000
0000
1000
0000
0001
0000
0000
0100
,
0000
0100
0000
0000
0001
0000
0010
0000
0100
0000
0000
0100
0000
0000
1000
0000
,
0000
1000
0000
0000
0001
0000
0100
0000
0000
0000
0010
0000
0010
0000
1000
0001
,
0000
0010
0100
1000
0001
0100
0010
1000
,
0001
0100
0010
0001
0010
1000
0001
0100
,
1000
0100
0001
0010
1000
0010
0100
1000
,
0001
0010
0100
0001
0100
1000
0010
0100
,
0001
1000
0100
0010
0100
1000
0010
0100
,
0001
1000
0010
0100
2000
3200
0302
0023
,
0130
2000
3001
0100
0010
1000
0200
0010
,
0310
0000
0100
0000
1000
0000
0010
0000
0100
0000
0000
0100
0000
0000
0100
0000
,
0100
0000
0001
0000
1000
0000
0000
0000
0010
0000
0000
0000
0010
2000
0000
3000
,
0010
0000
0000
0000
0010
0200
0000
0300
0010
0000
0000
0000
0010
0002
0000
0003
,
0010
0000
0000
0000
0010
0200
0000
0300
0001
0000
0000
0000
0001
0000
0000
0000
,
0001
0100
0001
0000
1000
0000
1000
0000
,
0100
0010
0100
0000
1000
0001
1000
0001
,
0100
0010
0100
0010
1000
1000
0001
0001
,
1001
0000
1000
0100
1100
1000
0010
0100
,
0001
0101
0100
0010
1010
1000
0001
0011
,
0000
0010
0001
0100
0101
0001
0010
0100
,
1000
1100
0100
0010
0011
0001
1000
0010
,
0000
0000
0100
0001
1001
1000
0100
0010
,
0100
0110
0010
0100
1100
1000
0001
0101
,
0100
0010
1000
0010
0110
0100
0010
0100
,
0001
0000
1001
0000
1000
0000
0000
1000
0000
0000
1000
0000
1000
0000
0100
0000
,
0100
0100
0010
0000
0001
1000
0000
0010
,
0001
0010
1000
0000
0100
0001
0100
1000
,
0010
0100
0001
0000
1000
0100
0000
0010
,
1000
0010
0001
0000
0100
1000
0100
0001
,
0010
0100
0100
0000
1000
0001
0000
0010
,
1000
0010
0001
0000
0100
1000
0100
0001
,
0010
0100
2000
0000
3010
0000
0000
0200
,
0000
0301
2000
0000
3001
0000
0010
0010
,
0100
0100
1000
0010
0100
0010
1000
0001
,
0000
0010
0001
0100
0010
1000
0100
0010
,
0000
0100
1000
0001
0100
0010
0000
0001
,
0000
0010
1000
0100
0001
0100
1000
0001
,
0000
0100
0001
0010
0100
0010
0001
1000
,
0000
0010
0002
0023
2030
3200
0300
0020
,
0030
0100
1000
0010
0002
0013
1000
0001
,
0000
0100
0001
0010
2000
3010
0001
1000
,
1000
1000
0010
0000
0010
0000
0100
0000
,
0100
0001
0001
1000
,
1000
0100
0100
0010
,
0010
0001
0001
1000
,
1000
0000
0010
0100
0010
0100
0010
1000
,
0010
1000
1000
0001
0100
0001
1000
0100
,
0010
0100
0100
1000
0001
0100
0010
1000
,
0001
0000
0010
0000
0100
0000
0100
0000
0100
0000
0100
0000
2002
0000
0000
3003
,
0010
0000
0000
0000
0010
0000
0000
0000
0101
0000
0000
0010
0000
0000
1100
0000
,
0000
0001
0011
0000
1001
1000
0000
0010
,
0100
0000
0000
0000
0100
0000
0000
0000
0101
0000
0000
0010
0000
0000
1100
0000
,
0000
0000
0001
0000
0101
0000
0000
0000
1000
0000
1010
0000
0000
0000
0000
1000
,
0001
0000
0000
0000
0110
0000
0000
1000
0000
0000
0110
0000
0000
0000
0001
0000
,
0101
0000
1100
0100
0000
0100
0010
0000
,
0011
0001
0000
0101
0100
0000
0110
0010
,
0000
1010
1000
0000
0100
0100
2000
0000
,
3000
0000
0000
0000
1001
0000
0000
0010
0000
0000
0101
0000
0000
0000
1000
0000
,
1100
0000
0110
0100
0000
0100
2000
3000
,
1000
0000
1000
0000
1001
0000
0000
0110
0000
0000
1001
0000
0000
0000
0100
0000
,
0110
0000
1000
1002
0000
0000
0103
0000
,
1010
0000
0000
0001
0000
0000
1100
0000
0000
0000
0001
0000
0101
0000
0000
0000
,
1010
2000
0000
0000
3001
0000
0011
0010
,
0000
0110
0100
0000
1100
1000
0000
1001
,
0000
0000
0000
0000
0000
0000
0000
0000
1000
0000
0000
0000
1010
0000
0000
0100
,
0000
0000
0100
0000
0110
0000
0000
0000
0001
0000
0000
0000
0101
0000
0000
0001
,
0000
0000
0000
0001
1000
0000
0000
0000
0010
0000
0000
0000
1010
0000
0000
0001
,
0000
0001
0000
0000
0101
0000
0000
0000
1000
0000
0000
0000
1100
0000
0000
0010
,
0000
0000
0010
0000
0110
0000
0000
0000
0001
0000
0000
0000
0011
0000
0000
0100
,
0000
0000
0100
0000
0110
0000
0000
0000
1000
0000
0000
0000
1100
0000
0000
1000
,
0000
0000
0000
1000
0001
0000
0000
0000
0010
0000
0000
0000
0011
0000
0000
1000
,
0000
1000
0000
0000
1100
0000
0000
0000
0001
0000
0000
0000
0101
0000
0000
0010
,
0000
0000
0010
0000
0100
0000
0101
0000
0001
0000
0000
0000
1100
0000
0000
0010
,
0000
0000
0010
0000
0101
0000
0000
0000
1000
0000
0000
0000
0011
0000
0000
0100
,
0000
0000
0000
0100
0010
0000
0000
0000
0001
0000
0000
0000
1010
0000
0000
0100
,
0000
0100
0000
0000
0011
0000
0000
0000
0100
0000
0000
0000
1001
0000
0000
0010
,
0000
0010
0110
0000
2000
0000
3010
0000
,
0000
0200
0000
0301
2000
0000
0100
0000
,
0000
3001
0000
0000
0200
0000
0310
0000
,
0000
1000
0100
0020
0000
0000
0000
0000
,
0130
0000
0000
1000
0001
0000
0000
0000
0000
0000
0000
0000
0000
0000
0000
0000
;

//---------------dance-single - ----------------
#NOTES:
     dance-single:
     :
     Beginner:
     3:
     0.192041,0.225765,0.000000,0.028909,0.000000,182.000000,0.000000,4.000000,0.000000,0.000000,0.000000,0.192041,0.225765,0.000000,0.028909,0.000000,182.000000,0.000000,4.000000,0.000000,0.000000,0.000000:
// measure 0
0000
0000
0000
0000
,  // measure 1
0000
0000
0000
0000
,  // measure 2
1000
0000
0000
0000
,  // measure 3
0001
0000
0000
0000
,  // measure 4
0000
0000
1000
0000
,  // measure 5
1000
0000
0001
0000
,  // measure 6
0001
0000
0010
0000
,  // measure 7
0010
0000
0100
0000
,  // measure 8
0100
0000
1000
0000
,  // measure 9
1000
0000
0001
0000
,  // measure 10
0001
0000
0010
0000
,  // measure 11
1000
0000
0010
0000
,  // measure 12
0001
0000
1000
0000
,  // measure 13
1000
0000
0010
0000
,  // measure 14
0010
0000
0100
0000
,  // measure 15
0100
0000
0001
0000
,  // measure 16
0001
0000
1000
0000
,  // measure 17
1000
0000
0100
0000
,  // measure 18
0001
0000
0100
0000
,  // measure 19
0100
0000
0010
0000
,  // measure 20
0010
0000
0001
0001
,  // measure 21
0001
0001
1000
1000
,  // measure 22
1000
1000
0010
0000
,  // measure 23
0010
0000
0100
0000
,  // measure 24
0100
0000
0001
0000
,  // measure 25
1000
0000
0200
0000
,  // measure 26
0310
0000
1000
0000
,  // measure 27
0000
1000
0000
0000
0001
0000
0000
0001
,  // measure 28
0000
0000
0100
0000
,  // measure 29
0000
0100
0000
0000
0010
0000
0000
0000
,  // measure 30
0000
0000
1000
0000
,  // measure 31
0000
1000
0000
0000
0100
0000
0000
0100
,  // measure 32
0000
0000
0001
0000
,  // measure 33
0000
0001
0000
0000
0000
0000
0000
0000
,  // measure 34
0000
1000
0000
1000
,  // measure 35
0000
0010
0000
0010
,  // measure 36
0000
0100
0000
0100
,  // measure 37
0000
0001
0000
1000
,  // measure 38
0000
0001
0000
0001
,  // measure 39
0000
0010
0000
0010
,  // measure 40
0000
0200
0000
0010
,  // measure 41
0000
0010
0000
0310
,  // measure 42
0000
1000
0000
1000
,  // measure 43
0000
0001
0000
0001
,  // measure 44
0000
0100
0000
0100
,  // measure 45
0000
0010
0000
0010
,  // measure 46
0000
1000
0000
1000
,  // measure 47
0000
0001
0000
0100
,  // measure 48
0000
1000
0000
0010
,  // measure 49
0000
0001
0000
0010
,  // measure 50
0000
1000
0000
1000
,  // measure 51
0000
1000
0000
1000
,  // measure 52
0000
0001
0000
0001
,  // measure 53
0000
0001
0000
0001
,  // measure 54
0000
0100
0000
0100
,  // measure 55
0000
0010
0000
0010
,  // measure 56
0000
1000
0000
0001
,  // measure 57
0000
0100
0100
0100
,  // measure 58
1000
0000
0000
0000
0010
0000
0000
1000
,  // measure 59
0000
0010
1000
0000
,  // measure 60
0001
0000
0000
0000
0010
0000
0000
0001
,  // measure 61
0000
0000
0010
0000
0000
0001
0000
0000
,  // measure 62
1000
0000
0100
0000
0000
1000
0000
0000
,  // measure 63
0100
1000
0000
0001
,  // measure 64
0000
1000
0000
0000
0001
0000
0000
1000
,  // measure 65
0000
0100
0000
0010
,  // measure 66
0000
0000
0001
0000
0000
0010
0000
0000
,  // measure 67
0001
0010
0000
0100
,  // measure 68
0000
0000
1000
0000
0000
0100
0000
0000
,  // measure 69
1000
0000
0000
0100
0000
0000
0001
0000
,  // measure 70
0100
0000
0000
0001
0000
0000
0100
0000
,  // measure 71
0001
0000
0000
0000
0100
0000
0000
0010
,  // measure 72
0000
0000
0100
0000
0000
0010
0000
0000
,  // measure 73
0100
0000
0000
1000
,  // measure 74
0000
1000
0000
0001
,  // measure 75
0000
0001
0000
0100
,  // measure 76
0000
0100
0000
0010
,  // measure 77
0000
0010
0000
1000
,  // measure 78
0000
1000
0000
0100
,  // measure 79
0000
0100
0000
0010
,  // measure 80
0000
0010
0000
0001
,  // measure 81
0000
0000
0000
0001
0000
0000
1000
0000
,  // measure 82
0000
1000
0000
0010
,  // measure 83
0000
0010
0000
0100
,  // measure 84
0000
0100
0000
0001
,  // measure 85
0000
0001
0000
0100
,  // measure 86
0000
0000
0000
0100
0000
0000
0100
0000
,  // measure 87
0000
0100
0000
0000
2000
0000
0000
0000
,  // measure 88
0000
0000
0000
3020
0000
0000
0000
0000
,  // measure 89
0000
0030
0000
0000
;

//---------------dance-single - ----------------
#NOTES:
     dance-single:
     :
     Easy:
     5:
     0.373758,0.386754,0.303549,0.130093,0.007227,302.000000,42.000000,18.000000,0.000000,0.000000,0.000000,0.373758,0.386754,0.303549,0.130093,0.007227,302.000000,42.000000,18.000000,0.000000,0.000000,0.000000:
0000
0000
0000
0000
,
0000
0000
0000
0000
,
1000
0000
1000
0000
0010
1000
0100
1000
,
0001
0000
0000
0001
0000
0000
0000
0000
0000
0000
0000
0000
0000
0000
0000
0000
,
0000
0000
1000
0010
,
1000
0100
1000
0001
,
0010
0010
0001
0100
,
1000
0100
0001
1000
,
0010
0010
1000
0001
,
0010
0001
1000
0100
,
0001
0100
1000
0010
,
0001
0100
1000
0010
,
0001
0100
1000
0100
,
0010
0001
1000
0010
,
0100
0100
0001
0100
,
1000
0100
0001
0010
,
1000
0010
0001
0010
,
0100
0000
2000
0000
3000
0000
0002
0203
,
0300
0020
0030
0000
1000
0000
0010
0000
,
0001
0010
1000
1000
,
0100
1001
0100
0100
,
0100
0100
0100
0100
,
0100
0100
0001
0001
,
1000
1000
0100
0100
,
0010
0010
0100
1000
,
0001
0100
0010
0010
,
0010
0000
1000
0000
0010
0000
0000
1000
,
0000
0010
0100
0000
0001
0000
0000
0001
,
0000
0000
1000
0000
0100
0000
0000
1000
,
0000
0100
0010
0000
0001
0010
0000
0000
,
0000
0000
0001
0000
0100
0000
0000
0001
,
0000
0100
0010
0000
1000
0000
0000
1000
,
0000
0000
0001
0000
0010
0000
0000
0001
,
0000
0010
0200
0000
0010
0000
0310
0100
,
0000
0000
1000
0000
0001
0100
0000
0000
,
0001
0000
1000
0000
0100
0010
0000
0000
,
0100
0000
1000
0000
0010
0100
0000
0000
,
0010
0000
1000
0000
0001
0010
0000
0100
,
0010
0001
0001
0000
1000
0100
0000
0000
,
1000
0000
0001
0000
0100
0010
0000
0000
,
0100
0002
0100
0000
,
0000
1000
0000
0000
0013
0000
0000
0000
,
0000
1000
0100
1000
,
0010
0100
0001
1000
,
0100
0010
0001
1000
,
0001
0010
0100
1000
,
1000
0001
0100
0001
,
0010
1000
0010
0001
,
0100
0010
1000
0001
,
0100
0010
1000
0100
,
0100
1000
1000
1000
,
1000
0001
0001
0001
,
0001
0100
0100
0100
,
0100
0010
0010
0010
,
0010
1000
1000
0001
,
0001
0010
0010
0100
,
0100
1000
0001
1000
,
0001
0100
0100
0110
,
1000
0000
0000
0000
1010
0000
0000
0101
,
0000
0110
0110
0000
,
0001
0000
0000
0000
0011
0000
0000
1100
,
0000
0000
1001
0000
0000
0110
0000
0000
,
1000
0000
0101
0000
0000
1010
0000
0000
,
1100
1001
0000
0002
,
0000
0023
0000
0000
0230
0000
0000
2300
,
0000
3002
0003
1000
,
0000
0000
1010
0000
0000
0101
0000
0000
,
0011
1100
0000
0100
,
0000
0000
0110
0000
0000
1001
0000
0000
,
0110
0000
0000
1001
0000
0000
0010
0000
,
0011
0000
0000
1100
0000
0000
1010
0000
,
0101
0000
0000
0000
2000
0000
0000
3020
,
0000
0000
0230
0000
0000
0302
0000
0000
,
0003
0000
0000
0000
1000
0000
0000
0100
,
0000
1100
0001
0100
,
0000
0101
1000
0010
,
0000
1010
0001
0010
,
0000
0010
0011
0000
1000
0000
0000
0100
,
0000
1100
0001
0100
,
0000
0101
1000
0010
,
0000
1010
0001
0010
,
0000
0000
0100
0110
0000
0000
1001
0000
,
0000
0101
1000
1010
,
0000
1100
0001
0011
,
0000
0101
0010
1001
,
0000
0110
2000
0001
,
0000
0000
0000
0010
0000
0000
0100
0000
,
0000
3001
0000
0000
0200
0000
0000
0000
,
0300
0000
0001
0020
0000
0000
0000
0000
,
0100
0000
0000
0130
0000
0000
0000
0000
0000
0000
0000
0000
0000
0000
0000
0000
;
