#VERSION:0.81;
#TITLE:Mayday;
#SUBTITLE:;
#ARTIST:Krizz Kaliko feat. Chamillionaire and Rittz;
#TITLETRANSLIT:;
#SUBTITLETRANSLIT:;
#ARTISTTRANSLIT:;
#GENRE:;
#ORIGIN:;
#CREDIT:;
#BANNER:Mayday - Krizz Kaliko feat. Chamillionaire and Rittzbn.png;
#BACKGROUND:Mayday - Krizz Kaliko feat. Chamillionaire and Rittzbg.png;
#PREVIEWVID:;
#JACKET:Mayday - Krizz Kaliko feat. Chamillionaire and Rittzjacket.png;
#CDIMAGE:;
#DISCIMAGE:Mayday - Krizz Kaliko feat. Chamillionaire and Rittzddrbn.png;
#LYRICSPATH:Mayday - Krizz Kaliko feat. Chamillionaire and Rittz.lrc;
#CDTITLE:encorerebirth.png;
#MUSIC:Mayday - Krizz Kaliko feat. Chamillionaire and Rittz.ogg;
#OFFSET:0.003;
#SAMPLESTART:26.369;
#SAMPLELENGTH:13.576;
#SELECTABLE:YES;
#DISPLAYBPM:72.000:144.000;
#BPMS:0.000=72.000,
8.000=108.000,
17.000=144.000,
17.500=72.000,
17.750=144.000,
18.250=72.000,
18.500=144.000,
19.000=72.000,
19.250=144.000,
19.750=72.000,
20.000=144.000,
80.000=108.000,
83.000=144.000,
113.000=108.000,
125.000=144.000,
141.000=108.000,
164.000=144.000,
176.500=72.000,
176.750=144.000,
177.250=72.000,
177.500=144.000,
178.000=72.000,
178.250=144.000,
178.750=72.000,
182.000=36.000,
183.000=144.000,
183.500=72.000,
183.750=144.000,
184.250=72.000,
184.500=144.000,
185.000=72.000,
185.250=144.000,
185.750=72.000,
186.000=36.000,
187.000=144.000,
187.500=72.000,
187.750=144.000,
188.250=72.000,
188.500=144.000,
189.000=72.000,
189.250=144.000,
189.750=72.000,
190.000=108.000;
#STOPS:90.500=0.833,
162.000=0.069,
162.250=0.069,
162.500=0.069,
162.750=0.069,
163.000=0.069,
163.250=0.069,
163.500=0.069,
163.750=0.069,
179.000=0.417,
180.500=0.417;
#DELAYS:;
#WARPS:;
#TIMESIGNATURES:0.000=4=4;
#TICKCOUNTS:0.000=4;
#COMBOS:0.000=1;
#SPEEDS:0.000=1.000=0.000=0;
#SCROLLS:0.000=1.000;
#FAKES:;
#LABELS:0.000=Song Start;
#BGCHANGES:;
#KEYSOUNDS:;
#ATTACKS:
;

//---------------dance-single - Spork! - Beginner----------------
#NOTEDATA:;
#CHARTNAME:Spork! - Beginner;
#STEPSTYPE:dance-single;
#DESCRIPTION:Spork! - Beginner;
#CHARTSTYLE:;
#DIFFICULTY:Beginner;
#METER:1;
#RADARVALUES:0.106,0.207,0.057,0.152,0.005,56.000,6.000,16.000,0.000,0.000,0.000,0.000,0.000,0.106,0.207,0.057,0.152,0.005,56.000,6.000,16.000,0.000,0.000,0.000,0.000,0.000;
#CREDIT:Spork! - Beginner;
#DISPLAYBPM:72.000:144.000;
#NOTES:
0000
0000
0000
0000
,
0000
0000
0000
0000
,
1000
0000
0000
0001
,
0000
0000
1000
0000
,
0000
2002
0000
3003
,
0100
0000
0000
0000
,
0100
0000
0000
0000
,
0010
0000
0000
0000
,
0010
0000
0000
0000
,
1000
0000
0000
0000
,
0010
0000
0000
0000
,
0100
0000
0000
0000
,
0002
0000
2003
0000
,
3001
0000
0000
0000
,
0010
0000
0000
0000
,
0100
0000
0000
0000
,
1000
0000
0000
0000
,
0000
0001
0000
0000
,
0100
0000
0000
1000
,
0000
0000
0100
0000
,
0000
0000
0000
0001
0000
0000
0000
0000
0000
0000
0000
0000
0001
0000
0000
0000
,
0000
0000
0000
0010
,
0000
0000
0000
0000
,
0000
0002
0000
2003
,
0000
3001
0000
0000
,
0000
0100
0000
0000
,
0000
0010
0000
0000
,
0000
2000
0000
3002
,
0000
1003
0000
0000
,
0000
0000
0000
0001
,
0000
0000
0000
0000
,
0000
1000
0000
0000
,
0000
0100
0000
0000
,
0000
0010
0000
0000
,
0000
0001
0000
0000
,
0000
2000
0000
0000
,
0000
0000
0000
3002
,
0000
0000
0000
0000
,
0003
0000
1000
0000
0000
1000
0000
0000
,
1000
0000
0000
0001
,
0000
0001
0000
0000
0001
0000
0000
0000
,
1000
0000
0100
0000
,
0010
0000
0000
0000
,
0001
0000
0100
0000
,
0010
0000
0000
1001
,
0000
1001
0000
0000
0220
0000
0330
0000
,
0000
0000
0220
0330
,
0000
0000
2002
0000
,
0000
3003
0000
0000
;

//---------------dance-single - Spork!----------------
#NOTEDATA:;
#CHARTNAME:Spork! - Light;
#STEPSTYPE:dance-single;
#DESCRIPTION:Spork!;
#CHARTSTYLE:;
#DIFFICULTY:Easy;
#METER:5;
#RADARVALUES:0.291,0.322,0.362,0.210,0.052,154.000,38.000,22.000,0.000,0.000,0.000,0.000,0.000,0.291,0.322,0.362,0.210,0.052,154.000,38.000,22.000,0.000,0.000,0.000,0.000,0.000;
#CREDIT:Spork!;
#DISPLAYBPM:72.000:144.000;
#NOTES:
0000
0000
0000
0000
,
0000
0000
0000
0000
,
1001
0000
0000
0010
0000
0000
0001
0000
,
0000
0100
0000
0000
0110
0000
0000
1000
,
0000
0000
0000
0000
0100
0000
0000
0100
0000
0000
0100
0000
0000
0100
0000
0000
,
0020
0000
0032
0000
,
0203
0000
0302
0000
,
0023
0000
0230
0000
,
1300
0000
2000
0000
0001
3000
0002
0000
,
1000
0003
1100
0000
0000
0000
0001
0000
,
0101
0100
0001
1001
,
0001
0011
0000
0010
,
0200
0000
0320
0000
,
0130
1000
0001
1000
,
0010
0100
0001
0010
,
0001
0100
0010
1000
,
0100
0010
0001
0100
,
0010
2010
3000
0010
,
0210
0301
0010
0021
,
0031
1000
1002
0103
,
0010
0000
0000
1001
0000
0000
0001
0000
,
0010
0011
0011
0001
,
1000
0000
0000
0000
1001
0000
0000
0000
0220
0330
0000
0000
1010
0000
0000
0000
,
1010
0010
0100
0001
,
1000
0010
1000
1100
,
1100
1000
0001
0101
,
0101
0001
0010
0110
,
0110
0010
0001
1000
,
0010
1001
0000
0000
,
0000
0000
0000
0011
0000
0000
0000
0000
0000
0000
0000
0000
1001
0000
0000
0000
,
0000
0000
0000
0000
,
0000
0000
1010
0000
1000
0000
0100
1000
,
0100
0010
0001
1000
,
0001
0000
0011
0000
0001
0000
0100
0001
,
0100
0010
1000
0001
,
0010
1002
0000
0000
,
0000
0000
0000
1000
0000
0000
1000
0000
0000
1000
0000
0000
2000
0000
0000
0000
,
0000
0000
0000
0000
0000
3003
0000
0000
,
0000
0000
0001
0000
0000
0100
0000
0000
,
0010
0000
0000
0010
0000
0000
1000
0000
,
0000
0100
0000
0000
0110
0000
1001
0000
,
0001
0100
1100
0101
,
1000
0100
0101
1100
,
1000
0010
0011
1010
,
0001
0000
0000
0001
0000
0000
0001
0000
0000
0001
0000
0000
1000
0000
0000
0000
,
0000
0000
0100
0000
0000
0000
0000
0000
0200
0000
0000
0000
1300
0000
0000
1000
,
0000
0000
1000
0000
0000
1000
0000
0000
0020
0000
0000
0000
0130
0000
0000
0100
,
0000
0000
0010
0000
0000
0010
0000
0000
2002
0000
0000
0000
0000
0000
0000
0000
,
0000
3003
0000
0000
;

//---------------dance-single - Spork!----------------
#NOTEDATA:;
#CHARTNAME:Spork! - Heavy;
#STEPSTYPE:dance-single;
#DESCRIPTION:Spork!;
#CHARTSTYLE:;
#DIFFICULTY:Hard;
#METER:8;
#RADARVALUES:0.510,0.598,0.448,0.353,0.267,291.000,47.000,37.000,0.000,0.000,0.000,0.000,0.000,0.510,0.598,0.448,0.353,0.267,291.000,47.000,37.000,0.000,0.000,0.000,0.000,0.000;
#CREDIT:Spork!;
#DISPLAYBPM:72.000:144.000;
#NOTES:
0000
0000
0000
0000
,
0000
0000
0000
0000
,
1200
0000
0000
0000
0000
0000
1000
0000
0000
0000
0000
0000
0020
0000
0000
0300
0000
0000
0100
0000
0000
0000
0000
0000
0002
0000
0000
0030
0000
0000
0010
0000
,
0000
0000
0000
0000
2000
0000
0000
0003
0000
0000
0001
0000
0000
3000
0000
0000
0201
0000
0000
0000
0000
0000
0001
0000
0000
0000
0000
0000
0020
0000
0000
0300
,
0000
0100
0030
0000
1010
0000
0000
0110
0000
0000
0101
0000
0000
1001
0000
0000
,
1000
0200
0310
0002
,
0103
0020
1030
0200
,
0310
0001
2000
0000
3010
0100
0002
0000
,
0013
0100
0010
0100
1000
0001
1000
0001
,
0100
0100
0110
0000
0000
0010
0100
0010
,
1001
0000
1000
0001
0010
0010
0110
0100
,
1000
1000
1010
0000
0000
0010
0100
0100
,
0001
1000
0001
1000
0010
0100
0010
0100
,
0001
0021
1030
2010
,
3100
1200
0301
0101
,
0011
1020
0130
2001
,
3010
0100
0010
0100
0001
1000
0001
1000
,
0100
0000
0010
0000
0100
0000
0100
0010
0000
0000
0010
0000
0001
0000
1000
0000
,
0010
0000
0010
0100
0000
0001
0100
0000
0010
0000
0100
0000
0001
0000
0001
1000
,
0000
0000
1000
0000
0010
0000
1000
0000
0100
0000
0100
1000
0000
0100
0010
0000
,
2002
0000
0000
0000
3003
0000
0001
0100
,
0010
1000
1010
0000
1001
0000
1000
0100
,
0010
0000
0001
0000
0011
0000
0000
0000
0220
0330
0000
0000
1001
0000
0000
0000
,
1010
0000
1000
0100
1000
0100
0010
0001
,
0010
0001
0100
0010
1000
0010
1010
1000
,
0011
0000
0010
0100
0010
0001
0101
0001
,
1100
0000
1000
0001
0100
0010
0110
0010
,
1001
0000
1000
0001
1000
0001
0010
0100
,
0010
0100
2000
0000
0000
0100
0000
0000
,
0010
0000
0000
0000
0000
0000
3001
0000
0000
1000
0000
0000
0002
0000
0000
0000
,
0000
0100
0000
0000
1000
0000
0000
0013
,
0000
0000
0000
0000
0110
0000
0010
0000
0001
0000
1000
0000
0001
0000
0001
0100
,
0000
0100
0010
0000
1000
0000
0001
0000
0010
0001
0000
0001
0000
0001
0100
0000
,
0001
1000
1001
1000
0001
0100
0010
1000
,
0100
1000
0000
1000
0010
0000
0010
0100
0000
0100
0001
0000
1000
0000
0000
0000
,
0001
0000
0100
0000
0110
0000
0000
0010
0000
0000
0200
0000
0000
0000
0000
0000
,
0000
0000
0000
0310
0000
0010
1000
0000
1000
0001
0000
0001
0010
0000
0000
0020
,
0000
0000
0000
0000
0000
0000
0000
0000
0000
0000
0000
0000
0000
0000
0000
0000
0000
0000
0000
0200
0030
0000
0000
0000
0000
0000
0000
0000
0000
0000
0000
0000
,
0000
0000
0010
0300
0000
0000
0000
0000
1001
0000
0000
0001
0000
0000
1000
0000
0000
0000
0000
0000
0100
0000
0000
1000
0000
0000
0100
0000
0000
0000
0000
0000
,
1000
0000
0000
1000
0000
0000
0010
0000
0000
0000
0000
0000
0100
0000
0000
0010
0000
0000
0100
0000
0000
0000
0000
0000
0001
0000
0000
0001
0000
0000
0010
0000
,
0000
0000
0000
0000
0001
0000
0000
1000
0000
0000
0001
0000
0000
0000
0000
0000
0100
0000
0100
0000
0010
0000
0010
0000
1000
0000
1000
0000
0001
0000
0001
0000
,
1000
1000
0100
0100
1000
0010
0001
0001
,
0010
0010
0100
0100
0001
0010
1000
1000
,
0010
0100
0010
0010
0001
0100
0010
0010
,
2000
0000
3200
0320
0000
0032
0023
0000
0230
2300
0000
3001
1001
0000
0000
0000
,
0000
0000
1001
0000
0000
0000
0000
0000
2001
0000
0000
3000
0011
0000
0000
1010
,
0000
0000
1100
0000
0000
0101
0000
0000
1002
0000
0000
0003
1010
0000
0000
0011
,
0000
0000
0101
0000
0000
1100
0000
0000
2002
0000
0000
0000
0000
0000
0000
0000
,
0000
3003
0000
0000
;

//---------------dance-single - Spork!----------------
#NOTEDATA:;
#CHARTNAME:Spork! - Standard;
#STEPSTYPE:dance-single;
#DESCRIPTION:Spork!;
#CHARTSTYLE:;
#DIFFICULTY:Medium;
#METER:7;
#RADARVALUES:0.416,0.437,0.372,0.238,0.176,242.000,39.000,25.000,0.000,0.000,0.000,0.000,0.000,0.416,0.437,0.372,0.238,0.176,242.000,39.000,25.000,0.000,0.000,0.000,0.000,0.000;
#CREDIT:Spork!;
#DISPLAYBPM:72.000:144.000;
#NOTES:
0000
0000
0000
0000
,
0000
0000
0000
0000
,
0001
0000
0000
0010
0000
0000
0001
0000
0000
0000
0000
0000
0100
0000
0000
0010
0000
0000
0100
0000
0000
0000
0000
0000
0001
0000
0000
0010
0000
0000
0001
0000
,
0000
0000
0000
0000
1000
0000
0000
0010
0000
0000
1000
0000
0000
0000
0000
0000
0100
0000
0000
1000
0000
0000
0100
0000
0000
0000
0000
0000
0010
0000
0000
0001
,
0000
0010
0000
0000
1001
0000
0000
0110
0000
0000
1001
0000
0000
0110
0000
0000
,
0001
0020
0031
0200
,
0310
2000
3100
0020
,
0031
2000
3010
0200
,
0302
0000
0100
0000
2000
0003
0010
0000
,
0100
3100
0100
0000
0000
0000
1100
0000
,
0101
0100
0110
1001
,
0011
0000
1010
0000
0000
0100
0010
0000
,
0100
0100
0100
0000
0010
0010
0010
0000
,
1000
0000
0100
0000
0001
0100
0101
0000
,
0100
0000
1100
0000
1000
0001
1001
0000
,
0001
0000
0100
0000
1000
0100
1100
0000
,
0100
0010
0100
0100
0010
1000
0010
0010
,
1000
0000
0100
1000
0010
0000
0100
0010
,
0100
0001
1000
0000
1000
0001
0010
0001
,
0100
0000
0010
0100
0010
1000
0001
0000
,
2000
0000
0000
0000
3000
0000
0001
0010
,
0100
0100
0020
0000
1000
0000
0031
0100
,
0010
0010
0020
0000
0001
0000
2030
0000
,
0001
0000
3010
0100
0010
0010
0100
0001
,
0100
0100
0010
1000
0100
0100
0200
0000
,
0001
0000
1300
0001
0100
0100
0200
0000
,
1000
0000
0301
0010
0100
0100
2000
0000
,
3002
0000
0103
0010
0100
0100
0010
1000
,
0010
0010
0120
0000
0000
0100
0000
0000
,
1000
0000
0000
0000
0000
0000
1030
0000
0000
0001
0000
0000
0020
0000
0000
0000
,
0000
0100
0000
0000
0001
0000
0000
0031
,
0000
1000
0100
0101
,
0110
0000
0010
0000
0011
0000
0001
0010
,
0100
1000
0001
0000
0100
0000
1100
0000
,
0110
0010
1010
1001
,
0001
0000
1000
0000
0001
0000
0000
0001
0000
0000
0002
0000
0000
0000
0000
0000
,
0000
0000
0003
0010
0000
0000
0100
0000
0000
1000
0000
0000
1000
0000
0000
2000
,
0000
0000
0000
0000
0000
0000
0000
0000
0000
0000
0000
0000
0000
0000
0000
0000
0000
0000
0000
0020
3000
0000
0000
0000
0000
0000
0000
0000
0000
0000
0000
0000
,
0030
1000
0000
0000
0100
0000
0000
0010
0000
0000
0110
0000
0000
1100
0000
0000
,
0010
0000
0000
0001
0000
0000
0101
0000
0000
1001
0000
0000
1000
0000
0000
0010
,
0000
0000
0110
0000
0000
1001
0000
0000
0001
0100
0001
0000
1000
0100
1000
0000
,
0001
0000
0010
0000
1000
0010
0001
0001
,
1000
0000
0010
0000
0001
0010
1000
1000
,
0001
0000
0100
0000
1000
0100
0001
0001
,
0010
0000
0100
0010
0000
0100
0010
0000
0100
0010
0000
0100
1000
0000
0000
0000
,
0000
0000
1000
0000
0000
0000
0000
0000
2001
0000
3000
0000
0101
0000
0000
0011
,
0000
0000
0101
0000
0000
0011
0000
0000
1002
0000
0003
0000
1100
0000
0000
1010
,
0000
0000
1100
0000
0000
1010
0000
0000
2002
0000
0000
0000
0000
0000
0000
0000
,
0000
3003
0000
0000
;

//---------------dance-single - Spork!----------------
#NOTEDATA:;
#CHARTNAME:Spork! - Expert;
#STEPSTYPE:dance-single;
#DESCRIPTION:Spork!;
#CHARTSTYLE:;
#DIFFICULTY:Challenge;
#METER:11;
#RADARVALUES:0.751,0.752,0.448,0.200,1.000,484.000,47.000,21.000,35.000,1.000,0.000,0.000,0.000,0.751,0.752,0.448,0.200,1.000,484.000,47.000,21.000,35.000,1.000,0.000,0.000,0.000;
#CREDIT:Spork!;
#DISPLAYBPM:72.000:144.000;
#NOTES:
// measure 0
0000
0000
0000
0000
,  // measure 1
0000
0000
0000
0000
,  // measure 2
1000
0000
0000
0000
0000
0000
0100
0000
0000
0000
0000
0000
0001
0000
0000
0000
0000
0000
0100
0000
0000
0000
0000
0000
0010
0000
0000
0000
0000
0000
0010
0000
0000
M000
0000
0000
0100
0000
0000
0000
0000
0000
0100
0000
0000
0000
0000
0000
0001
0000
0000
0000
0000
0000
0010
0000
0000
0000
0000
0000
1000
0000
0000
0000
,  // measure 3
0000
0000
0010
0000
0000
0000
0000
0000
0100
0000
0000
0000
0000
0000
0100
0000
0000
000M
0000
0000
0010
0000
0000
0000
0000
0000
0010
0000
0000
0000
0000
0000
1000
0000
0000
0000
0000
0000
0010
0000
0000
0000
0000
0000
0001
0000
0000
0000
0000
0000
0010
0000
0000
0000
0000
0000
0100
0000
0000
0000
0000
0000
0100
0000
,  // measure 4
0000
M000
0000
0000
0010
0000
0000
0000
0000
0000
0010
0000
0000
0000
0000
0000
2100
0000
0000
0000
0000
0000
0000
0000
3010
0000
0000
0000
0102
0000
0000
0000
0000
0000
0000
0000
1003
0000
0000
0000
0021
0000
0000
0000
0000
0000
0000
0000
0130
0000
0000
0000
1020
0000
0000
0000
0000
0000
0000
0000
0130
0000
0000
0000
,  // measure 5
0001
1000
0001
0010
0100
1000
0010
0100
,  // measure 6
0001
0100
0010
1000
0001
0001
0001
0100
,  // measure 7
1000
0001
0010
0010
0010
1000
0100
0001
,  // measure 8
0001
0001
1000
0010
0100
0100
0100
0010
,  // measure 9
0001
0010
0100
1000
0010
0000
M000
0000
000M
0100
0010
0100
0001
1000
0100
0000
,  // measure 10
1100
0000
0010
0100
1100
0010
0101
0001
,  // measure 11
0010
0001
1000
0000
1001
0000
0M00
0000
0000
0001
0010
0001
0100
0000
0100
0010
,  // measure 12
0000
1010
0000
1001
0000
0001
1000
0100
0010
0000
0010
0100
0000
1000
0100
1000
,  // measure 13
0001
0100
0010
0100
0001
0100
0010
1000
0100
1000
0001
0010
0100
0000
0010
0000
,  // measure 14
1001
0000
1000
0100
1000
0010
0100
0001
0010
0001
0100
0010
1000
0000
0100
1000
,  // measure 15
0010
0000
0100
0001
1000
0100
0010
0100
1000
0100
0010
0001
0100
0000
0010
0100
,  // measure 16
0001
0000
1000
0001
1000
0010
0100
0001
0000
0001
0010
0001
1000
0000
0100
0000
,  // measure 17
0110
0000
0100
0000
1100
0000
1000
0010
0000
0000
0010
0100
0001
0000
0001
1000
,  // measure 18
0010
0000
0010
0100
0000
0100
0001
0000
0011
0000
0010
0000
0110
0000
0010
0001
,  // measure 19
0000
0000
1001
0000
1001
0000
0100
0000
1010
0000
0010
0100
0000
0001
0100
0000
,  // measure 20
0010
0000
0000
0000
0000
0000
1000
0000
0000
0100
0000
0000
1000
0000
0000
0000
0000
0000
0001
0000
0000
0100
0000
0000
0000
0000
0000
0000
0000
0000
0000
0000
0000
0000
0000
0000
0000
0000
0000
0000
0001
0000
0000
1000
0000
0000
0001
0000
0000
0000
0000
0000
0001
0000
0000
0000
0010
0000
0000
0000
0100
0000
0000
0000
,  // measure 21
1000
0000
0010
1000
0100
0000
1000
0001
0000
0100
0000
0110
0000
0010
1000
0001
,  // measure 22
0000
0000
1000
0000
0100
0000
1000
0000
0010
0000
0000
0000
1000
0000
0100
0000
0000
0000
0001
00M0
00M0
00M0
0000
0000
1100
0000
0000
0000
1000
0000
0010
0000
,  // measure 23
0000
0100
0000
1001
0000
0001
0010
0100
1000
0000
0010
1000
0100
0000
1000
0001
,  // measure 24
0000
0100
0000
0101
0000
0010
0100
0001
1000
0000
0010
1000
0100
0000
0010
0100
,  // measure 25
0000
0010
0000
0011
0000
0001
1000
0000
1010
0000
0100
0001
0010
0000
0100
1000
,  // measure 26
0000
0001
0000
1010
0000
0100
0010
0000
0010
0100
0001
1000
0100
0000
0100
0010
,  // measure 27
0000
0100
0000
1100
0000
1001
0000
0010
1000
0100
0010
0001
1000
0000
0001
0100
,  // measure 28
0000
0000
0000
0000
1000
0000
0000
0000
00M0
0000
0000
0000
0000
0000
0000
0000
000M
0000
0000
0100
0000
0000
0010
0000
0000
0100
0000
0000
0010
0000
0000
1000
0000
0000
0000
0000
0000
0100
0000
0000
0000
0000
0000
0010
0000
0000
0100
0000
0000
0010
0000
0000
0100
0000
0000
1000
0000
0000
0000
0000
0000
0100
0000
0000
,  // measure 29
0000
0000
0000
1000
0000
0000
0001
0000
0000
1000
0000
0000
0001
0000
0000
0100
0000
0000
0000
0000
0000
0001
0000
0000
0000
0000
0000
0001
0000
0000
0010
0000
0000
0100
0000
0000
1000
0000
0000
0000
0000
0000
000M
0000
0000
0000
0000
0000
0000
0000
0000
1000
0000
0000
0100
0000
0000
1000
0000
0000
0001
0000
0000
0000
,  // measure 30
0000
0000
0000
0010
0000
0000
0000
0000
0000
0000
0000
0000
0000
0000
0000
0001
0000
0000
0000
0000
0000
0000
0000
0000
0000
0000
0000
0000
0000
0000
0000
0000
0000
0001
0000
0000
0000
0000
0000
0000
0000
0000
0100
0000
0000
0000
0000
0000
0000
0000
0000
0001
0000
0000
0000
0000
0000
0000
0000
0000
1000
0000
0000
0000
0000
0000
0000
0000
0000
0000
0000
0000
0000
0000
0000
0100
0000
0000
0000
0000
0000
0000
0000
0000
0000
0000
0000
0010
0000
0000
0000
0000
0000
0000
0000
0000
0000
0000
0000
0000
0000
0000
0000
0000
0000
0100
0000
0000
0000
0000
0000
0000
0000
0000
0010
0000
0000
0000
0000
0000
0000
0000
0000
0100
0000
0000
0000
0000
0000
0000
0000
0000
1000
0000
0000
0000
0000
0000
0000
0000
0000
0000
0000
0000
0000
0000
0001
0000
0000
0000
0000
0000
0000
0000
0000
0000
0000
0000
0000
0100
0000
0000
0000
0000
0000
0000
0000
0000
0000
0000
0000
0000
0000
0000
0000
0000
0000
0100
0000
0000
0000
0000
0000
0000
0000
0000
0010
0000
0000
0000
0000
0000
,  // measure 31
0000
1000
0000
0000
0001
0000
0000
0000
0000
0000
0000
0000
0000
0000
0000
0000
0000
0000
0000
0000
0000
0000
0000
0000
0001
0000
0000
0000
0100
0000
0000
0000
0010
0000
0000
0000
1000
0000
0000
0000
0100
0000
0000
0000
1000
0000
0000
0000
0010
0000
0000
0000
0000
0000
0000
0000
1000
0000
0000
0000
0001
0000
0000
0000
,  // measure 32
0000
0001
0010
0100
1000
0000
0001
1000
0010
0100
0000
0010
0000
1000
0100
1000
,  // measure 33
0001
0000
0M00
0000
M000
0000
0100
0001
0010
0000
0110
0000
0100
0000
1000
0000
,  // measure 34
0010
1000
0000
1000
0010
0100
0001
1000
0000
1000
0100
0010
0001
0000
0000
0000
,  // measure 35
0100
0000
0001
0000
1000
0000
0000
0000
0001
0000
0000
0010
0000
0000
0001
0000
0000
0010
0000
0000
0100
0000
0000
1000
0000
0000
0100
0000
0000
1000
0000
0000
,  // measure 36
0001
0000
0000
1000
0000
0000
0001
0000
0000
0000
0001
0000
0100
0000
0000
0000
0100
0000
0010
0000
0000
0000
0010
0000
1000
0000
0000
0100
0000
0000
1000
0000
,  // measure 37
0000
0100
0000
0000
0010
0000
0000
0001
0000
0000
0010
0000
0000
0001
0000
0000
2000
0000
0000
0002
0000
0000
0000
0000
0000
0000
0000
0000
0000
0000
0000
0000
,  // measure 38
0000
0000
0010
3003
0000
0000
0000
0000
1000
0000
0000
0100
0000
0000
0010
0000
0000
0100
0000
0000
0001
0000
0000
0100
0000
0000
0010
0000
0000
0010
0000
0000
,  // measure 39
0001
0000
0000
0100
0000
0000
0010
0000
0000
0100
0000
0000
1000
0000
0000
0100
0000
0000
0010
0000
0000
0010
0000
0000
1000
0000
0000
0010
0000
0000
0100
0000
,  // measure 40
0000
0010
0000
0000
0001
0000
0000
0010
0000
0000
0100
0000
0000
0100
0000
0000
0001
0000
0001
0000
0010
0000
0010
0000
0100
0000
0100
0000
1000
0000
1000
0000
,  // measure 41
0001
0100
0001
0100
0001
1000
0001
1000
0020
0000
0100
0000
0001
0000
0100
0000
,  // measure 42
1030
0100
1000
0100
1000
0001
1000
0001
0020
0000
0100
0000
1000
0000
0100
0000
,  // measure 43
0031
0010
0100
1000
0010
0100
0001
1000
0200
0000
0010
0000
0001
0000
0310
0000
,  // measure 44
0110
0000
1100
1001
0000
1010
0110
0000
0101
0011
0000
0110
1001
0000
00M0
0000
,  // measure 45
0000
0000
0000
0000
1001
0000
0000
0000
00M0
0000
0000
0000
0000
0000
0000
0000
2M02
0M00
0M00
0M00
0M00
0M00
3M03
0000
2010
0000
0000
0000
3100
0000
0012
0000
,  // measure 46
0000
0000
1003
0000
0201
0000
0000
0000
0310
1000
0001
0000
0000
0000
0010
0000
2M02
0M00
0M00
0M00
0M00
0M00
3003
0000
0012
0000
0000
0000
0103
0000
2010
0000
,  // measure 47
0000
3001
1200
0000
0310
0201
0000
0310
2000
0000
0000
0000
0000
0000
0000
0000
,  // measure 48
0000
0000
300M
0000
0MM0
0000
0000
M000
,  // measure 49
0000
0000
0000
0000
,  // measure 50
0000
0000
0000
0000
0000
0000
0000
0000
0000
0000
0000
0000
0000
0000
0000
M00M
;
