#TITLE:Kung-fu Empire;
#SUBTITLE:;
#ARTIST:飛燕流舞;
#TITLETRANSLIT:;
#SUBTITLETRANSLIT:;
#ARTISTTRANSLIT:Hien Ryuu Mai;
#GENRE:;
#CREDIT:;
#BANNER:[Round 2] - Kung-fu Empire.png;
#BACKGROUND:[Round 2] - Kung-fu Empire-bg.png;
#LYRICSPATH:;
#CDTITLE:cdtitle.png;
#MUSIC:[Round 2] - Kung-fu Empire.ogg;
#OFFSET:-0.366000;
#SAMPLESTART:89.690056;
#SAMPLELENGTH:10.847458;
#SELECTABLE:YES;
#BPMS:0.000000=177.000000
,369.000000=172.250000
,369.500000=167.500000
,370.000000=162.750000
,370.500000=158.000000
,371.000000=153.250000
,371.500000=148.500000
,372.000000=143.750000
,372.500000=139.000000
,373.000000=134.000000
,373.500000=128.000000
;
#STOPS:
;
#BGCHANGES:;
#KEYSOUNDS:;
#ATTACKS:;

//---------------dance-single - ----------------
#NOTES:
     dance-single:
     :
     Challenge:
     11:
     0.826707,0.836310,0.061727,0.270058,0.505393,750.000000,742.000000,8.000000,35.000000,0.000000,0.000000,0.826707,0.836310,0.061727,0.270058,0.505393,750.000000,742.000000,8.000000,35.000000,0.000000,0.000000:
// measure 0
0000
0000
0000
0000
,  // measure 1
0000
0000
0000
0000
,  // measure 2
0000
0000
0000
0000
,  // measure 3
0000
0000
0000
0000
,  // measure 4
0001
0010
0001
0100
0000
0100
0001
0010
,  // measure 5
0100
1000
0010
1000
0100
0000
0010
0001
,  // measure 6
1000
0010
1000
0100
0000
0100
1000
0001
,  // measure 7
0400
0040
0000
0000
0000
0000
0300
0030
1000
0000
0001
0000
1000
0010
0000
1000
,  // measure 8
0100
1000
0010
0001
0000
0001
0010
1000
,  // measure 9
0100
0000
0010
0000
0001
0000
0100
0000
0000
0000
0100
0000
0010
1000
0000
0001
,  // measure 10
0010
0001
0100
1000
0000
1000
0100
0001
,  // measure 11
0010
0000
0001
0000
0100
0000
0010
0000
1000
0000
0100
0000
0010
0001
0000
0001
,  // measure 12
0100
0001
0010
1000
0000
1000
0010
0001
,  // measure 13
0100
0010
1000
0100
0000
0100
1000
0001
,  // measure 14
0010
0001
0100
1000
0000
1000
0100
0001
,  // measure 15
0040
0400
0000
0000
0000
0000
0030
0300
1000
0001
0000
0100
0010
0100
0010
0000
,  // measure 16
1000
0100
1000
0012
0000
1003
0010
1000
,  // measure 17
0100
0000
0010
0000
0001
0000
0100
0000
0000
0000
0100
0000
0010
1000
0000
1000
,  // measure 18
0100
0010
0100
2001
0000
3010
0100
0010
,  // measure 19
0001
0000
0010
0000
1000
0000
0001
0000
0010
0000
0100
0000
1000
0010
0000
1000
,  // measure 20
0001
0100
0001
2010
0000
3001
0010
0001
,  // measure 21
0100
0010
1000
0100
0000
0001
0100
1000
,  // measure 22
0010
0100
0010
1002
0000
0013
0100
0010
,  // measure 23
0001
0100
0001
0000
1000
0100
1000
0000
0001
0010
0001
0000
1000
0100
1000
0000
,  // measure 24
0001
0100
0001
0010
0000
0010
0001
0100
,  // measure 25
1000
0000
0100
0000
0001
0000
1000
0000
0100
0000
0010
0000
0001
0100
0000
0010
,  // measure 26
1000
0100
1000
0010
0000
0010
1000
0001
,  // measure 27
0010
0000
0000
0010
0001
0000
0100
0000
1000
0000
0100
0000
0010
1000
0000
0001
,  // measure 28
1000
0100
0010
0100
1000
0100
0010
0001
,  // measure 29
0100
0000
0001
0000
0010
0000
0001
0000
0100
0000
0001
1000
0001
1000
0000
0001
,  // measure 30
0100
0001
1000
0100
1000
0001
0100
0001
,  // measure 31
1000
0000
1000
0100
0010
0000
0001
0000
0100
0000
1000
0000
0100
0000
0001
1000
,  // measure 32
0010
0000
0010
1000
0001
0000
0001
1000
0100
0000
0100
1000
0002
0000
0000
0000
,  // measure 33
0000
0000
1003
0001
0100
0000
0001
1000
0100
0000
0000
0000
0100
0000
1000
0000
,  // measure 34
0010
0000
0100
0000
0001
0000
0010
0000
0001
0000
1000
0010
0100
0000
0001
0000
,  // measure 35
0010
0000
0010
0001
0100
0000
0010
0000
1000
0000
1000
0100
0010
0000
0100
0000
,  // measure 36
2000
0000
0100
0000
3200
0000
0310
0001
,  // measure 37
0100
1000
0100
0001
0010
0000
0001
0100
,  // measure 38
1000
0000
1000
0010
0001
0000
0001
0100
,  // measure 39
0010
0000
1000
0010
1000
0000
0001
0010
0001
0000
0100
0000
0010
0000
1000
0001
,  // measure 40
0010
0000
0010
0001
1000
0000
1000
0001
0100
0000
0100
0001
2000
0000
0000
0000
,  // measure 41
0000
0000
3001
1000
0100
0000
1000
0000
0001
0000
0000
0000
1000
0000
0100
0000
,  // measure 42
0010
0000
0100
1000
0001
0000
0100
0000
0010
0000
0100
0001
1000
0000
0100
0010
,  // measure 43
0001
0000
0001
0100
0010
0000
0010
1000
0100
0000
0100
0010
0001
0000
1000
0000
,  // measure 44
0002
0000
0100
0000
0203
0000
0310
1000
,  // measure 45
0100
0001
0100
1000
0010
0000
1000
0100
,  // measure 46
0001
0000
0001
0010
1000
0000
1000
0100
,  // measure 47
0010
0000
0001
0100
0001
0000
1000
0100
1000
0000
0001
0000
0100
0000
0001
0000
,  // measure 48
1000
0000
0010
1000
0010
0000
1000
0001
0100
0001
1000
0000
0000
0000
0010
1000
,  // measure 49
0010
0000
1000
0001
0100
0001
1000
0000
0000
0000
1000
0000
0100
0010
0001
0000
,  // measure 50
1000
0000
0010
1000
0010
0000
1000
0001
0100
0001
1000
0000
0010
0000
1000
0000
,  // measure 51
0100
0001
0100
1000
0010
1000
1001
0000
,  // measure 52
0001
0000
0010
0001
0010
0000
0100
1000
0001
1000
0100
0000
0000
0000
0010
0001
,  // measure 53
0010
0000
0100
1000
0001
1000
0100
0000
0000
0000
0100
0000
1000
0010
0100
0000
,  // measure 54
0001
0000
0010
0001
0010
0000
0100
1000
0001
1000
0100
0000
0000
0000
0010
0001
,  // measure 55
0010
0000
0100
1000
0001
1000
0100
0000
0001
0000
0100
0000
1000
0000
0010
0000
,  // measure 56
1000
0000
0001
0010
0001
0000
1000
0010
0100
0001
1000
0000
0000
0000
0001
0010
,  // measure 57
0001
0000
1000
0010
0100
0001
1000
0000
0100
0000
0010
0000
0001
0000
0000
0000
,  // measure 58
0100
0000
0010
0000
0100
0000
1002
0000
0000
0000
0013
0000
0001
0100
0000
0100
,  // measure 59
0010
1000
0100
0010
0100
0001
0100
1000
,  // measure 60
0001
0000
1000
0010
1000
0000
0001
0010
0100
1000
0001
0000
0000
0000
1000
0010
,  // measure 61
1000
0000
0001
0010
0100
1000
0001
0000
0100
0000
0010
0000
1000
0000
0000
0000
,  // measure 62
0100
0000
0010
0000
0100
0000
2001
0000
0000
3010
0000
0010
1000
0001
0000
0001
,  // measure 63
0010
0000
0001
1000
0001
0000
1000
0010
0100
0000
0100
0001
0010
0000
0100
0000
,  // measure 64
2002
0000
0000
0000
,  // measure 65
0000
0000
0000
0000
0000
0000
0000
0000
3003
0000
0000
0000
0000
0000
1000
0001
,  // measure 66
0020
0000
0000
0000
0031
0000
1000
0001
0100
0000
0100
0001
2000
0000
0000
0000
,  // measure 67
3100
0000
0010
0100
1000
0000
1000
0001
0100
0000
0010
0000
1000
0000
0100
0000
,  // measure 68
0020
0000
0000
0000
0130
0000
1000
0001
2000
0000
0000
0000
3010
0000
1000
0000
,  // measure 69
0100
0000
0010
0000
0001
0000
0100
0010
1000
0000
0100
0000
0010
0000
0001
1000
,  // measure 70
0020
0000
0000
0000
1030
0000
0001
1000
0100
0000
0100
1000
0002
0000
0000
0000
,  // measure 71
0103
0000
0010
0100
0001
0000
0001
1000
0100
0000
0001
0000
1000
0000
0010
0000
,  // measure 72
0002
0000
0000
0000
1003
0000
1000
0000
0010
0000
0100
0000
0001
0000
1000
0100
,  // measure 73
1000
0000
0010
0000
1000
0000
0100
0000
0001
0000
0100
0000
1000
0000
0010
1000
,  // measure 74
0200
0000
0000
0000
0310
0000
0100
1000
0001
0000
0001
1000
0020
0000
0000
0000
,  // measure 75
0130
0000
0001
0010
0100
0000
0100
1000
0010
0000
1000
0000
0100
0000
0010
0000
,  // measure 76
0002
0000
0000
0000
0103
0000
0010
1000
0020
0000
0000
0000
1030
0000
0100
0000
,  // measure 77
0010
0000
0001
0000
0100
0000
0010
1000
0001
0000
1000
0000
0100
0000
0010
0001
,  // measure 78
0200
0000
0000
0000
0310
0000
0100
0001
1000
0000
1000
0001
0020
0000
0000
0000
,  // measure 79
0130
0000
1000
0010
0100
0000
0100
0001
0010
0000
1000
0000
0001
0000
0100
0000
,  // measure 80
2000
0000
0000
0000
3001
0000
0001
0000
0100
0000
0010
0000
1000
0000
0001
0010
,  // measure 81
0001
0100
1000
0001
0010
1000
0100
0010
,  // measure 82
0002
0000
0000
0000
1003
0000
0010
0100
0020
0000
0000
0000
1000
0000
0000
0000
,  // measure 83
1030
0000
0000
0000
0010
0000
1000
0000
0100
0000
0001
0000
0100
0010
0100
0000
,  // measure 84
2000
0000
3010
0100
0001
0100
0010
1000
,  // measure 85
0100
0000
0010
0000
0001
0000
1000
0010
1000
0000
0001
0100
0001
0000
1000
0000
,  // measure 86
0002
0010
2003
0100
,  // measure 87
3100
0000
1000
0010
0001
0010
1000
0100
,  // measure 88
0020
0000
0130
1000
0010
0100
0001
0000
,  // measure 89
1000
0000
0100
0010
0001
0000
0100
0000
0010
1000
0010
1000
0001
0100
0001
0100
,  // measure 90
0010
1000
0001
1000
0010
0100
0001
1000
,  // measure 91
0100
0010
0001
0100
0010
1000
0100
1000
,  // measure 92
0010
0100
0001
1000
0100
0010
0001
0100
,  // measure 93
0010
1000
0100
0010
0002
0000
0000
0000
,  // measure 94
0000
0003
0000
0000
;

//---------------dance-single - ----------------
#NOTES:
     dance-single:
     :
     Hard:
     9:
     0.654752,0.618142,0.069443,0.316353,0.000000,594.000000,585.000000,9.000000,41.000000,0.000000,0.000000,0.654752,0.618142,0.069443,0.316353,0.000000,594.000000,585.000000,9.000000,41.000000,0.000000,0.000000:
// measure 0
0000
0000
0000
0000
,  // measure 1
0000
0000
0000
0000
,  // measure 2
0000
0000
0000
0000
,  // measure 3
0000
0000
0000
0000
,  // measure 4
0001
0100
0010
1000
0000
1000
0100
0010
,  // measure 5
0001
0100
0001
1000
0100
0000
0010
0100
,  // measure 6
1000
0010
0100
0001
0000
0001
0010
0100
,  // measure 7
2000
0000
3020
0000
0130
0001
1000
0100
,  // measure 8
0010
0000
0001
0100
0000
0100
0010
1000
,  // measure 9
0100
0000
1000
0001
0000
1000
0010
0100
,  // measure 10
0001
0000
0010
0100
0000
0010
0001
1000
,  // measure 11
0001
0100
0001
0100
1000
0100
0001
0010
,  // measure 12
0100
0000
1000
0010
0000
0010
0100
0001
,  // measure 13
0010
0000
0001
1000
0000
0001
0100
0010
,  // measure 14
1000
0000
0100
0010
0000
0100
1000
0001
,  // measure 15
2000
0000
3020
0000
0031
0010
1000
0100
,  // measure 16
0010
0001
0000
1001
0000
0001
0100
1000
,  // measure 17
0000
1000
0100
0001
0000
0001
0010
0100
,  // measure 18
1000
0010
0000
0101
0000
0001
0010
0100
,  // measure 19
1000
0000
0001
1000
0100
0001
0100
1000
,  // measure 20
0010
1000
0000
1001
0000
1000
0100
0001
,  // measure 21
0000
0001
0100
1000
0000
1000
0010
0001
,  // measure 22
0010
1000
0000
0110
0000
0001
0100
0010
,  // measure 23
2000
0000
3200
0000
0310
0001
0100
0010
,  // measure 24
1000
0100
1000
0010
0000
1000
0001
0010
,  // measure 25
0100
0010
0001
1000
0010
0100
0001
1000
,  // measure 26
0001
0100
0001
0010
0000
0001
1000
0010
,  // measure 27
0100
0010
1000
0100
0010
0001
0100
0010
,  // measure 28
1000
0100
0010
0000
0100
1000
0010
0000
,  // measure 29
0100
0001
0010
0000
0001
0100
0010
0000
,  // measure 30
1000
0100
1000
0010
0000
0100
0010
0000
,  // measure 31
0100
0001
0010
1000
0010
0001
0100
0010
,  // measure 32
1000
0100
0010
0100
0001
0100
2000
0000
,  // measure 33
0000
3010
0100
0001
1000
0000
0001
0100
,  // measure 34
0010
1000
0100
0010
0001
0100
0001
0010
,  // measure 35
1000
0010
0001
0100
0010
1000
0100
0010
,  // measure 36
0002
0000
0100
0000
2003
0000
3100
0010
,  // measure 37
0001
0100
0010
0100
0001
0000
1000
0100
,  // measure 38
0010
0000
0010
0100
0001
0000
0001
0100
,  // measure 39
0010
0001
0100
0010
1000
0001
1000
0000
,  // measure 40
0001
0100
0010
0100
1000
0100
0002
0000
,  // measure 41
0000
0013
0100
1000
0001
0000
1000
0100
,  // measure 42
0010
0001
0100
0010
1000
0100
1000
0010
,  // measure 43
0001
0010
1000
0100
0001
0100
1000
0010
,  // measure 44
0200
0000
0010
0000
0302
0000
0103
0010
,  // measure 45
1000
0100
0010
0100
1000
0000
0001
0100
,  // measure 46
0010
0000
0010
0100
1000
0000
1000
0100
,  // measure 47
0010
1000
0100
0010
0001
1000
0001
0000
,  // measure 48
1000
0100
1000
0100
0010
0001
0000
0001
,  // measure 49
1000
0100
0010
0001
0000
0001
0100
0010
,  // measure 50
1000
0100
1000
0100
0010
0001
1000
0010
,  // measure 51
0001
0010
0100
0010
1000
0100
0020
0000
,  // measure 52
0031
0100
0001
0100
0010
1000
0000
1000
,  // measure 53
0001
0100
0010
1000
0000
1000
0100
0010
,  // measure 54
0001
0100
0001
0100
0010
1000
0000
1000
,  // measure 55
0001
0100
0010
1000
0100
0001
0100
1000
,  // measure 56
0010
0000
1000
1020
0000
0100
0130
0000
,  // measure 57
0001
0000
1000
0100
0000
0010
0001
0000
,  // measure 58
0010
0001
0100
0120
0000
0000
1030
0010
,  // measure 59
0001
0010
0100
0010
1000
0100
0010
0100
,  // measure 60
1000
0000
0001
0021
0000
0100
0130
0000
,  // measure 61
1000
0000
0001
0100
0000
0010
1000
0000
,  // measure 62
0010
1000
0100
0120
0000
0001
0031
0000
,  // measure 63
0010
0000
0100
0000
1000
0010
0100
0001
,  // measure 64
2002
0000
0000
0000
,  // measure 65
0000
0000
0000
0000
3003
0000
0000
1000
,  // measure 66
0020
0000
0130
0001
0010
0001
0200
0000
,  // measure 67
0310
1000
0100
1000
0001
0100
0010
1000
,  // measure 68
0002
0000
0013
0100
2000
0000
3001
0000
,  // measure 69
1000
0010
0100
0001
0010
0100
1000
0001
,  // measure 70
0020
0000
0130
1000
0010
1000
0200
0000
,  // measure 71
0310
0001
0100
0001
0010
1000
0010
0001
,  // measure 72
0200
0000
0310
1000
0001
1000
0100
0000
,  // measure 73
1000
0010
0100
0001
0010
0100
1000
0001
,  // measure 74
0200
0000
0310
1000
0100
1000
0020
0000
,  // measure 75
0130
0001
0010
0001
1000
0010
0100
0001
,  // measure 76
2000
0000
3100
0010
0002
0000
2003
0000
,  // measure 77
3001
0100
1000
0100
0010
1000
0001
1000
,  // measure 78
0200
0000
0310
0001
0100
0001
0020
0000
,  // measure 79
0130
1000
0010
1000
0100
0001
0100
1000
,  // measure 80
0020
0000
0130
0001
1000
0100
0010
0000
,  // measure 81
0001
0010
0100
1000
0010
0001
0010
1000
,  // measure 82
0200
0000
0310
0001
0200
0000
0010
0000
,  // measure 83
0310
0000
0100
0001
1000
0100
0001
0100
,  // measure 84
2000
0000
3010
1000
0000
1000
0100
0010
,  // measure 85
0001
0000
1000
0001
0100
0010
1000
0001
,  // measure 86
0020
0000
0130
1000
0020
0000
0100
0000
,  // measure 87
0130
0000
0010
1000
0010
0001
0010
0100
,  // measure 88
0020
0000
1030
0001
0000
0001
0010
0100
,  // measure 89
1000
0000
0001
1000
0100
0001
0100
1000
,  // measure 90
0001
0100
0001
0100
0010
1000
0001
1000
,  // measure 91
0100
1000
0100
0010
0001
0100
0001
0100
,  // measure 92
0010
1000
0100
0010
0100
0010
0001
0100
,  // measure 93
0010
1000
0100
0010
0002
0000
0000
0000
,  // measure 94
0000
0003
0000
0000
;

//---------------dance-single - ----------------
#NOTES:
     dance-single:
     :
     Medium:
     6:
     0.427683,0.436336,0.069443,0.462956,0.000000,388.000000,379.000000,9.000000,60.000000,0.000000,0.000000,0.427683,0.436336,0.069443,0.462956,0.000000,388.000000,379.000000,9.000000,60.000000,0.000000,0.000000:
0000
0000
0000
0000
,
0000
0000
0000
0000
,
0000
0000
0000
0000
,
0000
0000
0000
0000
,
1000
0000
0001
0010
0000
0010
0001
0000
,
1000
0010
1000
0000
0100
0000
0010
0000
,
0001
0000
1000
0010
0000
0010
1000
0000
,
0200
0000
0320
0000
0031
1000
0001
0000
,
0200
0000
0000
0310
0000
0000
1000
0001
,
0020
0000
0000
0000
0031
0000
0100
0010
,
2000
0000
0000
3001
0000
0000
1000
0000
,
0100
0000
0000
1000
0001
1000
0001
0000
,
0200
0000
0000
0310
0000
0000
0100
0001
,
2000
0000
0000
0000
3001
0000
1000
0100
,
0020
0000
0000
0031
0000
0000
1000
0000
,
0020
0000
0230
0000
0301
0100
0010
0000
,
1000
0000
0000
1001
0000
0000
1000
0200
,
0000
0000
0310
0002
0000
0000
0103
0010
,
0100
0000
0000
1001
0000
0000
1000
0000
,
0001
0000
0010
0100
0010
0100
0010
0000
,
0001
0000
0000
1001
0000
0000
0001
0200
,
0000
0000
0310
2000
0000
0000
3001
0010
,
0001
0000
0000
1001
0000
0000
1000
0000
,
0020
0230
0302
2003
,
3100
0000
0010
0001
0000
0010
0001
0000
,
1000
0000
0010
0000
0100
0010
1000
0000
,
0001
0000
0010
0100
0000
0010
0100
0000
,
1000
0000
0010
0000
0100
0000
0001
1000
,
0001
0010
1000
0010
,
0001
0100
1000
0100
,
0001
0000
0010
0100
0000
0010
0100
0000
,
1000
0000
0010
0000
1000
0001
1000
0000
,
0001
0010
0001
0000
1000
0100
2000
0000
,
0000
0000
3001
0100
0001
0000
1000
0000
,
0100
0000
0010
0000
0001
1000
0001
0000
,
0100
0000
0001
0000
0010
0100
0010
0000
,
0002
0000
2003
3100
,
0010
0001
0100
0010
,
1000
0010
0100
0001
,
0010
1000
0100
0001
,
1000
0010
1000
0000
0001
0100
0002
0000
,
0000
0000
1003
0100
1000
0000
0001
0000
,
0100
0000
0010
0000
1000
0100
1000
0000
,
0010
0000
0001
0000
0010
0100
0010
0000
,
2000
0000
3002
0013
,
0100
1000
0010
0100
,
0001
0010
0001
1000
,
0100
0001
0010
1000
,
0001
0000
0001
0000
1000
0100
0000
0000
,
1000
0000
0001
0100
0000
0000
0010
0000
,
1000
0000
1000
0000
0001
0100
0001
0000
,
1000
0010
0001
0100
,
1000
0000
1000
0000
0001
0100
0000
0000
,
0001
0000
1000
0100
0000
0000
0010
0000
,
0001
0000
0001
0000
1000
0100
0000
0000
,
1000
0000
0001
0100
0010
0000
1000
0000
,
0001
0000
0000
0102
0000
0000
1000
0000
,
1003
0000
0100
1000
0000
1000
0010
0000
,
0100
0000
0000
2001
0000
0000
3001
0000
,
0010
1000
0100
0001
,
1000
0000
0000
2100
0000
0000
0001
0000
,
3001
0000
0100
0001
0000
0001
0010
0000
,
0100
0000
0000
1002
0000
0000
1003
0000
,
0010
0000
0100
0000
0001
1000
0001
0000
,
2002
0000
0000
0000
,
0000
0000
0000
0000
3003
0000
0000
1000
,
0020
0230
0302
2003
,
0000
0000
3100
0000
1000
0001
1000
0001
,
0200
0000
0000
0310
2000
0000
0000
0000
,
3001
0000
1000
0010
0000
1000
0001
0000
,
0020
0230
2300
3002
,
0000
0000
0103
0000
0010
1000
0001
1000
,
0200
0000
0000
0310
0001
0000
1000
0000
,
0001
0000
0100
0000
0010
1000
0001
0000
,
0200
0320
2030
3002
,
0000
0000
0013
0000
0001
1000
0001
1000
,
0020
0000
0000
0130
0002
0000
2003
0000
,
3010
0001
0010
1000
,
0200
0320
0032
2003
,
0000
0000
3010
0000
0100
0001
1000
0001
,
0020
0000
0000
0130
1000
0000
0001
0000
,
1000
0000
0010
0000
0100
0001
1000
0000
,
0200
0000
0000
0310
0002
0000
1000
0000
,
1003
0000
0001
0000
0100
0010
0100
0000
,
0002
0000
1003
0100
,
0010
0000
0100
1000
0001
0000
0100
0000
,
0020
0000
0000
1030
0002
0000
1000
0000
,
1003
0000
0100
0010
0001
0000
1000
0000
,
0020
0000
0130
0010
,
1000
0000
0001
0000
1000
0001
1000
0001
,
1000
0100
0010
0001
,
0100
0010
1000
0001
,
0010
0001
0100
0010
,
1000
0100
0020
0000
,
0000
0030
0000
0000
;

//---------------dance-single - ----------------
#NOTES:
     dance-single:
     :
     Easy:
     4:
     0.289898,0.327252,0.007716,0.223762,0.000000,263.000000,262.000000,1.000000,29.000000,0.000000,0.000000,0.289898,0.327252,0.007716,0.223762,0.000000,263.000000,262.000000,1.000000,29.000000,0.000000,0.000000:
0000
0000
0000
0000
,
0000
0000
0000
0000
,
0000
0000
0000
0000
,
0000
0000
0000
0000
,
1000
0100
0010
0000
,
0010
0100
1000
1000
,
0001
0100
0010
0000
,
1000
0100
0010
0001
,
2000
0000
3010
0100
,
0002
0000
1003
0100
,
0020
0000
0130
0000
,
0100
1000
0010
0100
,
0002
0000
0013
0100
,
2000
0000
3001
0100
,
0020
0000
1030
0000
,
1000
0010
0100
0001
,
1000
0000
0000
0001
0000
0000
0000
0000
,
1000
1000
0010
0100
,
0001
0000
0000
1000
0000
0000
0000
0000
,
0001
0010
0100
1000
,
0010
0000
0000
0100
0000
0000
0000
0000
,
0010
0010
1000
0001
,
0010
0000
0000
0100
0000
0000
0000
0000
,
0010
0001
0100
0010
,
1000
0000
0001
0000
,
0100
0001
1000
0000
,
0001
0000
1000
0000
,
0100
1000
0001
0100
,
0010
1000
0000
0001
,
0000
1000
0000
0100
,
0000
1000
0000
0001
,
0000
0100
0010
1000
,
0001
0001
0010
0200
,
0000
0310
0001
0000
,
1000
0010
0100
0001
,
0010
0001
0100
0010
,
2000
0000
3001
1000
,
0100
1000
0001
0000
,
0100
0000
0100
0000
,
0010
1000
0100
0000
,
1000
1000
0010
0200
,
0000
0310
1000
0000
,
0001
0010
0001
0100
,
0010
1000
0100
1000
,
0020
0000
1030
0001
,
0100
0001
1000
0000
,
0100
0000
0100
0000
,
0010
0001
0100
0000
,
0001
0001
1000
0000
,
0001
1000
0000
0010
,
1000
1000
0001
0010
,
0001
0100
0010
0000
,
1000
1000
0001
0000
,
1000
0001
0000
0010
,
0001
0001
1000
0000
,
0001
1000
0010
0100
,
0001
1000
0100
0000
,
1000
0100
0000
1000
,
0001
0000
0000
1000
0000
0000
0000
0000
,
1000
0100
0010
0001
,
1000
0001
0100
0000
,
0001
0100
0000
0001
,
1000
0000
0000
0001
0000
0000
0000
0000
,
1000
0100
0010
0001
,
2002
0000
0000
0000
,
0000
0000
3003
0000
,
0001
0010
0100
2000
,
0000
3001
1000
0010
,
0200
0000
0302
0000
,
0013
0010
0100
0000
,
1000
0010
0100
0002
,
0000
0013
0001
0100
,
0020
0000
1030
0010
,
1000
0001
0010
0100
,
1000
0010
0100
0002
,
0000
1003
0001
0010
,
0200
0000
2300
0000
,
3010
0010
0100
0000
,
0001
0010
0100
2000
,
0000
3010
1000
0100
,
0020
0000
0031
0100
,
0010
1000
0100
0010
,
0002
0000
2003
0000
,
3001
0100
0001
0010
,
0200
0000
1300
1000
,
0001
0100
0010
0000
,
2000
0000
3002
0000
,
1003
0100
0010
0001
,
0200
0000
0310
0010
,
1000
0100
0010
0001
,
2000
0000
0000
0000
,
0000
0000
0000
0000
,
0000
0000
0000
0000
,
0000
0000
0000
0000
,
0000
3000
0000
0000
;

//---------------dance-single - ----------------
#NOTES:
     dance-single:
     :
     Beginner:
     2:
     0.135580,0.173608,0.015432,0.092591,0.000000,123.000000,121.000000,2.000000,12.000000,0.000000,0.000000,0.135580,0.173608,0.015432,0.092591,0.000000,123.000000,121.000000,2.000000,12.000000,0.000000,0.000000:
0000
0000
0000
0000
,
0000
0000
0000
0000
,
0000
0000
0000
0000
,
0000
0000
0000
0000
,
0001
0000
0001
0000
,
0000
0000
0000
0000
,
1000
0000
1000
0000
,
0000
0000
1000
0000
,
0001
0000
0000
0000
,
0010
0000
0000
0000
,
0100
0000
0000
0000
,
1000
0000
0001
0000
,
1000
0000
0000
0000
,
0010
0000
0000
0000
,
0100
0000
0000
0000
,
0001
0000
1000
0000
,
0100
0000
0000
0000
,
0100
0000
0010
0000
,
0100
0000
0000
0000
,
1000
0000
0001
0000
,
0100
0000
0000
0000
,
0010
0000
0100
0000
,
0010
0000
0000
0000
,
1000
0000
0001
0000
,
1000
0000
1000
0000
,
0000
0000
0000
0000
,
0001
0000
0001
0000
,
0000
0000
0000
0000
,
1000
0000
0000
0000
,
0100
0000
0000
0000
,
0010
0000
0000
0000
,
0001
0000
0000
0000
,
1000
0000
2000
0000
,
3000
0000
1000
0000
,
0010
0000
0010
0000
,
0100
0000
0100
0000
,
0002
0000
0003
0000
,
1000
0000
0000
0000
,
0100
0000
0100
0000
,
0100
0000
0010
0000
,
0001
0000
0002
0000
,
0003
0000
0001
0000
,
0100
0000
0100
0000
,
0010
0000
0010
0000
,
2000
0000
3000
0000
,
0001
0000
0000
0000
,
0100
0000
0100
0000
,
0100
0000
0010
0000
,
1000
0000
1000
0000
,
1000
0000
0000
0000
,
0001
0000
0001
0000
,
0010
0000
0000
0000
,
0001
0000
0001
0000
,
0001
0000
0000
0000
,
1000
0000
1000
0000
,
1000
0000
0010
0000
,
0100
0000
0100
0000
,
0100
0000
0000
0000
,
0010
0000
0000
0000
,
1000
0000
0000
0000
,
0100
0000
0100
0000
,
0100
0000
0000
0000
,
0010
0000
0000
0000
,
0001
0000
1000
0000
,
1001
0000
0000
0000
,
0000
0000
0000
0000
,
1000
0000
0100
0000
,
0000
0000
1000
0000
,
0001
0000
0002
0000
,
0003
0000
0000
0000
,
0001
0000
0100
0000
,
0000
0000
0010
0000
,
2000
0000
3000
0000
,
0001
0000
1000
0000
,
0001
0000
0010
0000
,
0000
0000
0001
0000
,
1000
0000
2000
0000
,
3000
0000
0000
0000
,
1000
0000
0010
0000
,
0000
0000
0100
0000
,
0002
0000
0003
0000
,
1000
0000
0001
0000
,
1000
0000
2000
0000
,
3000
0000
0100
0000
,
0020
0000
0030
0000
,
0100
0000
0010
0000
,
0001
0000
0002
0000
,
0003
0000
0100
0000
,
0020
0000
0030
0000
,
1000
0000
0001
0000
,
1001
0000
0000
0000
;
