#TITLE:HARD;
#SUBTITLE:;
#ARTIST:SOPHIE;
#TITLETRANSLIT:;
#SUBTITLETRANSLIT:;
#ARTISTTRANSLIT:;
#GENRE:;
#CREDIT:;
#BANNER:[Round 2] - HARD.png;
#BACKGROUND:[Round 2] - HARD-bg.jpg;
#LYRICSPATH:;
#CDTITLE:;
#MUSIC:[Round 2] - HARD.ogg;
#OFFSET:-2.923791;
#SAMPLESTART:60.068214;
#SAMPLELENGTH:11.428577;
#SELECTABLE:YES;
#BPMS:0.000000=167.988327
;
#STOPS:
;
#BGCHANGES:;
#KEYSOUNDS:;
#ATTACKS:;

//---------------dance-single - ----------------
#NOTES:
     dance-single:
     :
     Hard:
     8:
     0.487173,0.607371,0.287421,0.124290,0.194203,439.000000,402.000000,37.000000,16.000000,0.000000,0.000000,0.487173,0.607371,0.287421,0.124290,0.194203,439.000000,402.000000,37.000000,16.000000,0.000000,0.000000:
1000
0000
1001
0000
,
0000
0000
0001
0000
,
0000
0000
1000
0000
0001
0010
0100
1000
0001
0000
0000
0000
0000
0000
0000
0000
,
0000
0000
0000
1000
,
0001
0000
1001
0000
,
0001
0000
0000
0010
0000
0000
0100
0000
1000
0000
0000
0000
0000
0000
0000
0000
,
0000
0000
0001
0100
0010
1000
0010
0100
0001
0000
0000
0000
0000
0000
0000
0000
,
0000
0000
0000
0000
,
1000
0100
0001
0100
,
1000
0100
0010
0001
,
1000
0010
0001
0010
,
1000
0010
0100
0001
0000
1000
0000
0001
0000
1000
0000
0000
,
0001
0100
1000
0100
,
0001
0100
0010
1000
,
0001
0010
1000
0010
,
0001
0000
0010
0100
1000
0100
1000
0001
0100
0000
0000
0000
0110
0000
0000
0000
,
0010
1000
0010
0001
0010
0000
1000
0000
,
0100
0001
0100
1000
0100
0000
0010
0000
,
0001
0010
0100
1000
0001
0000
1000
0000
,
0001
0100
0010
1000
0001
0000
1001
0000
,
1000
0100
0001
0001
,
1000
0010
0001
0001
,
1000
0010
0001
1000
,
0100
0000
0001
0100
0001
0000
1000
0001
2000
0000
0000
0000
3000
0000
0000
0000
,
0001
0000
0000
0000
1000
0000
0000
1001
,
0000
0000
0001
0001
,
0010
0000
0000
0000
0100
0000
0000
0110
,
0000
0000
0010
0100
,
1000
0000
0000
0000
0001
0000
0000
1001
,
0000
0000
1000
1000
,
0010
0000
0000
0000
0100
0000
0000
0110
,
0010
0000
0000
0100
0000
0000
0001
0000
1000
0000
1000
0000
1000
0000
0000
0000
,
0001
0010
1000
0010
0001
0000
0000
0000
,
1000
0000
0000
1000
0000
0000
1000
0000
0001
0000
1000
0000
0001
0000
0000
0000
,
1000
0010
0001
0010
1000
0000
0000
0000
,
0001
0000
0000
0001
0000
0000
0001
0000
1000
0000
0001
0000
1000
0000
0000
0000
,
0001
0100
0010
1000
0001
0000
0000
0000
,
1000
0000
0000
0001
0000
0000
1000
0000
0001
0000
1000
0000
0001
0000
0000
0000
,
2000
0000
3200
0000
0320
0000
0032
0003
,
0000
0000
0000
0000
,
1000
0010
1000
0000
0001
0010
0001
0000
,
1000
0000
0000
0100
0000
0000
0000
0000
0010
0000
0010
0000
0010
0000
0000
0000
,
0001
0010
0001
0000
1000
0010
1000
0000
,
0001
0000
0000
0100
0000
0000
0010
0000
1000
0000
1000
0000
1000
0000
0000
0000
,
0001
0000
0000
0001
0000
0000
0000
0000
1000
0000
0001
0000
1000
0000
0000
0000
,
0100
0000
0000
0100
0000
0000
0000
0000
0010
0000
0100
0000
0010
0000
0000
0000
,
0001
0010
0001
0000
1000
0010
1000
0000
,
0001
0000
1000
0000
0010
0100
0001
1000
0100
0000
0000
0000
0020
0000
0000
0000
,
0031
0000
0000
0000
0000
0000
0000
0000
0011
0000
0000
0000
0000
0000
0000
0010
,
0001
0000
0000
1001
0000
0000
2020
0000
0000
0000
0000
0000
0000
0000
0000
0000
,
3030
0000
1000
0000
0010
0100
0001
1000
0001
0000
0000
0000
0000
0000
0000
0000
,
1000
0000
0000
0000
0000
0000
0001
0010
0100
1000
0001
0100
,
0110
0010
1000
0000
1010
1000
0001
0000
,
1000
0000
0000
0100
0000
0000
0010
0000
0100
0000
1000
0000
0001
0000
0000
0000
,
0010
0000
0001
1000
0001
0100
0010
1000
0001
0000
0001
0000
0001
0000
0000
0000
,
0000
0000
0000
0000
,
2002
0000
0000
0000
,
0000
0000
0000
0000
,
0000
0000
0000
0000
,
0000
0000
0000
3003
,
0000
1000
1000
0000
,
0001
0000
0000
0010
0000
0000
1000
0000
0010
0000
0010
0000
0001
0000
0000
0000
,
0000
0001
0001
0000
,
1000
0000
0000
0010
0000
0000
0001
0000
0010
0000
0010
0000
1000
0000
0000
0000
,
0010
0100
0001
1000
0100
0010
0002
0000
0000
0013
0000
0000
,
0001
0000
0000
1000
0000
0000
0001
0000
0100
0000
0100
0000
0010
0000
0010
0000
,
2000
3001
0001
1000
,
0001
0000
0000
0010
0000
0000
0100
0000
1000
0000
1000
0000
0001
0000
0001
0000
,
1000
0001
1001
0000
,
1000
0000
0000
0100
0000
0000
0001
0000
0100
0000
0100
0000
1000
0000
1000
0000
,
0001
1000
1001
0000
,
0001
0000
0000
0100
0000
0000
1000
0000
0100
0000
0100
0000
0100
0000
0100
0000
,
0101
1001
1100
0110
,
0011
0000
1001
0000
0001
0100
1000
0100
,
0001
0101
1010
1001
,
0011
0000
1100
0000
1000
0100
0001
0100
,
1000
1100
0110
0011
,
1001
0000
1010
0000
1000
0010
0100
0001
,
1000
1100
0011
1001
,
1010
0000
0101
0000
0001
0100
0010
1000
,
0001
0100
0010
1000
0001
0000
1000
0001
,
0010
0000
0000
0010
0000
0000
0010
0000
0100
0000
1000
0000
0001
0000
0000
0000
,
1000
0010
0100
0001
1000
0000
0100
0010
,
0001
0000
0000
0001
0000
0000
0001
0000
1000
0000
1000
0000
0001
0000
0001
0000
,
1000
0100
0010
0001
0010
0000
0100
1000
,
0001
0000
0000
0100
0000
0000
0010
0000
1000
0000
0001
0000
1000
0000
0000
0000
,
0002
0000
0023
0000
0230
0000
2300
3000
;

//---------------dance-single - ----------------
#NOTES:
     dance-single:
     :
     Challenge:
     10:
     0.623670,0.817985,0.403943,0.124290,0.520465,562.000000,510.000000,52.000000,16.000000,28.000000,0.000000,0.623670,0.817985,0.403943,0.124290,0.520465,562.000000,510.000000,52.000000,16.000000,28.000000,0.000000:
// measure 0
0001
0000
1001
0000
,  // measure 1
0000
0000
1000
0000
,  // measure 2
0000
0000
0001
0000
1000
0010
0100
0001
1000
0000
0000
0000
0000
0000
0000
0000
,  // measure 3
0000
0000
0000
0001
,  // measure 4
1000
0000
1001
0000
,  // measure 5
1000
0000
0000
0010
0000
0000
0100
0000
0001
0000
0000
0000
0000
0000
0000
0000
,  // measure 6
0000
0000
1000
0100
0010
0001
0010
0100
1000
0000
0000
0000
0000
0000
0000
0000
,  // measure 7
0000
0000
0000
0000
000M
0000
M000
0000
0000
0000
0000
0M00
0000
0000
0000
0000
00M0
0000
0000
0000
0000
0000
0000
0000
000M
0000
0000
0000
0000
0000
0000
0000
,  // measure 8
1000
0000
0001
0100
1000
0000
0100
0000
,  // measure 9
0001
0000
0100
0010
1000
0000
0001
0000
,  // measure 10
1000
0000
0001
0010
1000
0000
0010
0000
,  // measure 11
0001
0010
0100
1000
0000
0001
0000
0001
0000
0001
0000
0000
,  // measure 12
1000
1010
1000
1001
,  // measure 13
0001
0010
1000
0010
,  // measure 14
0001
0010
0000
0100
1000
0000
0001
0100
0010
0000
0000
0000
1000
0000
0000
0000
,  // measure 15
0001
0000
1000
0010
0100
0001
0100
0010
1000
0000
0000
0000
MMMM
0000
0000
0000
,  // measure 16
0001
0010
0001
0100
0001
0010
0001
1000
0001
0000
0000
0000
1001
0000
0000
0000
,  // measure 17
1000
0010
1000
0100
1000
0010
1000
0001
1000
0000
0000
0000
1001
0000
0000
0000
,  // measure 18
0001
0010
0001
0010
0001
0010
0100
1000
0001
0000
0000
0000
0101
0000
0000
0000
,  // measure 19
1000
0010
1000
0010
1000
0010
0100
0001
1000
0000
0000
0000
MMMM
0000
0000
0000
,  // measure 20
0001
0011
0001
1001
,  // measure 21
0001
0000
0000
0000
1000
0000
0000
0000
0001
0000
0000
0000
1000
0000
0000
0010
0000
0000
0100
0000
0000
0001
0000
0000
1000
0000
0000
0000
0000
0000
0000
0000
0000
0000
0000
0000
1001
0000
0000
0000
0000
0000
0000
0000
0000
0000
0000
0000
,  // measure 22
0001
0100
0001
1000
0010
1000
0002
0000
0000
1003
0000
0000
,  // measure 23
1001
0000
0001
0010
0100
0000
1000
0010
0200
0000
0000
0000
0300
0000
0000
0000
,  // measure 24
0001
0000
0100
0000
0010
0000
1000
0000
0001
0000
0000
0001
0000
0000
0001
0000
,  // measure 25
0000
0000
0000
0000
0000
0000
0000
0000
0001
0010
0100
1000
0001
1000
0001
0000
,  // measure 26
1000
0000
0100
0000
0010
0000
0001
0000
1000
0000
0000
1000
0000
0000
1000
0000
,  // measure 27
0000
0000
0000
0000
0000
0000
0000
0000
1000
0010
0100
0001
1000
0001
1000
0000
,  // measure 28
0001
0000
0010
0000
0001
0000
1000
0000
0010
0000
0000
1000
0000
0000
1010
0000
,  // measure 29
0000
0000
0000
0000
0000
0000
0000
0000
1000
0010
0100
0001
0010
0100
1000
0000
,  // measure 30
0100
0000
1000
0000
0001
0000
1000
0000
0001
0000
0000
0100
0000
0000
0001
0000
,  // measure 31
0101
0000
0000
0110
0000
0000
1010
0000
1000
0000
0001
0000
1001
0000
0000
0000
,  // measure 32
1000
0100
0010
0100
1000
0100
0010
0100
1000
0000
0000
0000
0000
0000
0000
0000
,  // measure 33
0001
0000
0000
0001
0000
0000
0001
0000
1000
0000
0001
0000
1000
0000
0000
0000
,  // measure 34
0001
0100
0010
0100
0001
0100
0010
0100
0001
0000
0000
0000
0000
0000
0000
0000
,  // measure 35
1000
0000
0000
1000
0000
0000
1000
0000
0001
0000
1000
0000
0001
0000
0000
0000
,  // measure 36
1000
0010
0100
0001
0010
0100
1000
0001
1000
0000
0000
0000
0000
0000
0000
0000
,  // measure 37
0001
0000
0000
1000
0000
0000
0001
0000
1000
0000
0001
0000
1000
0000
0000
0000
,  // measure 38
0020
0000
0230
0000
0302
0000
2003
3000
,  // measure 39
0000
0000
0000
0000
000M
0000
00M0
0000
0000
0000
0000
0M00
0000
0000
0000
0000
M000
0000
0000
0000
0000
0000
0000
0000
000M
0000
0000
0000
0000
0000
0000
0000
,  // measure 40
0011
0001
1000
0000
1010
1000
0001
0000
,  // measure 41
1000
0000
0100
1000
0000
0000
0000
0000
0001
0000
0001
0000
0100
0000
0000
0000
,  // measure 42
0001
0000
1000
0010
0100
0001
1000
0010
0100
0000
0100
0000
0010
0000
0100
0010
,  // measure 43
1000
0000
0001
0000
0010
0100
1000
0001
1000
0000
1000
0000
1001
0000
0000
0000
,  // measure 44
0001
0000
0010
0001
0000
0000
0000
0000
1000
0000
1000
0000
0100
0000
0000
0000
,  // measure 45
1000
0000
0001
1000
0000
0000
0001
0000
0100
0000
0100
0000
0010
0000
0000
0000
,  // measure 46
1000
0000
0010
0000
1000
0000
0001
0000
0100
0000
0001
0000
1000
0000
0000
1000
0000
0000
0001
0000
0000
0000
0000
0000
,  // measure 47
0010
0000
0010
0000
0001
0010
0100
1000
0001
0000
0000
0000
2000
0000
0000
0000
,  // measure 48
3001
0000
0000
0000
0000
0000
0000
0000
1001
0000
0000
0000
0000
0000
0000
1000
,  // measure 49
0010
0000
0000
1001
0000
0000
0022
0000
0000
0000
0000
0000
0000
0000
0000
0000
,  // measure 50
0033
0000
0001
0000
0010
0100
1000
0001
0100
0000
0000
0000
0000
0000
0000
0000
,  // measure 51
0101
0000
0000
0000
0000
0000
0001
0100
0001
1000
0001
1000
,  // measure 52
0010
1000
1010
0000
1000
0001
1001
0000
,  // measure 53
0001
0000
0000
0010
0000
0000
0100
0000
1000
0000
1000
0000
1000
0000
0000
0000
,  // measure 54
0100
0000
1000
0001
0100
0010
1000
0001
1000
0000
1000
0000
1000
0000
0000
0000
,  // measure 55
0000
0000
0000
0000
000M
0000
00M0
0000
0000
0000
0000
0M00
0000
0000
0000
0000
M000
0000
0000
0000
0000
0000
0000
0000
000M
0000
0000
0000
0000
0000
0000
0000
,  // measure 56
2002
0000
0000
0000
,  // measure 57
0000
0000
0000
0000
,  // measure 58
0000
0000
0000
0000
,  // measure 59
0000
0000
0000
3003
,  // measure 60
0000
1000
1000
0000
,  // measure 61
0010
0000
0000
0100
0000
0001
0100
0000
0001
0000
0001
0000
1000
0000
0000
0000
,  // measure 62
0000
0001
0001
0000
,  // measure 63
1000
0000
0000
0100
0000
0010
0001
0000
1000
0000
1000
0000
0001
0000
0000
0000
,  // measure 64
0010
0100
1000
0001
1000
0010
0200
0000
0000
0310
0000
0000
,  // measure 65
1000
0000
0000
0010
0000
1000
0010
0000
1000
0000
1000
0000
0001
0000
0001
0000
,  // measure 66
1000
0001
1001
1000
,  // measure 67
0001
0000
0000
0010
0000
0001
0010
0000
0001
0000
0001
0000
1000
0000
1000
0000
,  // measure 68
0001
0101
0101
0001
,  // measure 69
0100
0000
0000
0010
0000
1000
0010
0000
1000
0000
1000
0000
0001
0000
0001
0000
,  // measure 70
1000
1100
1100
0100
,  // measure 71
1000
0000
0000
0100
0000
0010
0001
0000
1000
0000
1000
0000
1000
0000
1000
0000
,  // measure 72
1100
1001
0101
1001
,  // measure 73
1100
0000
0110
0000
0001
0010
1000
0010
,  // measure 74
0001
0011
1001
1010
,  // measure 75
0110
0000
0101
0000
0001
0100
1000
0100
,  // measure 76
0001
0101
1001
1100
,  // measure 77
0110
0000
0011
0000
0001
0010
0100
0010
,  // measure 78
0001
0011
1001
0101
,  // measure 79
1001
0000
1010
0000
1000
0010
0100
0010
,  // measure 80
1000
0010
0100
0001
1000
0000
0010
1000
,  // measure 81
0001
0000
0000
0001
0000
0000
0001
0000
1000
0100
1000
0100
0010
0001
0010
0000
,  // measure 82
0001
0010
0100
1000
0001
0000
1000
0010
,  // measure 83
0100
0000
0000
0100
0000
0000
0100
0000
0001
0100
0001
0100
0001
1000
0001
0000
,  // measure 84
1000
0100
0001
0100
1000
0000
0001
1000
,  // measure 85
0001
0000
0000
0100
0000
0000
1000
0000
0100
0010
0100
0010
1000
0001
1000
0000
,  // measure 86
0002
0000
0023
0000
0230
0000
2300
3000
,  // measure 87
0000
0000
0000
0000
000M
0000
0M00
0000
0000
0000
0000
00M0
0000
0000
0000
0000
M000
0000
0000
0000
0000
0000
0000
0000
000M
0000
0000
0000
0000
0000
0000
0000
;

//---------------dance-single - ----------------
#NOTES:
     dance-single:
     :
     Medium:
     6:
     0.339579,0.438657,0.077681,0.077681,0.031073,306.000000,296.000000,10.000000,10.000000,0.000000,0.000000,0.339579,0.438657,0.077681,0.077681,0.031073,306.000000,296.000000,10.000000,10.000000,0.000000,0.000000:
0001
0000
1000
0000
,
0000
0000
0010
0000
,
0000
0100
0001
0100
0001
0000
0000
0000
,
0000
0000
0000
1000
,
1000
0000
0001
0000
,
0010
0000
0000
0100
0010
0000
0000
0000
,
0000
0100
1000
0100
1000
0000
0000
0000
,
0000
0000
0000
0000
,
0001
0100
0010
0100
,
0000
0100
0010
1000
,
0001
1000
0010
0100
,
0000
0010
0100
0000
,
0100
0001
0010
0100
,
0000
0100
0010
0001
,
1000
0001
0010
0100
,
0000
0010
0100
0000
,
1000
0000
0100
1000
0100
0000
0000
0000
,
1000
0000
0001
1000
0001
0000
0000
0000
,
0100
0000
0001
0100
0001
0000
0000
0000
,
0100
0000
0010
0100
0010
0000
0000
0000
,
1000
0001
0010
0100
,
0000
0100
0010
0001
,
1000
0010
0100
0001
,
1000
0000
1001
0000
,
0001
0000
0000
0000
0001
0000
0000
0001
,
0000
0000
0000
0000
0100
0001
0100
0001
,
1000
0000
0000
0000
1000
0000
0000
1000
,
0000
0000
0000
0000
0100
1000
0100
1000
,
0001
0000
0000
0000
0001
0000
0000
0001
,
0000
0000
0000
0000
0010
0001
0010
0001
,
1000
0000
0000
0000
1000
0000
0000
1000
,
0010
0000
0000
0100
0000
0000
0001
0000
1000
0000
0001
0000
1000
0000
0000
0000
,
0001
0010
0100
1000
0001
0000
0000
0000
,
1000
0000
0100
0000
0001
0100
1000
0000
,
0001
0100
0010
1000
0001
0000
0000
0000
,
1000
0000
0010
0000
0001
0010
1000
0000
,
0001
0100
0010
1000
0001
0000
0000
0000
,
1000
0000
0100
0000
0010
0001
1000
0000
,
0020
0000
0230
0000
0320
0000
0230
0300
,
0000
0000
0000
0000
,
0001
0000
0101
0000
,
0001
0000
1001
0000
,
1000
0001
1000
0000
1001
0000
0000
0000
,
0001
0000
0001
0000
0010
0100
0010
0000
,
0100
0000
1100
0000
,
1000
0000
1001
0000
,
0001
0100
0010
0000
,
0100
0000
0010
1000
0001
0000
0000
0000
,
1000
0000
1001
0000
,
0001
0000
0000
0100
0000
0000
0010
0000
0000
0000
0000
0000
0000
0000
0000
0000
,
0000
1000
0010
1000
0001
0000
0000
0000
,
0010
0000
0100
1000
,
0010
0000
1010
0000
,
1000
0000
1001
0000
,
0001
0010
0001
0010
0001
0000
0000
0000
,
0000
0000
0000
0000
,
2002
0000
0000
0000
,
0000
0000
0000
0000
,
0000
0000
0000
0000
,
0000
0000
0000
3003
,
0000
0001
0001
0000
,
0100
0000
0010
0000
1000
0001
1000
0000
,
0000
0001
0001
0000
,
0010
0000
0100
0000
1000
0001
1000
0000
,
0001
0010
1000
0000
,
1000
0010
0001
1000
,
0001
0100
1000
0000
,
1000
0100
0001
1000
,
0010
0100
0001
0000
,
0100
0000
0001
0000
1000
0001
1000
0001
,
1000
0100
0010
0000
,
0100
0000
0010
0000
0001
0010
0001
1000
,
0010
0010
0100
0100
,
0001
0000
0001
0000
0100
0001
0100
0010
,
1000
1000
0001
0001
,
0010
0000
0010
0000
0100
1000
0100
0010
,
0001
0001
0010
0010
,
0100
0000
0100
0000
1000
0100
1000
0001
,
1000
1000
0010
0010
,
0100
0000
0100
0000
0001
0100
0001
0100
,
0010
0000
0000
1000
0000
0000
0001
0000
0010
0000
0000
0000
0000
0000
0000
0000
,
0100
0000
0000
0100
0000
0000
0010
0000
0100
0000
0000
0000
0000
0000
0000
0000
,
0010
0000
0000
0100
0000
0000
1000
0000
0001
0000
0000
0000
0000
0000
0000
0000
,
1000
0000
0000
1000
0000
0000
0001
0000
1000
0000
0000
0000
0000
0000
0000
0000
,
0001
0000
0000
1000
0000
0000
0010
0000
0100
0000
0000
0000
0000
0000
0000
0000
,
0010
0000
0000
0010
0000
0000
0100
0000
0010
0000
0000
0000
0000
0000
0000
0000
,
2000
0000
3002
0000
2003
0000
3002
0003
;

//---------------dance-single - ----------------
#NOTES:
     dance-single:
     :
     Easy:
     4:
     0.254129,0.303249,0.100986,0.000000,0.000000,229.000000,216.000000,13.000000,0.000000,0.000000,0.000000,0.254129,0.303249,0.100986,0.000000,0.000000,229.000000,216.000000,13.000000,0.000000,0.000000,0.000000:
0001
0000
0001
0000
,
0000
0000
1000
0000
,
0000
0000
1000
0000
,
0000
0000
0000
0000
,
0100
0000
0100
0000
,
0000
0000
0010
0000
,
0000
0000
0010
0000
,
0000
0000
0000
0000
,
0001
0000
0100
0000
,
0001
0000
1000
0000
,
0001
0000
0010
0000
,
0100
0010
0100
0000
,
1000
0000
0100
0000
,
1000
0000
0001
0000
,
1000
0000
0010
0000
,
0100
0010
0100
0000
,
0001
0001
0001
0000
,
0100
0100
0100
0000
,
0001
0001
0001
0000
,
0010
0010
0010
0000
,
0100
0000
0100
0000
,
1000
0100
1000
0000
,
0010
0000
0100
0000
,
0010
0000
0110
0000
,
0100
0000
0000
0000
0100
0000
0000
0100
,
0000
0000
0001
0100
,
0001
0000
0000
0000
0001
0000
0000
0001
,
0000
0000
1000
0001
,
1000
0000
0000
0000
1000
0000
0000
1000
,
0000
0000
0100
1000
,
0100
0000
0000
0000
0100
0000
0000
1000
,
0100
1000
0001
1000
,
0001
0100
1000
0000
,
0100
0100
0001
0001
,
1000
0100
0001
0000
,
0100
0100
1000
1000
,
0001
0010
0100
0000
,
1000
1000
0001
0001
,
1000
0001
1000
0001
,
0000
0000
0000
0000
,
1000
0000
1000
0000
,
0010
0000
0010
0000
,
0100
0000
0100
0000
,
0001
0001
0001
0000
,
1000
0000
1010
0000
,
0001
0000
0011
0000
,
0010
0000
0110
0000
,
0100
0000
0110
0000
,
0001
0000
1001
0000
,
0000
0000
0000
0000
,
0000
1000
1000
0000
,
0010
0000
0100
0100
,
0100
0000
0101
0000
,
0001
0000
1001
0000
,
1000
0000
1100
0000
,
0000
0000
0000
0000
,
1001
0000
0000
0000
,
0000
0000
0000
0000
,
0000
0000
0000
0000
,
0000
0000
0000
0000
,
0000
0001
0001
0000
,
0100
0010
1000
1000
,
0000
0001
0001
0000
,
1000
0100
0010
0010
,
0001
1000
0010
0000
,
1000
0001
0010
0010
,
0100
1000
0001
0000
,
0100
0001
1000
1000
,
0010
0100
0001
0000
,
0100
0010
1000
0001
,
1000
0100
0010
0000
,
0100
0010
0001
0001
,
1000
0010
0100
0010
,
0001
0010
0100
0010
,
1000
0010
0100
0001
,
1000
0001
1000
0001
,
1000
0100
0010
0100
,
0001
0100
0010
0100
,
1000
0100
0010
0001
,
1000
0001
1000
1000
,
0001
0000
0011
0000
,
0010
0100
1000
0000
,
0001
0000
1001
0000
,
1000
0010
0100
0000
,
0001
0000
1001
0000
,
1000
0100
0010
0000
,
0001
1000
0001
1000
;

//---------------dance-single - ----------------
#NOTES:
     dance-single:
     :
     Beginner:
     2:
     0.142046,0.201583,0.007768,0.000000,0.000000,128.000000,127.000000,1.000000,0.000000,0.000000,0.000000,0.142046,0.201583,0.007768,0.000000,0.000000,128.000000,127.000000,1.000000,0.000000,0.000000,0.000000:
1000
0000
1000
0000
,
0000
0000
0001
0000
,
0000
0000
0001
0000
,
0000
0000
0000
0000
,
0100
0000
0100
0000
,
0000
0000
0010
0000
,
0000
0000
0010
0000
,
0000
0000
0000
0000
,
1000
0000
1000
0000
,
1000
0000
0000
0000
,
0001
0000
0001
0000
,
0001
0000
0000
0000
,
0010
0000
0010
0000
,
0010
0000
0000
0000
,
0100
0000
0100
0000
,
0100
0000
0000
0000
,
1000
0000
0000
0000
,
0001
0000
0000
0000
,
0100
0000
0000
0000
,
0010
0000
0000
0000
,
1000
0000
1000
0000
,
1000
0000
0000
0000
,
0001
0000
0001
0000
,
0001
0000
0000
0000
,
0010
0000
0000
0000
,
0000
0000
0010
0000
,
0100
0000
0000
0000
,
0000
0000
0100
0000
,
1000
0000
0000
0000
,
0000
0000
1000
0000
,
0001
0000
0000
0000
,
0100
0000
0100
0000
,
0010
0010
0010
0000
,
0010
0000
0000
0000
,
1000
1000
1000
0000
,
1000
0000
0000
0000
,
0001
0001
0001
0000
,
0001
0000
0000
0000
,
1000
0000
0001
0000
,
0000
0000
0000
0000
,
1000
0000
1000
0000
,
0000
0000
0100
0000
,
0000
0000
0010
0000
,
0000
0000
0000
0001
,
0001
0000
0001
0000
,
0000
0000
1000
0000
,
0000
0000
0010
0000
,
0000
0000
0100
0000
,
0100
0000
0001
0000
,
1000
0000
0000
0000
,
0000
0001
0001
0000
,
1000
0000
0100
0000
,
0010
0000
0010
0000
,
0001
0000
0001
0000
,
1000
0000
1000
0000
,
0000
0000
0000
0000
,
1001
0000
0000
0000
,
0000
0000
0000
0000
,
0000
0000
0000
0000
,
0000
0000
0000
0000
,
0000
0000
0001
0000
,
0100
0000
0100
0000
,
0000
0000
0010
0000
,
1000
0000
1000
0000
,
0001
0001
0001
0000
,
1000
0000
1000
0000
,
0100
0100
0100
0000
,
0010
0000
0010
0000
,
0001
0001
0001
0000
,
0010
0000
0001
0000
,
1000
1000
1000
0000
,
0010
0000
1000
0000
,
0001
0000
0001
0000
,
0001
0000
0001
0000
,
0010
0000
0010
0000
,
0010
0000
0010
0000
,
0100
0000
0100
0000
,
0100
0000
0100
0000
,
1000
0000
1000
0000
,
1000
0000
1000
0000
,
0001
0000
0000
0000
,
0001
0000
0000
0000
,
0100
0000
0000
0000
,
0100
0000
0000
0000
,
0010
0000
0000
0000
,
0010
0000
0000
0000
,
1000
0000
0001
0000
;
