#TITLE:Fat Finger;
#SUBTITLE:;
#ARTIST:Yooh;
#TITLETRANSLIT:;
#SUBTITLETRANSLIT:;
#ARTISTTRANSLIT:;
#GENRE:;
#CREDIT:Lisek;
#BANNER:[Round 2] - Fat Finger.png;
#BACKGROUND:[Round 2] - Fat Finger-bg.png;
#LYRICSPATH:;
#CDTITLE:cdtitle.png;
#MUSIC:[Round 2] - Fat Finger.ogg;
#OFFSET:-1.874;
#SAMPLESTART:31.81;
#SAMPLELENGTH:15.1;
#SELECTABLE:YES;
#BPMS:0.000000=128.00
;
#STOPS:
;
#BGCHANGES:;
#KEYSOUNDS:;
#ATTACKS:;

//---------------dance-single - ----------------
#NOTES:
     dance-single:
     Lisek:
     Hard:
     8:
     0.512771,0.492496,0.418453,0.176680,0.376608,386.000000,341.000000,45.000000,19.000000,32.000000,0.000000,0.512771,0.492496,0.418453,0.176680,0.376608,386.000000,341.000000,45.000000,19.000000,32.000000,0.000000:
// measure 0
1001
1000
0001
0100
,  // measure 1
0010
1000
0001
0100
,  // measure 2
1001
0001
1000
0010
,  // measure 3
0100
0000
0000
0000
0001
0000
1000
0010
0000
0000
0000
0000
0200
0000
0000
0000
,  // measure 4
0301
0010
0100
1000
0010
0100
0010
2000
,  // measure 5
0000
3000
1000
0100
0010
0001
0200
0000
,  // measure 6
0300
0100
0001
0010
0100
0010
0001
0010
,  // measure 7
0100
1000
0010
0100
0010
1000
0002
0000
,  // measure 8
1003
0000
0000
0010
0000
0000
0001
0000
0010
0000
0000
1000
0000
0000
1000
0000
,  // measure 9
0001
0000
0000
0000
0000
0000
0010
0000
0000
0000
0000
0000
1000
0000
0000
0000
0010
0000
0000
0000
0000
0000
0001
0000
0000
0000
0000
1000
0100
0000
0000
0010
,  // measure 10
0001
0000
0000
0100
0000
0000
1000
0000
0100
0000
0000
0001
0000
0000
0001
0000
,  // measure 11
1000
0000
0000
0100
0000
0000
0001
0000
1000
0000
0010
0000
0001
0000
0000
0000
,  // measure 12
1000
0000
0000
0010
0000
0000
0001
0000
0010
0000
0000
1000
0000
0000
1000
0000
,  // measure 13
0001
0000
0000
0000
0000
0000
0100
0000
0000
0000
0000
0000
1000
0000
0000
0000
0100
0000
0000
0000
0000
0000
0001
0000
0000
0000
0000
0001
0010
0000
0000
0100
,  // measure 14
1000
0000
0000
0100
0000
0000
0001
0000
0100
0000
0000
1000
0000
0000
0100
0000
,  // measure 15
1100
0110
0011
0101
,  // measure 16
2002
0000
0000
3003
0001
0000
0100
0000
0010
0000
0000
1000
0000
0000
1000
0000
,  // measure 17
0100
0000
0000
0010
0000
0000
0010
0000
0001
0000
0000
1000
0000
0000
1000
0000
,  // measure 18
2002
0000
0000
3003
1000
0000
0100
0000
0010
0000
0000
0001
0000
0000
0001
0000
,  // measure 19
1000
0000
0000
0100
0000
0000
0100
0000
1000
0000
1000
0000
0001
0000
0001
0000
,  // measure 20
2002
0000
0000
3003
1000
0000
0010
0000
0100
0000
0000
0001
0000
0000
0001
0000
,  // measure 21
1000
0000
0000
0010
0000
0000
0010
0000
1000
0000
1000
0000
0001
0000
0001
0000
,  // measure 22
2002
0000
0000
3003
0001
0000
0010
0000
0100
0000
0000
1000
0000
0000
1000
0000
,  // measure 23
0001
0010
0001
0010
0000
0000
0100
1000
0100
1000
0000
0000
,  // measure 24
0000
MM11
0000
11MM
0000
MM11
0000
F1MM
,  // measure 25
1000
0000
0000
0100
0000
0000
0100
0000
0010
0000
0000
0001
0000
0000
0001
0000
,  // measure 26
0000
M1M1
0000
1M1M
0000
M1M1
0000
1M1M
,  // measure 27
0010
0000
0000
1000
0000
0000
1000
0000
0001
0000
0001
0000
1000
0000
1000
0000
,  // measure 28
0000
11MM
0000
MM11
0000
11MM
0000
MM11
,  // measure 29
0001
0000
0000
1000
0000
0000
1000
0000
0010
0000
0010
0000
0100
0000
0100
0000
,  // measure 30
0000
M1M1
0000
1M1M
0000
M1M1
0000
1M1M
,  // measure 31
1000
0100
0000
0000
0001
0100
0000
0000
1000
0010
0000
0000
0001
0020
0000
0000
,  // measure 32
1030
0000
0000
0000
0000
0000
0001
0000
0000
1000
0000
0000
0001
0000
0010
0000
0100
0000
0010
0000
0000
0000
0000
0000
,  // measure 33
0100
1000
0010
1000
0000
0000
0001
0100
0010
1000
0000
0000
,  // measure 34
2002
0000
0000
0000
0000
0000
0000
0000
0000
3003
0000
0000
0001
0000
0000
0000
0000
0000
0100
0000
0000
0000
0000
0000
0010
0000
0000
0000
1000
0000
0000
0000
0100
0000
0000
0000
1000
0000
0000
0000
0000
0000
0000
0000
0000
0000
0000
0000
,  // measure 35
0001
0100
0010
0100
0000
0000
0101
0000
0000
1010
0000
0000
,  // measure 36
2002
0000
0000
0000
0000
0000
0000
0000
0000
3003
0000
0000
1000
0000
0000
0000
0000
0000
0010
0000
0000
0000
0000
0000
0100
0000
0000
0000
0001
0000
0000
0000
0100
0000
0000
0000
0010
0000
0000
0000
0000
0000
0000
0000
0000
0000
0000
0000
,  // measure 37
1000
0010
1000
0001
0000
0000
1000
0100
0010
0001
0000
0100
,  // measure 38
0002
0000
0000
0000
0000
0000
0000
0000
0000
0003
0000
0000
1000
0000
0000
0000
0000
0000
0100
0000
0000
0000
0000
0000
1000
0000
0000
0000
0010
0000
0000
0000
1000
0000
0000
0000
0010
0000
0000
0000
0100
0000
0000
0000
0010
0000
0000
0000
,  // measure 39
0100
0000
0001
0100
0000
1000
0100
0000
0001
0100
0000
0000
,  // measure 40
0000
0000
0000
0001
0000
0000
0001
0000
0000
0000
0000
1000
0000
0000
1000
0000
,  // measure 41
0000
0000
0000
0010
0000
0000
0010
0000
0000
0000
0100
0000
0000
0000
0001
0000
,  // measure 42
0000
0000
0000
1000
0000
0000
1000
0000
0000
0000
0000
0001
0000
0000
0001
0000
,  // measure 43
0000
0000
0000
0100
0000
0000
0100
0000
0010
0000
0010
0000
1000
0000
1000
0000
,  // measure 44
0001
0000
0000
1000
0000
0000
0100
0000
1000
0000
0000
0010
0000
0100
0010
0000
,  // measure 45
1000
0000
0000
0001
0000
0000
0010
0000
0001
0000
0000
1000
0000
0010
0100
0000
,  // measure 46
0001
0000
0000
0010
0000
0000
0100
0000
1000
0000
0000
0010
0000
1000
0010
0000
,  // measure 47
0100
0000
0000
0001
0000
0000
1000
0000
0100
0000
1000
0000
0001
0000
0100
0000
,  // measure 48
1001
0011
1100
0101
,  // measure 49
1010
0011
1100
0110
,  // measure 50
1001
0101
1010
0011
,  // measure 51
1100
0000
0000
0000
0101
0000
0001
1000
0000
0000
0000
0000
0020
0000
0000
0030
,  // measure 52
1000
0000
0100
0000
0010
0000
0001
0000
1000
0000
0010
0000
0100
0000
0001
1000
,  // measure 53
0001
0000
0010
0000
0100
0000
1000
0000
0001
0000
0100
0000
0010
0000
1000
0001
,  // measure 54
1000
0100
1000
0100
0010
0001
0010
0001
,  // measure 55
4004
0000
0000
0000
0000
3003
1001
0000
;

//---------------dance-single - ----------------
#NOTES:
     dance-single:
     Lisek:
     Medium:
     6:
     0.357345,0.440654,0.037196,0.260371,0.227824,269.000000,265.000000,4.000000,28.000000,44.000000,0.000000,0.357345,0.440654,0.037196,0.260371,0.227824,269.000000,265.000000,4.000000,28.000000,44.000000,0.000000:
1001
0001
0010
0100
,
1000
0100
0010
0001
,
1001
1000
0100
0010
,
0001
0010
0100
1000
,
0001
0000
0100
0000
0010
0100
0010
0100
,
0000
0000
0010
0000
1000
0010
1000
0000
,
0000
0001
0010
0100
,
1000
0000
0010
0000
0100
0010
0100
0000
,
0002
0100
0100
0103
,
0020
1000
1000
1030
,
2000
0100
0100
3100
,
0020
0001
0001
0031
,
2000
0010
0100
3010
,
0002
0100
0010
0103
,
2000
0010
0100
3010
,
2000
3020
0032
0203
,
1300
0000
0000
0000
0001
0000
0000
0000
0100
0000
0000
0100
0000
0000
0000
0000
,
0001
0000
0000
0001
0000
0000
0000
0000
1000
0000
0000
1000
0000
0000
0000
0000
,
0010
0000
0000
0000
0100
0000
0000
0000
0001
0000
0000
0001
0000
0000
0000
0000
,
1000
0000
0000
1000
0000
0000
0000
0000
0010
0000
0100
0000
0010
0000
0100
0000
,
0001
0000
0000
0000
1000
0000
0000
0000
0100
0000
0000
0100
0000
0000
0000
0000
,
0010
0000
0000
0010
0000
0000
0000
0000
0001
0000
1000
0000
0001
0000
1000
0000
,
0010
0000
0000
0000
0100
0000
0000
0000
0001
0000
0000
0001
0000
0000
0000
0000
,
1000
0001
1000
0001
0000
0000
1000
0001
1000
0001
0000
0000
,
0000
MMM1
0000
1MMM
0000
MMM1
0000
1MM0
,
0001
0000
0000
0001
0000
0000
0000
0000
1000
0000
0000
1000
0000
0000
0000
0000
,
0000
MM1M
0000
M1MM
0000
MM1M
0000
M10M
,
0010
0000
0000
0010
0000
0000
0000
0000
1000
0000
0001
0000
1000
0000
0001
0000
,
0000
M1MM
0000
MMM1
0000
M1MM
0000
0MM1
,
1000
0000
0000
1000
0000
0000
0000
0000
0010
0000
0100
0000
0010
0000
0100
0000
,
0000
MM1M
0000
1MMM
0000
MM1M
0000
1MM0
,
0002
0023
0230
2300
,
3001
0000
0000
0100
0000
0000
0001
0100
0001
0100
0000
0000
,
0010
0100
0010
0100
0000
0000
0001
0100
0001
0100
0000
0000
,
0001
0000
0000
1000
0000
0000
0010
1000
0010
1000
0000
0000
,
0010
0100
0010
0100
0000
0000
0110
0000
0000
1001
0000
0000
,
1000
0000
0000
0010
0000
0000
1000
0100
1000
0100
0000
0000
,
1000
0010
1000
0010
0000
0000
1000
0100
1000
0200
0000
0000
,
0310
0000
0000
0001
0000
0000
1000
0001
1000
0001
1000
0001
,
2000
3002
0203
0310
,
0000
0000
0000
1000
0000
0000
0001
0000
0000
0000
0000
0001
0000
0000
1000
0000
,
0000
0000
0000
1000
0000
0000
0001
0000
0000
0000
1000
0000
0000
0000
0010
0000
,
0000
0000
0000
0100
0000
0000
0010
0000
0000
0000
0000
0010
0000
0000
0100
0000
,
0000
0000
0000
0100
0000
0000
0010
0000
0200
0000
0000
0000
0320
0000
0000
0000
,
1030
0100
0010
0002
,
1003
0010
0100
0002
,
1003
0100
1000
0020
,
0130
0000
0001
0000
0100
0010
0100
0010
,
1000
0000
0000
0001
0000
0000
0100
0000
0000
0000
0000
0010
0000
0000
1000
0000
,
0000
0000
0000
0100
0000
0000
0010
0000
0000
0000
0001
0000
0000
0000
1000
0000
,
0000
0000
0000
0001
0000
0000
0100
0000
0000
0000
0000
0010
0000
0000
1000
0000
,
0000
0000
0000
0100
0000
0000
0010
0001
0000
0000
0000
0000
2000
0000
0000
0000
,
3001
0010
0100
1000
,
0001
0100
0010
1000
,
0001
0010
0100
1000
0001
0100
0010
1000
,
0002
0203
0320
0130
;

//---------------dance-single - ----------------
#NOTES:
     dance-single:
     Lisek:
     Easy:
     3:
     0.134171,0.232764,0.065093,0.092990,0.000000,101.000000,94.000000,7.000000,10.000000,96.000000,0.000000,0.134171,0.232764,0.065093,0.092990,0.000000,101.000000,94.000000,7.000000,10.000000,96.000000,0.000000:
1001
0000
0001
0000
,
1000
0000
0010
0000
,
1001
0000
1000
0000
,
0001
0000
0100
0000
,
0001
0100
0001
1000
,
0000
0010
1000
0010
,
0000
0100
0001
0100
,
0010
0100
0001
1000
,
0002
0013
0000
0010
,
0200
1300
0000
1000
,
0002
0013
0000
0010
,
0200
1300
0000
1000
,
2000
3100
0000
0100
,
0020
0031
0000
0001
,
2000
3100
0000
0100
,
0020
0031
1000
0001
,
1001
0001
1000
0000
,
0010
0000
0100
0000
,
0101
0001
0100
0000
,
0010
0000
1000
1000
,
1001
1000
0001
0000
,
0100
0000
0010
0010
,
1010
0000
1000
0000
,
0020
0000
0000
0000
0030
0000
0200
0000
0000
0000
0300
0000
,
0000
MM1M
0000
MM1M
0000
MM1M
0000
MM1M
,
0000
MMMM
0000
MMMM
0000
MMMM
0000
MMMM
,
0000
M1MM
0000
M1MM
0000
M1MM
0000
M1MM
,
0000
MMMM
0000
MMMM
0000
MMMM
0000
MMMM
,
0000
MMM1
0000
MMM1
0000
MMM1
0000
MMM1
,
0000
MMMM
0000
MMMM
0000
MMMM
0000
MMMM
,
0000
1MMM
0000
1MMM
0000
1MMM
0000
1MMM
,
0000
0000
0000
0000
,
000F
0000
0000
F000
0000
0000
0004
0000
0000
0000
0003
0000
,
4000
0000
0000
0000
3000
0000
0004
0000
0000
0000
0003
0000
,
F000
0000
0000
000F
0000
0000
4000
0000
0000
0000
3000
0000
,
0004
0000
0000
0000
0003
0000
0F00
0000
0000
0F00
0000
0000
,
000F
0000
0000
F000
0000
0000
0004
0000
0000
0000
0003
0000
,
4000
0000
0000
0000
3000
0000
0004
0000
0000
0000
0003
0000
,
F000
000F
0400
0000
,
0300
0000
0000
0000
,
0000
000F
0000
00F0
,
0000
0F00
0000
F000
,
0000
000F
0000
00F0
,
0000
0F00
0000
0000
,
0000
F000
0000
0F00
,
0000
00F0
0000
000F
,
0000
F000
0000
0F00
,
0000
00F0
0000
000F
,
F000
0F00
F000
0F00
,
00F0
000F
00F0
000F
,
0F00
000F
0F00
000F
,
F000
00F0
F000
00F0
,
F000
0F00
00F0
000F
,
F000
00F0
0F00
000F
,
F000
000F
F000
000F
,
4004
0000
0000
0000
0000
3003
0000
0000
;

//---------------dance-single - ----------------
#NOTES:
     dance-single:
     Lisek:
     Beginner:
     1:
     0.058451,0.077762,0.000000,0.046495,0.000000,44.000000,44.000000,0.000000,5.000000,0.000000,0.000000,0.058451,0.077762,0.000000,0.046495,0.000000,44.000000,44.000000,0.000000,5.000000,0.000000,0.000000:
1000
0000
0000
0000
,
0000
0000
0000
0000
,
0001
0000
0000
0000
,
0000
0000
0000
0000
,
1000
0000
0000
0000
,
0000
0000
0000
0000
,
0001
0000
0000
0000
,
0000
0000
0000
0000
,
1000
0000
0000
0000
,
0010
0000
0000
0000
,
1000
0000
0000
0000
,
0010
0000
0000
0000
,
0100
0000
0000
0000
,
0001
0000
0000
0000
,
0100
0000
0000
0000
,
0001
0000
0000
0000
,
1000
0000
0000
0000
,
0001
0000
0000
0000
,
0100
0000
0000
0000
,
0010
0000
0000
0000
,
1000
0000
0000
0000
,
0001
0000
0000
0000
,
0100
0000
0000
0000
,
0010
0000
0000
0000
,
1000
0000
0000
0000
,
0100
0000
0000
0000
,
0010
0000
0000
0000
,
0001
0000
0000
0000
,
1000
0000
0000
0000
,
0100
0000
0000
0000
,
0010
0000
0000
0000
,
0001
0000
0000
0000
,
2000
0000
0000
0000
,
0000
0000
0000
3000
,
0002
0000
0000
0000
,
0000
0000
0000
0003
,
0200
0000
0000
0000
,
0000
0000
0000
0300
,
0020
0000
0000
0000
,
0000
0000
0000
0030
,
1000
0000
0000
0000
,
0000
0000
0000
0000
,
0001
0000
0000
0000
,
0000
0000
0000
0000
,
0100
0000
0000
0000
,
0000
0000
0000
0000
,
0010
0000
0000
0000
,
0000
0000
0000
0000
,
1000
0000
0000
0000
,
0100
0000
0000
0000
,
0010
0000
0000
0000
,
0001
0000
0000
0000
,
1000
0000
0000
0000
,
0010
0000
0000
0000
,
0100
0000
0000
0000
,
0002
0000
0000
0003
;
