#TITLE:Dynamite;
#SUBTITLE:;
#ARTIST:USAO;
#TITLETRANSLIT:;
#SUBTITLETRANSLIT:;
#ARTISTTRANSLIT:;
#GENRE:HYBRID TWERK;
#CREDIT:;
#BANNER:[Round 2] - Dynamite.png;
#BACKGROUND:[Round 2] - Dynamite-bg.png;
#LYRICSPATH:;
#CDTITLE:cdtitle.png;
#MUSIC:[Round 2] - Dynamite.ogg;
#OFFSET:0.287000;
#SAMPLESTART:21.311001;
#SAMPLELENGTH:15.000000;
#SELECTABLE:YES;
#BPMS:0.000000=100.000000
,92.000000=150.000000
,116.000000=200.000000
,235.000000=100.000000
,239.000000=200.000000
,271.000000=100.000000
;
#STOPS:146.000000=0.300000
;
#BGCHANGES:;
#KEYSOUNDS:;
#ATTACKS:;

//---------------dance-single - ----------------
#NOTES:
     dance-single:
     9646_BEG:
     Beginner:
     3:
     0.176339,0.224219,0.078125,0.039063,0.000000,158.000000,148.000000,10.000000,5.000000,0.000000,0.000000,0.176339,0.224219,0.078125,0.039063,0.000000,158.000000,148.000000,10.000000,5.000000,0.000000,0.000000:
0000
0000
0000
0000
,
0000
0000
0000
0000
,
0000
0000
0000
0000
,
0000
0000
0000
0000
,
0000
0000
0000
0000
,
0100
0100
0100
0000
,
0010
0010
0010
0000
,
1000
1000
1000
0000
,
0001
0001
0001
0000
,
1001
0000
0000
0000
,
0110
0000
0000
0000
,
0100
0100
0100
0000
,
0100
0100
0100
0000
,
0010
0010
0010
0000
,
1000
1000
1000
0000
,
0100
0100
0100
0000
,
0100
0100
0100
0000
,
0010
0010
0010
0000
,
0001
0001
0001
0000
,
1001
0000
0000
0000
,
1001
0000
0000
0000
,
0110
0000
0000
0000
,
0010
0010
0010
0000
,
0200
0000
0000
0300
,
0000
0000
0002
0000
,
0000
0003
0000
0000
,
2000
0000
0000
3000
,
0000
0000
0020
0000
,
0000
0030
0000
0000
,
0100
0000
0100
0000
,
0100
0000
0000
0000
,
0010
0000
0010
0000
,
0010
0000
0000
0000
,
1000
0000
1000
0000
,
0001
0000
0001
0000
,
1000
0000
1000
0000
,
0001
0000
0001
0010
,
0010
0010
0000
0010
,
0000
0010
0000
0001
,
0001
0001
0000
0001
,
0000
0001
0000
0100
,
0100
0100
0000
0100
,
0000
0100
0000
1000
,
1000
1000
0000
0001
,
0000
0001
0000
0010
,
0010
0010
0000
0010
,
0000
0010
0000
1000
,
1000
1000
0000
1000
,
0000
1000
0000
0100
,
0100
0100
0000
0100
,
0000
0100
0000
0001
,
0001
0001
0000
1000
,
0000
1000
0000
0010
,
0010
0010
0000
0100
,
0100
0100
0000
1000
,
1000
1000
0000
0010
,
0010
0010
0000
0100
,
0100
0100
0000
0001
,
0001
0001
0000
1001
,
0000
1001
0000
0100
,
0100
0100
0000
0100
,
0000
0100
0000
0010
,
0010
0010
0000
0010
,
0000
0010
0000
1000
,
1000
1000
0000
1000
,
0000
1000
0000
0001
,
0001
0001
0000
0001
,
0000
1000
0000
1001
,
0000
0000
0000
1001
,
0000
0000
0000
0110
,
0000
0000
0000
0100
,
0000
0010
0020
0030
;

//---------------dance-single - ----------------
#NOTES:
     dance-single:
     9646_BSP:
     Easy:
     6:
     0.427455,0.784766,0.671875,0.132813,0.003906,383.000000,297.000000,86.000000,17.000000,0.000000,0.000000,0.427455,0.784766,0.671875,0.132813,0.003906,383.000000,297.000000,86.000000,17.000000,0.000000,0.000000:
0000
0000
0000
0000
,
0000
0000
0000
0000
,
0000
0000
0000
0000
,
0000
0000
0000
0000
,
0000
0000
0000
0000
,
1000
0000
0001
0000
0010
0010
0010
0000
,
0001
0000
1000
0000
0010
0010
0010
0000
,
0100
0000
0010
0000
1000
1000
1000
0000
,
0100
0000
0010
0000
0001
0001
0002
0003
,
0110
0000
1000
1000
0001
0001
1000
0000
,
0110
0000
0010
0010
0100
0100
0000
0010
,
1001
0000
0101
0101
1100
1100
1001
0010
,
0110
0000
1010
1010
0011
0011
0110
1000
,
1001
0000
1010
1010
0101
0101
1100
0010
,
0011
1000
0010
0100
0002
1000
2000
3003
,
1001
0000
1100
1100
0101
0101
1001
0010
,
0110
0000
0011
0011
1010
1010
0110
0001
,
1001
0000
0011
0011
1100
1100
0101
0010
,
1010
0001
0010
0100
2000
0001
0002
3003
,
1001
0000
0100
0100
0001
0001
0010
0010
,
1001
0000
0100
0100
1000
1000
0010
0010
,
1001
0000
0001
0001
1000
1000
0001
0010
,
0100
0100
1000
1000
0001
0100
0020
0000
,
0230
0000
0000
0302
,
0000
0000
2003
0000
,
0000
3200
0000
0000
,
0320
0000
0000
0032
,
0000
0000
2003
0000
,
0000
0000
0000
0000
3020
0000
0000
0000
0000
0000
0000
0000
0000
0030
0000
0000
,
0101
0001
0001
0000
,
1000
0001
0010
0000
,
1100
1000
1000
0000
,
0001
1000
0010
0000
,
0110
0001
1000
0000
,
0110
1000
0001
0000
,
1001
0000
0110
0000
,
1001
1001
0110
1001
,
1000
1001
0001
0010
,
0100
1000
0001
0110
,
0100
0110
0001
1000
,
0100
0010
0001
1001
,
1000
1001
0001
0100
,
0010
1000
0001
0010
,
0010
0100
0100
0010
,
0001
2000
3100
1001
,
0001
1001
1000
0010
,
0100
0001
1000
0110
,
0100
0110
1000
0001
,
0100
0010
1000
1001
,
0001
1001
1000
0100
,
0100
0010
0010
0001
,
1000
0010
0100
0010
,
1000
0002
0000
1003
,
1000
0001
0001
1000
,
1000
0001
0001
0010
,
0100
1000
0100
0010
,
0001
1000
0010
0100
,
0100
0010
0010
0100
,
0100
0010
0010
1000
,
1010
0001
0011
1000
,
1000
1000
0010
0100
,
0100
0001
1000
0001
,
0001
0001
0010
0100
,
0100
1000
0001
1000
,
0010
0001
0010
1000
,
1000
0001
1000
0001
,
0010
1000
0010
0001
,
0001
1001
0000
1001
,
1010
1010
0011
0011
1001
0100
0110
0000
,
0101
0101
1100
1100
0110
0001
1001
0000
,
0101
0101
1010
1010
0011
0100
1100
0001
,
0100
0000
0010
0000
1000
0000
1000
0000
0000
0002
0000
0000
0003
0000
0000
0000
;

//---------------dance-single - ----------------
#NOTES:
     dance-single:
     9646_DSP:
     Medium:
     8:
     0.592634,0.784766,0.734375,0.234375,0.281250,531.000000,437.000000,94.000000,30.000000,0.000000,0.000000,0.592634,0.784766,0.734375,0.234375,0.281250,531.000000,437.000000,94.000000,30.000000,0.000000,0.000000:
0000
0000
0000
0000
,
0000
0000
0000
0000
,
0000
0000
0000
0000
,
0000
0000
0000
0000
,
0000
0000
0000
0000
,
1100
0000
0100
0000
0101
0000
0100
1000
0001
0000
1001
0000
1000
0000
1010
0000
,
0100
0000
0100
0000
1001
0000
0001
1000
0100
0000
0011
0000
0001
0000
1001
0000
,
1010
0000
0010
0000
0011
0000
0010
1000
0001
0000
1001
0000
1000
0000
1100
0000
,
0010
0000
0010
0000
1001
0000
0001
0100
0000
1000
0100
0020
0000
0000
0030
0000
,
0110
0000
0100
0000
1001
0000
0001
0000
0010
0100
0010
0000
0001
0100
0001
0000
,
0110
0000
0001
2000
0000
3010
0001
0010
1000
1000
0001
0001
0000
0010
0100
0000
,
1001
0000
1000
0000
1100
0000
0001
0001
1000
1000
0010
0000
0001
0001
0010
0000
,
1001
0000
0001
0000
0011
0000
1000
1000
0020
0000
0130
0100
1000
0100
0010
0000
,
0101
0000
0100
0000
0110
0000
0001
0001
1000
1000
0001
0000
0010
0100
0010
0000
,
2001
0000
3010
0000
0110
0000
0001
0010
0000
1000
0010
0000
0002
0000
1003
0000
,
1001
0000
0001
0000
0101
0000
1000
1000
0001
0001
0010
0000
1000
1000
0010
0000
,
1001
0000
1000
0000
1010
0000
0001
0001
0020
0000
0130
0100
0001
0100
0010
0000
,
1100
0000
0100
0000
0110
0000
1000
1000
0001
0001
1000
0000
0010
0100
0010
0000
,
1002
0000
0013
0000
0110
0000
1000
0010
0000
0001
0010
0000
2000
0000
3001
0000
,
0011
0000
1000
0000
2001
0000
3010
0010
0100
0000
0101
0000
0001
0010
0100
0000
,
1100
0000
0001
0000
1002
0000
0103
0100
0010
0000
1010
0000
1000
0100
0010
0000
,
1001
0000
0010
0000
0110
0000
0100
0001
1000
1000
0010
0000
1000
0001
0010
0000
,
1001
0000
0010
0000
0110
0000
0001
1000
0000
0100
1000
0020
0000
0000
0000
0000
,
0230
0000
0000
0000
0000
0000
0000
0000
0000
0302
0000
0000
0000
0000
0000
0000
0000
0000
1003
0000
0000
0000
0000
0000
0020
0000
0000
0000
0000
0000
0000
0000
,
0000
0130
0000
0000
0000
0000
0000
0100
0000
0000
0001
0000
0000
0000
0000
0000
2000
0000
0000
0000
0000
0000
0000
0000
0000
3200
0000
0000
0000
0000
0000
0000
,
0000
0000
0310
0000
0000
0000
0000
0000
0002
0000
0000
0000
0000
0000
0000
0000
0000
1003
0000
0000
0000
0000
0000
1000
0000
0000
0000
0000
0000
1000
0000
0000
,
0020
0000
0000
0000
0000
0000
0000
0000
0000
0230
0000
0000
0000
0000
0000
0000
0000
0000
0301
0000
0000
0000
0000
0000
2000
0000
0000
0000
0000
0000
0000
0000
,
0000
3100
0000
0000
0000
0000
0000
0100
0000
0000
0000
0000
0000
0000
0000
0000
0020
0000
0000
0000
0000
0000
0000
0000
0000
0031
0000
0000
0000
0000
0000
0000
,
0000
0000
1000
0000
0000
0000
0000
0000
0020
0000
0000
0000
0000
0000
0000
0000
0000
0200
0000
0000
0000
0000
0000
0000
0000
0000
0330
0000
0000
0000
0000
0000
,
0110
0000
1000
1000
0001
0000
0010
0100
,
0010
0001
1000
0010
,
0110
0000
0001
0001
1000
0000
0010
0100
,
0010
1000
0001
0010
,
0110
0000
1000
0001
1000
0000
0010
0000
,
0110
0000
0001
1000
0001
0000
0010
0000
,
0110
1000
0110
0001
,
0100
0010
0100
0001
1000
0000
1001
0000
,
0110
1001
0010
0100
,
0001
0000
0010
0100
1000
0000
1100
0000
,
0011
1100
0001
1000
,
0010
0000
0100
0001
1000
0000
0110
0000
,
1001
0110
0001
1000
,
0100
0000
0010
0001
0100
0000
0001
0000
,
0010
0000
0100
1000
0001
0000
1000
0000
,
0010
0210
0301
1001
,
0110
1001
0010
0100
,
1000
0000
0010
0100
0001
0000
0101
0000
,
1010
0101
1000
0001
,
0010
0000
0100
1000
0001
0000
0110
0000
,
1001
0110
1000
0001
,
0100
0000
0010
1000
0100
0000
1000
0000
,
0010
0000
0100
0001
1000
0000
0001
0010
,
0100
2000
0000
0000
3001
0000
1000
0010
,
0100
0000
0101
0000
1100
0000
0001
0100
,
0010
0000
1010
0000
0011
0000
0010
0100
,
1000
0100
0020
0000
0031
0000
0100
0010
,
1000
0010
0200
0000
0301
0000
1000
0100
,
0010
0000
0011
0000
1010
0000
0001
0010
,
0100
0000
0000
0000
1100
0000
0000
0000
0101
0000
0000
0000
0100
0000
0000
0010
,
1000
0000
1000
0000
0100
0000
0000
0010
0001
0000
0001
0000
1000
0000
0001
0000
,
0100
0001
0010
0000
0100
1000
0001
0000
,
0101
0000
0010
0000
1010
0000
0001
1000
,
0100
1000
0010
0000
0100
0001
1000
0000
,
1100
0000
0010
0000
0011
0000
1000
0010
,
0001
0010
1000
0000
0001
0010
0100
0000
,
1001
0000
0100
0000
0110
0000
0001
0100
,
1000
0100
0001
0000
1000
0100
0010
0000
,
1001
0000
0220
0000
0330
0000
1010
0010
,
0011
0000
0010
1000
0001
0000
1001
0000
1000
0000
1100
0000
0010
0000
0010
0000
,
1001
0000
0001
1000
0010
0000
0101
0000
0001
0000
1001
0000
1100
0000
0100
0000
,
0101
0000
0100
1000
0001
0000
1001
0000
1000
0000
1010
0000
0100
0000
0100
0000
,
1001
0000
0010
0100
1000
1000
0001
0001
0000
0020
0000
0000
0030
0000
0000
0000
;

//---------------dance-single - ----------------
#NOTES:
     dance-single:
     9646_ESP:
     Hard:
     10:
     0.854911,1.121094,1.046875,0.515625,0.746094,766.000000,632.000000,134.000000,66.000000,0.000000,0.000000,0.854911,1.121094,1.046875,0.515625,0.746094,766.000000,632.000000,134.000000,66.000000,0.000000,0.000000:
// measure 0
0000
0000
0000
0000
,  // measure 1
0000
0000
0000
0000
,  // measure 2
0000
0000
0000
0000
,  // measure 3
0000
0000
0000
0000
,  // measure 4
0000
0000
0000
0000
0000
0000
0000
0000
0000
0000
0000
0000
0000
0100
0001
0010
,  // measure 5
0210
0000
1300
0001
0011
0010
0100
1000
1001
1000
0010
0000
0101
0001
0010
0000
,  // measure 6
0210
0000
1300
0001
1001
1000
0010
0100
0101
0001
1000
0000
1100
1000
0010
0100
,  // measure 7
0210
0000
0301
1000
1010
0010
0100
0001
1001
0001
0010
0000
1100
1000
0010
0100
,  // measure 8
0210
0000
0301
1000
1001
0001
0010
0200
0000
0310
0001
0200
0010
0000
0310
0000
,  // measure 9
1001
0000
0001
0010
0210
0000
0310
0001
1000
1000
0010
0010
0100
0001
0100
0010
,  // measure 10
1001
0000
0001
0000
0010
0000
0100
1000
0100
0000
0010
0000
0001
0010
0001
0000
1000
0010
1000
0010
1000
0100
1000
0100
0000
0000
0010
0000
0001
0000
1000
0000
,  // measure 11
1020
0000
0130
0001
0012
0000
0103
0010
1000
1000
0001
0001
0010
0100
1000
0100
,  // measure 12
0110
0000
0001
1000
2010
0000
3001
1000
2100
0000
3001
1000
0010
0100
0001
1000
,  // measure 13
2001
0000
3100
0010
0012
0000
1003
0001
0010
0010
0100
0100
0010
0001
0100
0010
,  // measure 14
2000
0000
3100
0000
0110
0001
1000
0020
0000
0130
0001
0010
0200
0010
0310
0000
,  // measure 15
1200
0000
0310
0001
0102
0000
0013
0100
1000
1000
0001
0001
0100
0010
1000
0010
,  // measure 16
0110
0000
0001
1000
2100
0000
3001
1000
2010
0000
3001
1000
0100
0010
0001
1000
,  // measure 17
2001
0000
3010
0100
0102
0000
1003
0001
0100
0100
0010
0010
0100
0001
0010
0100
,  // measure 18
2000
0000
3010
0000
0110
0001
1000
0200
0000
0310
0001
0100
0020
0000
0130
0000
,  // measure 19
2001
0000
3100
0000
0120
0000
0130
1000
0001
0001
0100
0100
1000
1000
0010
0010
,  // measure 20
0110
0000
0001
1000
2100
0000
3001
1000
2010
0000
3001
0010
0100
1000
0001
0000
,  // measure 21
1002
0000
0013
0000
0210
0000
0310
0001
1000
1000
0010
0010
0001
0001
0100
0100
,  // measure 22
2000
0000
3001
0000
0011
0010
0100
2000
0000
3010
0100
0002
2000
0000
3003
0000
,  // measure 23
0001
0000
0000
0010
0000
0000
0100
0000
0000
2000
0000
0000
3000
0000
0000
1000
0000
0000
0001
0000
0000
0100
0000
0000
0010
0000
0000
1000
0000
0000
0001
0000
,  // measure 24
0000
0020
0000
0000
0000
0000
0000
0130
0000
0000
1000
0000
0000
0001
0000
0000
1000
0000
0000
0010
0000
0000
0100
0000
0000
0002
0000
0000
0003
0000
0000
0001
,  // measure 25
0000
0000
1000
0000
0000
0100
0000
0000
0010
0000
0000
0001
0000
0000
1000
0000
0000
0020
0000
0000
0000
0000
0000
0130
0000
0000
0001
0000
0000
1000
0000
0000
,  // measure 26
0001
0000
0000
1000
0000
0000
0100
0000
0000
0002
0000
0000
0000
0000
0000
0103
0000
0000
1000
0000
0000
0001
0000
0000
0100
0000
0000
1000
0000
0000
0100
0000
,  // measure 27
0000
0002
0000
0000
0000
0000
0000
1003
0000
0000
0100
0000
0000
0010
0000
0000
0001
0000
0000
1000
0000
0000
0010
0000
0000
0002
0000
0000
0000
0000
0000
0013
,  // measure 28
0000
0000
1000
0000
0000
0001
0000
0000
0010
0000
0000
1000
0000
0000
0010
0000
0000
0002
0000
0000
0000
0000
0000
0000
0000
0000
0003
0000
0000
0000
0000
0000
,  // measure 29
1001
0010
0100
0010
2000
0000
3001
0010
,  // measure 30
1000
0010
0001
0100
0010
1000
0001
0000
,  // measure 31
1001
0100
0010
0100
2000
0000
3001
0100
,  // measure 32
1000
0100
0001
0010
0100
1000
0001
0000
,  // measure 33
1001
0100
0010
0100
1000
0010
0100
0001
,  // measure 34
1001
0010
0100
0010
0001
0100
0010
1000
,  // measure 35
1001
0100
0010
0100
1001
0010
0100
0010
,  // measure 36
1001
0100
1001
0010
1001
0000
0011
0010
,  // measure 37
1010
0000
0101
0000
1100
1000
1010
0010
,  // measure 38
0110
0100
0101
0001
1001
1000
1010
0000
,  // measure 39
0011
0010
0210
0000
1300
0010
0210
0000
,  // measure 40
0301
0010
0110
1000
0010
0000
0101
0001
,  // measure 41
0011
0000
1010
0000
1100
0100
0101
0001
,  // measure 42
0011
0100
1100
1000
0001
0100
0110
0000
,  // measure 43
0101
0000
1100
0010
0011
1000
0020
0100
,  // measure 44
0130
0001
1000
0010
1001
0000
0011
0010
,  // measure 45
1010
0000
0101
0000
1100
1000
1010
0010
,  // measure 46
0110
0100
0101
0001
1001
1000
1010
0000
,  // measure 47
0011
0010
0210
0000
1300
0010
0210
0000
,  // measure 48
0301
0010
0110
1000
0010
0000
0101
0001
,  // measure 49
0011
0000
0000
0000
1010
0000
0000
0000
1100
0000
0001
0010
0001
0000
0000
0000
,  // measure 50
1010
0000
0001
0000
0011
0000
1000
0100
1000
0000
0001
0000
0100
0000
0100
0000
,  // measure 51
0010
0000
0010
1000
0001
0000
0001
0000
1000
0010
1000
0000
0001
0010
0001
0010
,  // measure 52
0100
1000
0100
1000
0002
0000
1000
0000
1000
0000
0003
0000
1001
0000
0001
0000
,  // measure 53
0010
0200
1000
1300
0100
0010
0001
1000
,  // measure 54
0010
0200
0001
0301
1000
0100
0001
1000
,  // measure 55
0010
0002
1000
1003
0010
0100
0001
0100
,  // measure 56
1000
0002
0010
0013
1000
0001
1001
1000
,  // measure 57
0100
0020
0001
0031
0010
0100
1000
0001
,  // measure 58
0100
0000
0020
0000
1000
0000
1030
0000
0001
0000
0010
0000
0100
0000
1000
0001
,  // measure 59
0110
0000
0000
0000
1001
0000
0000
0000
0100
0000
0000
0100
0000
0000
0010
0000
1000
0000
0001
0000
0010
0000
0000
0000
1001
0000
0000
0000
1000
0000
0000
0000
,  // measure 60
1010
0010
0110
0000
0101
0001
1001
0000
,  // measure 61
1100
0011
0110
1001
,  // measure 62
0011
0010
0110
0000
1100
1000
1001
0000
,  // measure 63
0101
0000
1010
0000
0110
0000
0101
0100
,  // measure 64
1100
0100
0101
0000
1001
0010
0110
0000
,  // measure 65
1100
1010
0011
0101
,  // measure 66
1100
0000
0100
0000
0101
0000
0000
0000
1001
0000
0010
0000
0100
1000
0100
1000
,  // measure 67
0001
1000
0001
1000
0010
0000
0200
0000
0001
0000
0300
0000
1200
0000
0310
0001
,  // measure 68
0102
0000
0013
0100
1000
1000
0001
0001
0100
0010
1000
0010
0110
0000
0001
1000
,  // measure 69
2100
0000
3001
1000
2010
0000
3001
1000
0100
0010
0001
1000
2001
0000
3010
0100
,  // measure 70
0102
0000
1003
0001
0100
0100
0010
0010
0100
0001
0010
0100
2000
0000
3001
0100
,  // measure 71
0110
0000
1000
0000
0001
0000
0010
0000
0100
1000
0001
1000
0100
0000
0010
0000
0000
0000
0002
0000
0000
0000
0000
0000
0003
0000
0000
0000
0000
0000
0000
0000
;
