#VERSION:0.83;
#TITLE:Dua Dua Duuua;
#SUBTITLE:;
#ARTIST:COWCOW;
#TITLETRANSLIT:;
#SUBTITLETRANSLIT:;
#ARTISTTRANSLIT:;
#GENRE:;
#ORIGIN:;
#CREDIT:;
#BANNER:[Round 2] - Dua Dua Duuua.png;
#BACKGROUND:[Round 2] - Dua Dua Duuua-bg.png;
#PREVIEWVID:;
#JACKET:[Round 2] - Dua Dua Duuua-jacket.png;
#CDIMAGE:;
#DISCIMAGE:;
#LYRICSPATH:;
#CDTITLE:cdtitle.png;
#MUSIC:[Round 2] - Dua Dua Duuua.ogg;
#OFFSET:-0.200000;
#SAMPLESTART:14.380005;
#SAMPLELENGTH:12.800000;
#SELECTABLE:YES;
#BPMS:0.000=150.000;
#STOPS:3.500=1.200,
4.500=1.400,
5.000=0.800,
6.500=0.400,
53.500=0.400,
84.500=0.400,
147.500=0.400,
178.500=0.400,
193.500=0.400,
245.000=0.200,
245.500=0.200,
246.000=0.100,
246.250=0.100,
246.500=0.100,
246.750=0.100,
274.500=0.400,
289.500=0.400,
304.500=0.400;
#DELAYS:;
#WARPS:;
#TIMESIGNATURES:0.000=4=4;
#TICKCOUNTS:0.000=4;
#COMBOS:0.000=1;
#SPEEDS:0.000=1.000=0.000=0;
#SCROLLS:0.000=1.000;
#FAKES:;
#LABELS:0.000=Song Start;
#BGCHANGES:0.000=[Round 2] - Dua Dua Duuua-bg.png=1.000=0=0=1=====,
3.150=[Round 2] - Dua Dua Duuua.avi=1.000=1=0=1===CrossFade==,
308.000=[Round 2] - Dua Dua Duuua-bg.png=1.000=1=0=1===CrossFade==,
99999=-nosongbg-=1.000=0=0=0 // don't automatically add -songbackground-
;
#KEYSOUNDS:;
#ATTACKS:
;

//---------------dance-single - ----------------
#NOTEDATA:;
#CHARTNAME:C 02 X 02;
#STEPSTYPE:dance-single;
#DESCRIPTION:;
#CHARTSTYLE:;
#DIFFICULTY:Beginner;
#METER:2;
#RADARVALUES:0.077922,0.115909,0.022727,0.106061,0.000000,72.000000,69.000000,3.000000,14.000000,0.000000,0.000000,0.000000,0.000000,0.000000,0.077922,0.115909,0.022727,0.106061,0.000000,72.000000,69.000000,3.000000,14.000000,0.000000,0.000000,0.000000,0.000000,0.000000;
#CREDIT:vincentw;
#NOTES:
// measure 0
0000
0000
0000
0000
,  // measure 1
0000
0000
0000
0000
,  // measure 2
0000
0000
1000
0000
,  // measure 3
0000
0000
1000
0000
,  // measure 4
0000
0000
0001
0000
,  // measure 5
0000
0000
0000
0000
,  // measure 6
0001
0000
0001
0000
,  // measure 7
0000
0000
0000
0000
,  // measure 8
0100
0000
0100
0000
,  // measure 9
0000
0000
0000
0000
,  // measure 10
0010
0000
0010
0000
,  // measure 11
0000
0000
0000
0000
,  // measure 12
1000
0000
1000
0000
,  // measure 13
0000
0000
0000
0001
,  // measure 14
0000
0001
0000
0000
,  // measure 15
0000
0000
0000
0010
,  // measure 16
0000
0010
0000
0000
,  // measure 17
0000
0000
0000
0100
,  // measure 18
0000
0100
0000
0000
,  // measure 19
0000
0000
0000
1000
,  // measure 20
0000
1000
0000
0000
,  // measure 21
0000
0000
1001
0000
,  // measure 22
0002
0000
0000
0000
,  // measure 23
0000
0000
0003
0000
,  // measure 24
0000
0100
0000
0000
,  // measure 25
0000
0100
0000
0000
,  // measure 26
0002
0000
0000
0000
,  // measure 27
0000
0000
0003
0000
,  // measure 28
0000
0010
0000
0000
,  // measure 29
0000
0010
0000
0000
,  // measure 30
0200
0000
0000
0000
,  // measure 31
0000
0000
0300
0000
,  // measure 32
0000
1000
0000
0000
,  // measure 33
0000
1000
0000
0000
,  // measure 34
0020
0000
0000
0000
,  // measure 35
0000
0000
0000
0000
,  // measure 36
0030
0000
0000
0000
,  // measure 37
0220
0000
0330
1000
,  // measure 38
0000
0000
0000
2000
,  // measure 39
0000
3000
0000
0001
,  // measure 40
0000
0000
0000
0002
,  // measure 41
0000
0003
0000
0010
,  // measure 42
0000
0000
0000
0020
,  // measure 43
0000
0030
0000
0200
,  // measure 44
0000
0000
0000
0000
0000
0300
0000
0000
,  // measure 45
0100
0000
0000
0000
,  // measure 46
0000
0000
0000
0000
,  // measure 47
0000
0000
0000
0000
,  // measure 48
0000
0000
0000
0100
,  // measure 49
0000
0000
0000
1000
,  // measure 50
0000
0000
0000
0001
,  // measure 51
0000
0000
0000
1000
,  // measure 52
0000
0000
0000
0001
,  // measure 53
0000
0000
0000
0100
,  // measure 54
0000
0000
0000
0010
,  // measure 55
0000
0000
0000
0100
,  // measure 56
0000
0000
0000
0010
,  // measure 57
0000
0000
0000
1000
,  // measure 58
0000
0000
0000
0200
,  // measure 59
0000
0000
0000
0000
,  // measure 60
0000
0000
0000
0300
,  // measure 61
0000
0020
0000
0030
,  // measure 62
0000
0000
0000
0001
,  // measure 63
0000
0001
0000
0001
,  // measure 64
0000
0000
0000
1000
,  // measure 65
0000
1000
0000
1000
,  // measure 66
0000
0000
0000
0100
,  // measure 67
0000
0100
0000
0100
,  // measure 68
0000
0000
0000
0000
,  // measure 69
1000
0000
1000
0000
,  // measure 70
0000
0000
0001
0000
,  // measure 71
0000
0000
0100
0000
,  // measure 72
0000
0000
0000
0010
,  // measure 73
0000
0020
0000
0030
,  // measure 74
0000
0020
0000
0030
,  // measure 75
0000
1000
0000
0000
,  // measure 76
0000
0000
1001
0000
;

//---------------dance-single - ----------------
#NOTEDATA:;
#CHARTNAME:C 03 X 04;
#STEPSTYPE:dance-single;
#DESCRIPTION:;
#CHARTSTYLE:;
#DIFFICULTY:Easy;
#METER:3;
#RADARVALUES:0.186147,0.260795,0.121212,0.113636,0.000000,172.000000,156.000000,16.000000,15.000000,0.000000,0.000000,0.000000,0.000000,0.000000,0.186147,0.260795,0.121212,0.113636,0.000000,172.000000,156.000000,16.000000,15.000000,0.000000,0.000000,0.000000,0.000000,0.000000;
#CREDIT:vincentw;
#NOTES:
// measure 0
0000
0000
0000
0000
,  // measure 1
0000
0000
0000
1000
,  // measure 2
1000
0000
0001
0000
,  // measure 3
1000
0000
0001
0000
,  // measure 4
1000
0000
0000
0000
0100
0000
0000
0100
,  // measure 5
0000
0100
0000
0010
,  // measure 6
0010
0000
0002
0000
,  // measure 7
0000
0000
0003
0000
,  // measure 8
0001
0000
0020
0000
,  // measure 9
0000
0000
0030
0000
,  // measure 10
0010
0000
0200
0000
,  // measure 11
0000
0000
0300
0000
,  // measure 12
0100
0000
2000
0000
,  // measure 13
0000
0000
0000
3000
1000
0000
1000
0000
,  // measure 14
0000
0010
0000
0010
,  // measure 15
0000
0100
0000
0100
,  // measure 16
0000
0001
0000
0001
,  // measure 17
0000
1000
0000
1000
,  // measure 18
0000
0100
0000
0100
,  // measure 19
0000
0010
0000
0010
,  // measure 20
0000
0002
0000
0000
,  // measure 21
0000
0003
0001
0000
0001
0000
0000
0000
,  // measure 22
2000
0000
0010
0000
,  // measure 23
0001
0000
0100
0000
,  // measure 24
3000
0100
0100
0000
,  // measure 25
0000
0010
0010
0000
,  // measure 26
0002
0000
0010
0000
,  // measure 27
1000
0000
0100
0000
,  // measure 28
0003
0100
0100
0000
,  // measure 29
0000
0010
0010
0000
,  // measure 30
2000
0000
0100
0000
,  // measure 31
0001
0000
0010
0000
,  // measure 32
3000
0010
0010
0000
,  // measure 33
0000
0100
0100
0000
,  // measure 34
0002
0000
2000
0003
,  // measure 35
0200
3000
0020
0300
,  // measure 36
0031
0000
0001
0000
,  // measure 37
0220
0000
0330
1000
,  // measure 38
1000
0100
0000
0010
,  // measure 39
0000
0110
0000
0001
,  // measure 40
0001
0100
0000
0010
,  // measure 41
0000
0110
0000
0100
,  // measure 42
0100
0010
0000
1000
,  // measure 43
0000
1001
0000
0001
,  // measure 44
0001
1000
1000
0001
,  // measure 45
1000
0000
0010
0000
,  // measure 46
0010
0000
0100
0000
,  // measure 47
0100
0000
0001
0000
,  // measure 48
1000
1000
0001
1001
,  // measure 49
0000
0000
0000
1001
,  // measure 50
0000
0000
0000
1001
,  // measure 51
0000
0000
0000
0110
,  // measure 52
0000
0000
0000
0110
,  // measure 53
0000
0000
0000
1010
,  // measure 54
0000
0000
0000
1010
,  // measure 55
0000
0000
0000
0101
,  // measure 56
0000
0000
0000
0101
,  // measure 57
0000
1000
0000
1100
,  // measure 58
0000
0001
0000
0011
,  // measure 59
0000
2000
0000
0000
,  // measure 60
0000
0000
0000
3001
,  // measure 61
0000
0000
0001
0001
0001
0000
1000
0000
,  // measure 62
0000
0100
0000
1000
,  // measure 63
0100
1000
0100
1000
,  // measure 64
0000
0010
0000
1000
,  // measure 65
0010
1000
0010
0100
,  // measure 66
0000
0001
0000
0100
,  // measure 67
0001
0100
0001
0010
,  // measure 68
0000
0010
0000
0001
,  // measure 69
0001
0000
1000
0000
,  // measure 70
0010
0000
1000
0000
,  // measure 71
0010
0000
0100
0000
,  // measure 72
0001
0000
0100
0001
,  // measure 73
0000
0001
1000
0001
,  // measure 74
1000
0001
1000
0001
,  // measure 75
1000
0000
0010
0000
0000
0010
0000
0000
,  // measure 76
0010
0100
1001
0000
;

//---------------dance-single - ----------------
#NOTEDATA:;
#CHARTNAME:C 06 X 09;
#STEPSTYPE:dance-single;
#DESCRIPTION:;
#CHARTSTYLE:;
#DIFFICULTY:Medium;
#METER:6;
#RADARVALUES:0.359307,0.434659,0.333333,0.174242,0.000000,332.000000,288.000000,44.000000,23.000000,0.000000,0.000000,0.000000,0.000000,0.000000,0.359307,0.434659,0.333333,0.174242,0.000000,332.000000,288.000000,44.000000,23.000000,0.000000,0.000000,0.000000,0.000000,0.000000;
#CREDIT:vincentw;
#NOTES:
// measure 0
0000
0000
0000
0000
,  // measure 1
0000
0000
0000
1000
,  // measure 2
1001
0000
0001
1000
,  // measure 3
0001
1000
0001
1000
,  // measure 4
0001
0000
1000
0000
0010
0000
0000
0010
,  // measure 5
0000
0010
0000
0100
,  // measure 6
0110
0000
0001
0100
,  // measure 7
0010
1000
0001
0000
,  // measure 8
1001
0000
1000
0100
,  // measure 9
0010
0001
1000
0000
,  // measure 10
1001
0000
0001
0100
,  // measure 11
0001
0010
0100
0000
,  // measure 12
0110
0000
0010
0001
,  // measure 13
1000
0000
1000
0010
0010
0000
1010
0000
,  // measure 14
1000
1000
0100
0010
,  // measure 15
0001
0010
0100
0110
,  // measure 16
0000
1000
0010
0100
,  // measure 17
0001
0100
0010
0110
,  // measure 18
0000
1000
0001
0010
,  // measure 19
0100
0010
0001
0011
,  // measure 20
0000
0010
0001
0100
,  // measure 21
0100
0001
0001
0000
0101
0000
0100
0000
,  // measure 22
0001
0010
0001
0001
,  // measure 23
1000
0100
1000
1000
,  // measure 24
0001
1000
1001
0000
,  // measure 25
0100
0010
0110
0000
,  // measure 26
0001
0100
0001
0001
,  // measure 27
1000
0010
1000
1000
,  // measure 28
0001
0010
0011
0000
,  // measure 29
1000
0100
1100
0000
,  // measure 30
1000
0001
0100
0100
,  // measure 31
0010
0100
0001
0001
,  // measure 32
1000
0010
1010
0000
,  // measure 33
0001
0100
0101
0000
,  // measure 34
0001
0010
1000
0010
,  // measure 35
0001
0100
1000
0100
,  // measure 36
0001
0001
0000
0000
0100
0100
0000
0000
,  // measure 37
0220
0000
0330
0010
0100
0010
1000
0000
,  // measure 38
0100
0000
0001
0000
0100
0000
2000
0002
,  // measure 39
3000
0003
0200
0002
0300
0003
1000
0000
,  // measure 40
0010
0000
0001
0000
0010
0000
2000
0002
,  // measure 41
3000
0003
0020
0002
0030
0003
1000
0000
,  // measure 42
0100
0000
0001
0000
0010
0000
2000
0200
,  // measure 43
3000
0300
2000
0002
3000
0003
1000
0000
,  // measure 44
0010
0000
0001
0000
0100
1000
1100
0000
,  // measure 45
0011
0000
1001
0000
,  // measure 46
0000
0000
0000
0010
0110
0000
0000
0000
,  // measure 47
0000
0000
1010
0000
,  // measure 48
0000
0100
0001
0100
0101
0000
0010
1000
,  // measure 49
0010
1000
0001
0000
0001
0000
0011
0000
,  // measure 50
0001
1000
1000
1010
,  // measure 51
1000
0001
0001
0101
,  // measure 52
0001
1000
1000
1100
,  // measure 53
1000
0010
0010
0110
,  // measure 54
0010
0100
0100
0110
,  // measure 55
0100
0001
0001
1001
,  // measure 56
0001
1000
1000
1001
,  // measure 57
1000
0001
0010
0011
,  // measure 58
0001
1000
0010
1010
,  // measure 59
2000
0100
0100
0001
,  // measure 60
0001
0010
3010
2020
,  // measure 61
3030
0000
1010
1001
1100
0000
0100
0000
,  // measure 62
0010
0000
0001
0000
1000
0000
0100
0010
,  // measure 63
0001
1000
0002
2000
0003
3000
0010
0000
,  // measure 64
0100
0000
0001
0000
1000
0000
0010
0100
,  // measure 65
0001
1000
0002
2000
0003
3000
0001
0000
,  // measure 66
0010
0000
1000
0000
0010
0000
0001
0010
,  // measure 67
1000
0010
0002
0200
0003
0300
0001
0000
,  // measure 68
0010
0000
0001
0100
1000
0100
0001
0000
,  // measure 69
1001
1000
1010
0000
,  // measure 70
0000
0000
0000
0100
0101
0000
0000
0000
,  // measure 71
0000
0000
0011
0000
,  // measure 72
0000
0001
0001
0001
1000
0000
1100
0000
,  // measure 73
0100
0000
1000
1000
0010
0000
1000
0000
,  // measure 74
0010
0000
0100
0100
0001
0000
0100
0000
,  // measure 75
0001
0000
0010
0010
0000
0100
0100
0000
,  // measure 76
1000
0001
0110
0000
1001
0000
0000
0000
;

//---------------dance-single - ----------------
#NOTEDATA:;
#CHARTNAME:C 09 X 13;
#STEPSTYPE:dance-single;
#DESCRIPTION:;
#CHARTSTYLE:;
#DIFFICULTY:Hard;
#METER:9;
#RADARVALUES:0.586580,0.579545,0.250000,0.181818,0.022727,542.000000,508.000000,33.000000,24.000000,0.000000,1.000000,0.000000,0.000000,0.000000,0.586580,0.579545,0.250000,0.181818,0.022727,542.000000,508.000000,33.000000,24.000000,0.000000,1.000000,0.000000,0.000000,0.000000;
#CREDIT:vincentw;
#NOTES:
// measure 0
0000
0000
0000
0000
,  // measure 1
0000
0000
0000
0000
,  // measure 2
0000
0000
0000
0000
0001
0001
0100
0001
,  // measure 3
0100
0001
0100
0001
1000
1000
0010
1000
,  // measure 4
0010
1000
0010
1000
0001
0001
0000
1000
,  // measure 5
1000
0000
0010
0010
0000
0000
0100
0000
,  // measure 6
0001
1000
0010
0100
0001
0000
0100
0000
,  // measure 7
0001
1000
0010
1000
0002
0020
0003
0030
,  // measure 8
2000
0020
3000
0030
0001
0000
0010
0000
,  // measure 9
0001
1000
0100
1000
0002
0200
0003
0300
,  // measure 10
2000
0200
3000
0300
0001
0000
0001
0000
,  // measure 11
0100
0001
0010
0001
2000
0020
3000
0030
,  // measure 12
0200
0002
0300
0003
1000
0000
0100
0000
,  // measure 13
0001
0100
1000
0001
0101
0000
0101
0100
,  // measure 14
0100
0100
0001
0000
0001
0000
0010
0100
,  // measure 15
1000
0010
0100
0100
0010
1000
0001
1000
,  // measure 16
0001
0000
1000
0000
0010
0000
0000
0000
0010
0000
0000
0000
1000
0000
0001
0100
,  // measure 17
0001
1000
0100
0100
1000
0001
0010
0001
,  // measure 18
0010
0001
1000
0000
2000
0000
3010
0001
,  // measure 19
0010
1000
0001
0001
0100
0010
1000
0010
,  // measure 20
1000
0010
1000
1000
1000
0100
0001
0100
,  // measure 21
1000
0010
1010
0000
0101
0001
0001
0001
,  // measure 22
1000
0100
0010
0100
0001
0100
0010
0100
,  // measure 23
1000
0000
0001
2000
0000
0010
3010
0010
,  // measure 24
0100
0100
0001
1000
0010
1000
0010
1000
,  // measure 25
0100
0100
1000
0001
0010
0001
0010
0001
,  // measure 26
1000
0000
0010
0010
1000
0100
0010
0001
,  // measure 27
1000
0000
0100
2000
0000
0001
3001
0001
,  // measure 28
1000
1000
0010
0100
0001
0100
0001
0100
,  // measure 29
1000
1000
0100
0001
0010
0001
0010
0001
,  // measure 30
1000
0010
0100
0010
0001
0010
0100
0010
,  // measure 31
1000
0100
0010
0002
0000
0100
0103
0100
,  // measure 32
0010
0010
1000
0100
0001
0100
0001
0100
,  // measure 33
0010
0010
0001
0100
1000
0100
1000
0100
,  // measure 34
0001
0000
1000
0000
0100
0000
1000
0000
1000
0000
0001
0100
0001
0000
0010
0000
,  // measure 35
0010
0000
0100
1000
0100
0000
1000
0000
0010
0000
0001
0000
1000
0000
0100
0000
,  // measure 36
0001
0001
0100
0010
1000
1000
0100
0010
,  // measure 37
0220
0000
0000
0000
0330
0000
0100
0010
0001
0000
1000
0000
1001
0000
0000
0000
,  // measure 38
0001
0100
0010
2000
0000
3001
1000
1000
,  // measure 39
0001
0001
0100
0010
0100
0010
1000
0000
,  // measure 40
0001
0010
0001
0200
0000
0310
1000
1000
,  // measure 41
0010
0010
0100
0001
0100
0001
1000
0000
,  // measure 42
0001
0010
1000
0002
0000
0103
0010
0010
,  // measure 43
0001
0001
1000
0100
1000
0100
0010
0001
,  // measure 44
0100
1000
0001
0010
1000
0100
1100
0000
,  // measure 45
0011
0001
0001
0001
1000
1000
0010
0100
,  // measure 46
0001
0010
0100
0010
0100
1000
0010
0100
,  // measure 47
0001
0010
0001
0100
0001
0001
0001
1000
,  // measure 48
0010
1000
0001
0010
0101
0000
1010
0010
,  // measure 49
0010
0010
1000
0000
0100
0000
1100
0000
,  // measure 50
1000
0001
0100
0101
,  // measure 51
0001
1000
0010
1010
,  // measure 52
1000
0001
0010
0011
,  // measure 53
0001
0010
0100
0110
,  // measure 54
0010
0001
1000
1001
,  // measure 55
0001
1000
0010
0101
,  // measure 56
0001
0000
0000
0000
1000
0000
0000
0000
0100
0000
0000
0000
0011
0000
0000
0001
,  // measure 57
0010
0010
0001
0100
0101
0000
1000
0100
,  // measure 58
1100
0000
0010
0001
0011
0000
1000
0010
,  // measure 59
1010
0000
1000
0001
0010
0100
0001
1000
,  // measure 60
0010
0100
1000
0001
0100
0010
0100
0001
,  // measure 61
0001
0000
0001
0000
1000
0000
1100
0000
2202
3000
0300
0003
1000
0000
1000
0000
,  // measure 62
0010
0010
0100
0100
0001
0001
1000
0100
,  // measure 63
0001
1000
0001
0100
1000
0001
1000
1000
,  // measure 64
0100
0100
0010
0010
0001
0001
1000
0010
,  // measure 65
0001
1000
0001
0010
1000
0001
1000
1000
,  // measure 66
0010
0100
0001
0001
0010
0100
1000
0100
,  // measure 67
0001
1000
0010
0100
0010
0001
1000
0010
,  // measure 68
0001
1000
0100
0010
0100
0001
1001
0000
,  // measure 69
1001
1000
0010
0100
0001
0001
1000
1000
,  // measure 70
0100
0010
0100
0010
0001
0001
1000
1000
,  // measure 71
0010
0100
0010
0100
0001
0010
0100
0010
,  // measure 72
1000
0000
0010
0000
0001
0000
1000
0000
0101
0000
0000
0000
1010
0000
0000
0001
,  // measure 73
0100
0010
1000
1000
0100
0100
0001
0010
,  // measure 74
0001
0010
1000
1000
0010
0010
0001
0100
,  // measure 75
0001
0100
1000
1100
0000
0001
0011
0000
,  // measure 76
1000
1010
0110
0000
1001
0000
0000
0000
;
