#TITLE:Brand New World;
#SUBTITLE:;
#ARTIST:VENUS;
#TITLETRANSLIT:;
#SUBTITLETRANSLIT:;
#ARTISTTRANSLIT:;
#CREDIT:;
#BANNER:;
#BACKGROUND:;
#LYRICSPATH:;
#CDTITLE:;
#MUSIC:Brand New World.mp3;
#OFFSET:-6.890;
#SAMPLESTART:40.530;
#SAMPLELENGTH:12.220;
#SELECTABLE:YES;
#BPMS:0.000=157.000;
#STOPS:;
#BGCHANGES:;

//---------------dance-single - ----------------
#NOTES:
     dance-single:
     :
     Hard:
     8:
     0.583,0.589,0.468,0.182,0.407:
1000
0100
0000
0010
0000
0000
0001
0000
0000
0100
0000
0010
0000
0000
1000
0000
,
0000
0001
0000
0001
0000
0000
1000
0100
0000
0010
0000
0000
0000
0001
0000
0100
,
0000
0010
0000
0100
0000
0000
0001
0000
0000
1000
0000
0001
0000
0000
1000
0000
,
0000
1100
0000
1100
0000
0000
0000
0101
0000
0101
0000
0000
0000
1000
0001
0000
,
1000
0000
0100
0000
1000
0000
0001
0000
0100
0001
0000
0100
0000
0000
0010
0000
,
0100
0000
0010
1000
0001
0000
1001
0000
,
0100
0000
0010
0000
1000
0000
0100
0000
0010
0000
0000
0100
0000
0000
0010
0000
,
0001
1000
1001
0110
,
0001
0100
0010
1000
0100
1000
0100
0010
,
0001
0000
0000
1000
0000
0000
0100
0000
1000
0000
0000
0000
0001
0000
0000
0000
,
0010
0000
0000
0000
0100
0000
0010
0000
0001
0000
0000
1000
0000
0000
1002
0000
,
0000
0100
0103
0000
0110
0000
1001
0000
,
1100
0000
0000
0100
0000
0000
2000
0000
0000
0000
0001
0000
3001
0000
0100
0000
,
0010
0000
0000
0100
0000
0000
0001
0000
1000
0000
0000
0000
0010
0000
1000
0000
,
0100
0000
0000
0010
0000
0000
0002
0000
0000
0000
0100
0000
0103
0000
0010
0000
,
1000
0000
0000
0001
0000
0000
1000
0000
0100
0000
0000
0000
0010
0000
0000
0001
,
0100
0000
0000
0010
0000
0000
2001
0000
0000
0000
3100
0000
1000
0000
0010
0000
,
0100
0000
0000
0010
0000
0000
0100
0000
0010
0000
0100
0000
0001
0000
1000
0000
,
0100
0110
0000
0001
0100
0110
0000
1001
,
0000
0000
0010
0000
1000
0000
0001
0000
1001
0000
0000
1001
0000
0000
0000
0000
,
2001
0000
0000
0000
0100
0000
0000
0000
0001
0000
0000
3001
0000
0000
0000
0000
,
1002
0000
0000
0000
0100
0000
0000
0000
1000
0000
0000
1003
0000
0000
0000
0000
,
0101
0000
0001
1000
0100
0020
0000
0001
,
0000
0100
0000
0031
0000
0001
0100
0010
,
1000
0000
0001
0100
0010
1000
0100
0020
,
0000
0031
0100
0010
0100
0000
1001
0000
,
0101
0000
0000
0000
1000
0000
0100
0000
1000
0000
0001
0000
1000
0001
0000
0200
,
0000
0310
0100
0010
1000
0001
0100
0000
,
0001
0000
0000
0010
0000
0000
0002
0000
0000
0000
1003
0000
0100
0000
0010
0000
,
0100
1000
0001
0100
0010
0000
1100
0000
,
1001
0000
0001
0100
0010
2000
0000
0010
,
0000
0001
0000
3100
1000
0100
0010
0001
,
0100
0000
0000
0010
0000
0000
0100
0000
0001
0000
1000
0000
0100
0000
0020
0000
,
0000
0130
1000
0001
1000
0000
0110
0000
,
0001
1000
0010
0100
0010
1000
0001
0020
,
0000
0100
0000
0031
0010
0001
1000
0000
,
0001
0000
0000
1000
0000
0000
0001
0000
0100
0000
0010
0000
1000
0000
1100
0000
,
0000
0000
0011
0000
0000
1001
0000
0000
1010
0000
0000
1001
0000
0000
0110
0000
,
0101
0000
0000
0000
0001
0000
0010
0000
0010
0000
0000
0001
0000
0000
1000
0000
,
0001
0000
0000
0100
0000
0000
0010
0000
1000
0000
0100
0000
1000
0000
0000
0000
,
0001
0000
0000
0000
0100
0000
0001
1000
0001
0000
0000
0000
1000
0000
0000
0000
,
1100
0000
0000
0110
0000
0000
0012
0000
0000
0000
0000
0000
1003
0000
0000
0000
,
0110
0000
0000
0000
0100
0000
0001
1000
0001
0000
0000
0001
0000
0000
0100
0000
,
0010
0000
0000
1000
0000
0000
0100
0000
1000
0000
0000
0000
0001
1000
0001
1000
,
0001
0000
0000
0000
0100
0000
0010
0100
0010
0000
0000
0000
1000
0000
0000
0000
,
1100
0000
0000
0110
0000
0000
0011
0000
0000
0000
0000
0000
0110
0000
0000
0000
,
2002
0000
0000
0000
,
0000
0000
0000
0000
,
0000
0000
0000
0000
,
3003
0000
1000
0000
0000
0001
0000
0000
0100
0000
0010
0000
0100
0000
0001
1000
,
0001
0100
0001
0100
0010
1000
0010
1000
,
0100
0000
0010
0001
0000
0001
1000
0001
,
1000
0100
1000
0100
0010
0001
1000
0001
,
0000
0110
0000
1001
0000
1000
0100
1000
,
0001
0100
0001
1000
0100
0010
0001
0100
,
2000
0000
3200
0000
0301
0100
0010
1000
,
0100
0010
0001
0010
0100
0001
0100
1100
,
0000
0000
1001
0000
0000
0000
0101
0000
0000
0001
1000
0000
0100
0000
0010
0000
,
0200
0000
0000
0000
,
0000
0000
0010
0000
0000
0010
0000
0000
0010
0000
0000
0010
0000
0000
0310
0000
,
0010
0001
0000
0001
0000
0000
1000
0000
0000
0010
0000
0010
0000
0000
0100
0000
,
0000
0001
0000
0001
0000
0000
0000
0010
0000
0100
0000
0010
0000
0001
0000
0000
,
1000
0001
0000
1000
0000
0000
0001
0000
0000
0100
0000
0010
0000
0000
1000
0000
,
0000
0100
0000
0010
0000
0000
0000
0001
0000
1000
0100
0000
0010
0000
0001
0000
,
0100
0010
0000
1000
0000
0000
1010
0000
0000
0001
0000
0010
0000
0000
0011
0000
,
0000
1000
0000
0001
0000
0000
0010
0001
0000
0001
0000
0000
0000
0100
0000
0010
,
0000
1000
0000
0100
0000
0000
1100
0000
0000
0001
0000
0100
0000
0000
0101
0000
,
0000
1001
0000
1001
0000
0000
0000
0110
0000
0110
0000
0000
0000
0002
2000
0000
,
3003
0000
0000
0000
;

//---------------dance-single - ----------------
#NOTES:
     dance-single:
     :
     Medium:
     6:
     0.473,0.470,0.268,0.277,0.056: // measure 1
1000
0100
1000
0000
0001
0100
0010
0000
,  // measure 2
1000
0100
0010
0000
0001
0100
0010
0100
,  // measure 3
0010
0000
1000
0000
0001
0010
0100
0000
,  // measure 4
2002
0000
0000
3003
,  // measure 5
0001
0000
0100
0000
0001
0100
0010
0000
,  // measure 6
1000
0000
0100
0010
0000
0010
0100
0000
,  // measure 7
1000
0000
0000
0000
0001
0000
0100
0000
0001
0000
0000
0001
0000
0000
0002
0000
,  // measure 8
0000
1003
1001
1001
,  // measure 9
1000
0000
0010
0100
0010
0000
1000
0000
,  // measure 10
0001
0000
0100
0010
0000
0010
1000
0000
,  // measure 11
0001
0000
0000
0000
1000
0000
0000
0000
0100
0000
0000
0100
0000
0000
0200
0000
,  // measure 12
0000
0310
0110
1001
,  // measure 13
0101
0000
1000
0100
0000
1000
0001
0100
,  // measure 14
0001
1000
0100
0010
,  // measure 15
0100
0000
0010
0001
0000
0100
0010
1000
,  // measure 16
0010
1000
0001
1000
,  // measure 17
0100
0000
1000
0001
0000
1000
0100
0010
,  // measure 18
0001
0000
1000
0000
0001
0000
0100
0010
,  // measure 19
0100
0200
0000
0300
0010
0020
0000
1030
,  // measure 20
0000
0000
0001
0000
1000
0000
0001
0000
1000
0000
0000
1001
0000
0000
0000
0000
,  // measure 21
0220
0000
0000
0000
0030
0000
0000
0000
0010
0000
0000
0310
0000
0000
0000
0000
,  // measure 22
2002
0000
0000
0000
3000
0000
0000
0000
1000
0000
0000
1003
0000
0000
0000
0000
,  // measure 23
0011
0000
1000
0200
0000
0010
0000
0001
,  // measure 24
0000
0010
0000
1000
0000
0010
0310
0000
,  // measure 25
0001
0000
0100
0020
0000
1000
0000
0100
,  // measure 26
0000
0100
0130
0001
1000
0000
1001
0000
,  // measure 27
0001
0000
0010
0002
0000
0010
0000
1000
,  // measure 28
0000
0100
0000
1000
0000
0100
0103
0000
,  // measure 29
0010
0000
0000
0010
0000
0000
0020
0000
0000
0000
1030
0000
0100
0000
0010
0000
,  // measure 30
0000
0100
0010
0001
1000
0000
1001
0000
,  // measure 31
1000
0001
0100
0010
0000
0110
0000
1001
,  // measure 32
0000
1100
0000
0011
0000
0001
0100
0010
,  // measure 33
1000
0000
0000
1000
0000
0000
2000
0000
0000
0000
3100
0000
0010
0000
0001
0000
,  // measure 34
0000
0001
0100
0010
1000
0000
1001
0000
,  // measure 35
0001
0010
0001
0100
0000
0101
0000
1010
,  // measure 36
0000
1100
0000
0011
0000
0001
1000
0010
,  // measure 37
0100
0000
0010
1000
0000
1000
0100
0000
,  // measure 38
0010
0001
1000
0001
0000
0100
0010
1000
,  // measure 39
0001
0000
2000
0100
3100
0000
1000
0001
,  // measure 40
0100
0000
0000
0100
0000
0000
0100
0000
0010
0000
1000
0000
0001
0000
0000
0000
,  // measure 41
1000
0000
0200
0010
0310
0000
0100
0000
,  // measure 42
0010
0000
0000
0100
0000
0000
2002
0000
0000
0000
0000
0000
3003
0000
0000
0000
,  // measure 43
1000
0000
0002
0100
0103
0000
0010
0000
,  // measure 44
1000
0000
0000
1000
0000
0000
2000
0000
0000
0000
0000
0000
0001
0000
0001
0000
,  // measure 45
3001
0000
0200
0010
0310
0000
0100
0000
,  // measure 46
1001
0000
0000
1001
0000
0000
1001
0000
0000
0000
0000
0000
0110
0000
0000
0000
,  // measure 47
2002
0000
0000
0000
,  // measure 48
0000
0000
0000
0000
,  // measure 49
0000
0000
0000
0000
,  // measure 50
3003
0000
0000
0000
,  // measure 51
1000
0100
1000
0000
0001
0100
0001
0020
,  // measure 52
0000
0000
0130
0010
0000
0001
1000
0000
,  // measure 53
0010
0100
0001
0000
1000
0100
0010
0002
,  // measure 54
0000
0010
0000
1000
0000
0100
0103
0000
,  // measure 55
0010
1000
0001
0000
1000
0100
1000
0020
,  // measure 56
0000
0000
0130
0001
0000
0001
1000
0000
,  // measure 57
0010
1000
0100
0000
0010
0001
0100
0010
,  // measure 58
0000
0110
0000
2002
0000
0000
3003
0000
,  // measure 59
0200
0000
0000
0000
,  // measure 60
0300
0000
0001
0000
0000
0001
0000
0000
1000
0000
0000
1000
0000
0000
0001
0000
,  // measure 61
1000
0000
0100
0000
1000
0001
0100
0000
,  // measure 62
0010
0100
0001
0000
0010
0100
1000
0000
,  // measure 63
0001
0000
0010
0000
0001
0100
0001
0000
,  // measure 64
1000
0100
0010
0000
0001
0100
0010
1000
,  // measure 65
0001
0000
1000
0000
0100
1000
0001
0000
,  // measure 66
0100
0001
0010
0000
0100
0010
0001
0100
,  // measure 67
0010
0000
0100
0000
0010
1000
0001
0000
,  // measure 68
2002
0000
3003
0000
0100
0010
0000
1001
;

//---------------dance-single - ----------------
#NOTES:
     dance-single:
     :
     Easy:
     4:
     0.301,0.382,0.156,0.225,0.000: // measure 1
0100
0001
0100
0001
,  // measure 2
1000
0100
0010
0000
,  // measure 3
0001
0100
0010
1000
,  // measure 4
2002
0000
3003
0000
,  // measure 5
0001
0001
0100
0001
,  // measure 6
1000
0001
1001
0000
,  // measure 7
1000
0100
1000
1000
,  // measure 8
0001
0100
0110
0110
,  // measure 9
0010
0100
0001
1000
,  // measure 10
0001
1000
0100
0000
,  // measure 11
0010
0010
0001
0100
,  // measure 12
0001
0000
1001
1001
,  // measure 13
1000
0000
0100
0000
,  // measure 14
1000
0100
0020
0000
,  // measure 15
0031
0000
0100
0010
,  // measure 16
0100
0001
2000
0000
,  // measure 17
3001
0000
1000
0000
,  // measure 18
0010
0100
0002
0000
,  // measure 19
1003
0100
1000
0000
,  // measure 20
0001
0100
0220
0330
,  // measure 21
0001
0000
0000
0000
1000
0000
0000
0000
2002
0000
0000
3003
0000
0000
0000
0000
,  // measure 22
0100
0000
0000
0000
0010
0000
0000
0000
0220
0000
0000
0330
0000
0000
0000
0000
,  // measure 23
1000
0100
1000
0001
,  // measure 24
0100
0001
1000
0100
,  // measure 25
0020
0000
0001
0000
,  // measure 26
0130
0010
0001
0000
,  // measure 27
1000
0010
0100
0001
,  // measure 28
0100
0010
1000
0001
,  // measure 29
2000
0000
0010
0000
,  // measure 30
0001
0001
0002
3003
,  // measure 31
1000
0100
0010
0001
,  // measure 32
0100
0010
1000
0010
,  // measure 33
0200
0000
0001
0000
,  // measure 34
0310
1000
0001
0000
,  // measure 35
1000
0100
1000
0001
,  // measure 36
0010
0100
0010
0001
,  // measure 37
0200
0000
0010
0000
,  // measure 38
0301
0100
0010
1000
,  // measure 39
1001
0000
0001
0100
,  // measure 40
0001
0000
1000
0000
,  // measure 41
0100
0000
0010
0001
,  // measure 42
2002
0000
3003
0000
,  // measure 43
1001
0000
0001
0100
,  // measure 44
0001
1000
0100
1000
,  // measure 45
1001
0000
0010
0000
,  // measure 46
2002
0000
0000
3003
0000
0000
1001
0000
,  // measure 47
2002
0000
0000
0000
,  // measure 48
0000
0000
0000
0000
,  // measure 49
0000
0000
0000
0000
,  // measure 50
3003
0000
0000
0000
,  // measure 51
1000
0001
0100
0010
,  // measure 52
0100
0000
0010
0100
,  // measure 53
0010
1000
0001
1000
,  // measure 54
0100
0010
0001
0100
,  // measure 55
0010
1000
0001
0010
,  // measure 56
0001
0000
0010
0001
,  // measure 57
1000
0100
0010
0100
,  // measure 58
1000
0001
1000
0010
,  // measure 59
0220
0000
0000
0000
,  // measure 60
0330
0000
0000
0000
,  // measure 61
0100
0001
1000
0000
,  // measure 62
0001
1000
0100
0000
,  // measure 63
1000
0100
0010
0001
,  // measure 64
0100
0010
1000
0001
,  // measure 65
0100
0100
0010
0000
,  // measure 66
1000
1000
0001
0000
,  // measure 67
1000
0100
0010
0001
,  // measure 68
2002
0000
0000
0000
0000
0000
0000
3003
;

//---------------dance-single - ----------------
#NOTES:
     dance-single:
     :
     Beginner:
     1:
     0.145,0.174,0.069,0.000,0.000: // measure 1
0001
0000
0000
0000
,  // measure 2
0100
0000
0010
0000
,  // measure 3
0100
0000
0001
0000
,  // measure 4
1001
0000
0000
0000
,  // measure 5
1000
0000
0001
0000
,  // measure 6
0100
0000
0000
0000
,  // measure 7
0010
0000
1000
0000
,  // measure 8
0001
0000
0100
0100
,  // measure 9
0100
0000
0001
0000
,  // measure 10
1000
0000
0000
0000
,  // measure 11
0001
0000
0010
0000
,  // measure 12
0100
0000
0010
0010
,  // measure 13
0010
0000
0000
0000
,  // measure 14
0001
0000
1000
0000
,  // measure 15
0001
0000
0000
0000
,  // measure 16
0100
0000
0001
0000
,  // measure 17
0100
0000
0000
0000
,  // measure 18
0010
0000
1000
0000
,  // measure 19
0001
0000
1000
0000
,  // measure 20
0110
0000
0000
0000
,  // measure 21
1001
0000
0000
0000
,  // measure 22
0000
0000
0000
0000
,  // measure 23
1000
0000
0100
0000
,  // measure 24
1000
0000
0000
0000
,  // measure 25
0001
0000
0100
0000
,  // measure 26
0010
0000
0100
0000
,  // measure 27
0001
0000
1000
0000
,  // measure 28
0100
0000
0000
0000
,  // measure 29
0010
0000
0001
0000
,  // measure 30
1000
0000
0001
0000
,  // measure 31
1000
0000
0100
0000
,  // measure 32
0010
0000
0000
0000
,  // measure 33
0001
0000
0100
0000
,  // measure 34
0010
0000
1000
0000
,  // measure 35
0001
0000
1000
0000
,  // measure 36
0001
0000
1000
0000
,  // measure 37
0100
0000
0010
0000
,  // measure 38
0100
0000
1000
0000
,  // measure 39
1001
0000
0000
0000
,  // measure 40
0001
0000
0100
0000
,  // measure 41
0001
0000
0000
0000
,  // measure 42
1000
0000
0100
0000
,  // measure 43
1000
0000
0001
0000
,  // measure 44
1000
0000
0001
0000
,  // measure 45
1000
0000
0000
0000
,  // measure 46
1001
0000
0000
0000
,  // measure 47
1001
0000
0000
0000
,  // measure 48
0000
0000
0000
0000
,  // measure 49
0000
0000
0000
0000
,  // measure 50
0000
0000
0000
0000
,  // measure 51
1000
0000
0001
0000
,  // measure 52
1000
0000
0001
0000
,  // measure 53
0100
0000
0010
0000
,  // measure 54
0100
0000
0000
0000
,  // measure 55
0001
0000
1000
0000
,  // measure 56
0001
0000
0010
0000
,  // measure 57
0100
0000
0010
0000
,  // measure 58
0001
0000
1000
0000
,  // measure 59
1001
0000
0000
0000
,  // measure 60
0000
0000
0000
0000
,  // measure 61
1000
0000
1000
0000
,  // measure 62
0100
0000
0100
0000
,  // measure 63
0010
0000
0010
0000
,  // measure 64
0001
0000
0100
0100
,  // measure 65
0100
0000
0010
0000
,  // measure 66
0100
0000
0010
0000
,  // measure 67
1000
0000
0001
0000
,  // measure 68
1001
0000
0000
0000
;
