#TITLE:Alice in Mystic Garden;
#SUBTITLE:;
#ARTIST:DJ TOTTO;
#TITLETRANSLIT:;
#SUBTITLETRANSLIT:;
#ARTISTTRANSLIT:;
#GENRE:;
#CREDIT:;
#BANNER:[Round 2] - Alice in Mystic Garden.png;
#BACKGROUND:[Round 2] - Alice in Mystic Garden-bg.png;
#LYRICSPATH:;
#CDTITLE:;
#MUSIC:[Round 2] - Alice in Mystic Garden.ogg;
#OFFSET:-1.004999;
#SAMPLESTART:54.024998;
#SAMPLELENGTH:12.000000;
#SELECTABLE:YES;
#BPMS:0.000000=134.000000
;
#STOPS:
;
#BGCHANGES:;
#KEYSOUNDS:;
#ATTACKS:;

//---------------dance-single - ----------------
#NOTES:
     dance-single:
     :
     Hard:
     9:
     0.532197,0.620830,0.136490,0.040144,0.220793,464.000000,447.000000,17.000000,5.000000,0.000000,0.000000,0.532197,0.620830,0.136490,0.040144,0.220793,464.000000,447.000000,17.000000,5.000000,0.000000,0.000000:
// measure 0
0000
0000
0000
0000
,  // measure 1
0000
0000
0000
0000
,  // measure 2
0000
0000
0000
0000
,  // measure 3
1000
0100
0010
0100
0000
1000
0010
0000
,  // measure 4
0010
0100
0001
0010
0100
0000
0100
0010
,  // measure 5
0000
0010
0001
0100
1000
0100
0000
0000
,  // measure 6
0110
0000
0000
0000
0000
0000
1010
0000
0000
0000
1000
0010
0100
0000
0010
0000
,  // measure 7
0100
0001
1000
0100
0010
0000
0001
0010
,  // measure 8
0000
0000
0001
1000
0010
0000
0100
0000
0010
0000
0001
0000
0010
0000
1000
0000
,  // measure 9
0100
0000
0010
0000
0100
0000
1000
0000
0000
0000
0010
0100
0010
0000
0100
0000
,  // measure 10
0001
1000
0001
0010
0011
0000
0000
1100
,  // measure 11
0000
0100
0010
0100
1000
0001
0100
0010
,  // measure 12
0110
0000
0000
0000
0000
0000
1010
0000
0000
0000
0010
1000
0100
0000
0100
0000
,  // measure 13
0001
0100
0010
0001
0100
0000
0000
0110
,  // measure 14
0000
0000
1010
1000
0001
0100
1000
0100
,  // measure 15
0001
0000
1000
0100
0000
0010
0100
0010
,  // measure 16
0100
1000
0000
0010
0100
0001
0010
0100
,  // measure 17
0000
0010
0100
1000
0010
0100
1000
0100
,  // measure 18
0001
0000
0000
0001
0010
0000
0100
0000
0010
0000
0001
0000
0100
0000
0000
0100
,  // measure 19
0010
0000
1000
0000
0100
0000
0010
0000
0001
0000
0000
0001
0010
0000
0100
0000
,  // measure 20
0010
0000
0001
0000
1000
0000
0000
1000
0010
0000
0100
0000
1000
0000
0100
0000
,  // measure 21
0010
0000
0000
0010
0100
0000
0001
0000
1000
0000
0100
0000
0010
0000
0000
0010
,  // measure 22
0100
0000
0010
0000
0001
0000
1000
0000
0001
0000
0000
0001
1000
0000
0100
0000
,  // measure 23
0001
0000
0100
0000
0010
0000
0000
0010
0001
0000
0010
0000
0001
0000
0100
0000
,  // measure 24
0010
0000
0000
0010
0100
0000
0001
0000
0010
0000
0100
0000
1000
0000
0000
1000
,  // measure 25
0001
0000
0100
0000
0010
0000
1000
0000
0100
0000
0000
0100
0010
0000
0100
0000
,  // measure 26
0010
0000
0001
0000
1000
0000
0000
1000
0100
0000
1000
0000
0010
0000
0100
0000
,  // measure 27
0010
0000
0000
0010
0100
0000
0001
0000
0010
0000
0100
0000
0010
0000
0000
0010
,  // measure 28
0001
0100
0010
1000
0100
0000
0000
0110
,  // measure 29
0000
0000
0011
0000
0000
1001
0000
0000
,  // measure 30
1010
0000
1000
0000
0010
0000
0100
0000
0001
0000
0010
0100
1000
0000
0000
0000
,  // measure 31
0010
1000
0000
1000
0001
1000
0010
0100
,  // measure 32
0100
0000
0010
0100
0001
0000
0000
0000
0010
0000
0100
0000
0010
0000
0100
0000
,  // measure 33
1000
0000
0000
0000
0010
0100
0010
0000
0100
0000
0001
0000
0010
0000
0000
0000
,  // measure 34
0100
0010
0001
1000
0010
0000
0000
1010
,  // measure 35
0000
0000
0011
0001
1000
0001
0100
1000
,  // measure 36
0100
0010
0100
0000
0001
0000
0001
0000
1000
0000
0100
0000
0010
0000
1000
0000
,  // measure 37
0010
0100
1000
0010
0100
0000
0000
0110
,  // measure 38
0000
0000
0101
0001
0100
0001
1000
0100
,  // measure 39
0010
0001
0100
0000
0001
0000
0100
0000
1000
0000
0100
0000
0010
0000
1000
0000
,  // measure 40
0100
0000
0010
0000
0001
0000
0010
0000
0100
0000
0100
1000
0001
0000
0100
0000
,  // measure 41
0010
1000
0010
0000
0100
0000
0010
0100
0010
0000
0100
0000
0001
0010
0100
0000
,  // measure 42
1000
0000
0100
0010
0100
1000
0001
0000
,  // measure 43
0001
1000
0010
0000
0000
0000
0100
0000
1000
0000
0000
0000
1000
0000
0100
0000
,  // measure 44
0010
0100
0001
0000
0010
0100
1000
0001
,  // measure 45
0100
0000
0000
0000
0100
0000
0010
0000
0100
0000
0001
1000
0100
0000
0000
0000
,  // measure 46
1000
0100
0010
0000
0001
0000
0100
0000
0010
0000
0000
0000
0000
0000
0000
0000
,  // measure 47
0000
0000
0000
0000
0100
0010
0100
0000
0010
1000
0010
0000
1000
0000
0001
0000
,  // measure 48
0010
0100
1000
0010
0100
1000
0100
0001
,  // measure 49
0010
0000
1000
0000
0010
0000
0100
0000
0010
0000
0001
1000
0010
0000
0010
0000
,  // measure 50
0100
0001
0010
0000
0010
0100
0010
0001
,  // measure 51
2000
0100
3100
0200
0010
0310
0020
0001
,  // measure 52
0031
0002
0100
0103
0100
0001
0010
1000
,  // measure 53
0000
0000
1000
0000
0010
0000
0001
0010
0001
0000
0100
0000
0000
0000
0000
0000
,  // measure 54
0100
0001
0010
0100
1000
0000
0001
0000
1000
0000
0010
0000
0010
1000
0100
0000
,  // measure 55
0100
0010
0100
1000
0020
0000
0000
0000
,  // measure 56
0000
0000
0000
0030
,  // measure 57
0000
0000
0000
0000
,  // measure 58
0000
0000
0000
0000
0000
0000
0000
0000
1001
0000
1000
0001
0010
0000
0100
0000
,  // measure 59
0010
0001
0010
0000
0001
0000
0100
0010
1000
0100
1000
0000
0100
0000
0001
0000
,  // measure 60
0100
0000
0010
0100
0010
0000
0001
0000
1000
0010
1000
0000
0001
0000
0100
0010
,  // measure 61
0100
0010
1000
0000
0001
0000
0010
0000
0010
0000
0100
0010
0001
0000
1000
0000
,  // measure 62
0001
0010
0100
0000
1000
0000
1000
0010
0100
0010
0100
0000
1000
0000
0100
0000
,  // measure 63
0001
0000
1000
0000
1000
0000
0100
0000
0100
0000
0100
0000
0010
0100
0010
0100
,  // measure 64
1000
0100
0010
0001
0010
0001
0010
0001
0000
0000
0000
0000
0000
0000
0000
0000
;

//---------------dance-single - ----------------
#NOTES:
     dance-single:
     :
     Medium:
     6:
     0.414059,0.439755,0.144519,0.032115,0.116418,361.000000,343.000000,18.000000,4.000000,0.000000,0.000000,0.414059,0.439755,0.144519,0.032115,0.116418,361.000000,343.000000,18.000000,4.000000,0.000000,0.000000:
0000
0000
0000
0000
,
0000
0000
0000
0000
,
0000
0000
0000
0000
,
0011
0000
0000
0110
0000
0000
1100
0000
,
0000
1000
0001
0100
0010
0000
0000
1010
,
0000
0000
0110
0000
0000
0101
0000
0000
,
0100
0001
0010
0100
0000
0000
0110
0000
,
0000
1001
0000
0001
1000
0000
0100
0001
,
0000
0001
0100
0010
0001
1000
0000
0000
,
1010
0000
0000
0011
0000
0000
0101
0000
,
0100
0001
1000
0001
0100
0000
0000
0010
,
0000
0000
1000
0100
0010
0100
0010
0001
,
0100
0000
0010
1000
0000
1000
0010
0000
,
0100
0001
1000
0100
0010
0000
0100
1000
,
0010
0100
1000
0100
0001
0100
0010
1000
,
0100
0000
0010
0001
1000
0010
0100
0000
,
0100
0010
0000
0010
0100
0001
1000
0001
,
0010
0100
1000
0000
1000
0100
0010
0001
,
0010
0000
0000
0100
0010
0000
0000
0000
0010
0000
0100
0000
1000
0000
0000
1000
,
0010
0000
0000
0100
0000
0000
1000
0000
0100
0000
0000
0010
1000
0000
0000
0001
,
0000
0000
0010
0000
0100
0000
0000
0100
1000
0000
0000
0010
0000
0000
1000
0000
,
0100
0000
0000
0100
0010
0000
0000
0100
0000
0000
1000
0000
0010
0000
0000
0100
,
0001
0000
0000
0010
0000
0000
0010
0000
0100
0000
0000
0010
0001
0000
0000
1000
,
0000
0000
0010
0000
1000
0000
0000
0001
0010
0000
0000
0010
0000
0000
0001
0000
,
1000
0000
0000
0010
0100
0000
0000
0010
0000
0000
0100
0000
0001
0000
0000
1000
,
0100
0000
0000
0001
0000
0000
0100
0000
1000
0000
0000
1000
0100
0000
0000
1000
,
0000
0000
0010
0000
0100
0000
0000
0001
0100
0000
0000
0010
0000
0000
0100
0000
,
1000
0000
0000
0100
0010
0000
0000
0100
0000
0000
0001
0000
0010
0000
0000
0010
,
0100
0000
0000
0100
0000
0000
1000
0000
0010
0000
0000
0000
0000
0000
0100
0000
,
0000
0000
0001
0000
0000
0010
0100
0010
,
0100
0000
0010
0001
0000
1000
0010
0000
,
0100
0001
0000
1000
0100
0000
0010
0100
,
0000
0100
0001
0000
0100
1000
0100
0010
,
0001
0000
0100
0010
0000
0010
1000
0000
,
0001
0010
0000
0010
0100
0000
0000
0100
,
0000
0000
0100
1000
0100
0010
0100
0010
,
0001
1000
0010
0100
0000
0100
0010
0100
,
0001
1000
0100
0010
0011
0000
0000
1100
,
0000
0000
0100
1000
0100
0001
0100
0010
,
0002
0000
0000
2003
0000
0000
3020
0000
,
0000
0130
0010
0100
0001
0000
1000
0010
,
0100
0001
0010
1000
0001
0100
1000
0010
,
0100
0000
0000
0010
0000
0000
0100
0000
,
0000
1000
0000
0000
0100
0000
0000
0001
,
0000
0000
0010
0000
0000
0100
0000
0000
,
0010
0000
0000
0100
0000
0000
1000
0000
,
0000
0001
0000
0000
0100
0000
0000
0000
,
0000
0000
0001
1000
0001
1000
0001
0010
,
0100
0010
0001
0100
0010
0001
0010
0100
,
0010
1000
0001
1000
0100
0000
0000
0110
,
0000
0000
0101
0001
0100
0010
1000
0100
,
0010
0000
0000
0110
0000
0000
1001
0000
,
0000
1010
1000
0010
0100
0000
0100
0010
,
0000
0010
1000
0000
1000
0100
0000
0000
,
0010
0100
1000
0001
0100
1000
0100
0010
,
0100
0001
1000
0100
0020
0000
0000
0001
,
0000
0000
0100
0000
0000
1000
0030
0000
,
0010
0000
0000
0001
0000
0000
1000
0000
,
0000
0010
0000
0000
0100
0010
0010
1000
,
0100
0100
1000
0010
0100
0100
0010
1000
,
0100
0010
0010
0100
0001
0001
0100
0010
,
0001
1000
0010
0100
0010
0100
0100
0001
,
0100
0100
0001
0010
0001
1000
0100
0010
,
0001
0000
0000
0010
0000
0000
0100
0010
,
0100
0000
0100
0000
0010
0100
0010
0100
0000
0000
0000
0000
0000
0000
0000
0000
;

//---------------dance-single - ----------------
#NOTES:
     dance-single:
     :
     Easy:
     4:
     0.286744,0.310415,0.032115,0.000000,0.004014,250.000000,246.000000,4.000000,0.000000,0.000000,0.000000,0.286744,0.310415,0.032115,0.000000,0.004014,250.000000,246.000000,4.000000,0.000000,0.000000,0.000000:
0000
0000
0000
0000
,
0000
0000
0000
0000
,
0000
0000
0000
0000
,
1000
0000
0000
0100
0000
0000
0010
0000
,
0000
0100
0000
0100
0010
0000
0000
0001
,
0000
0000
1000
0000
1000
0010
0000
0000
,
0100
0000
0100
0010
0000
0000
0110
0000
,
0000
0010
0000
1000
0001
0000
0000
0010
,
0000
0000
0100
0010
0100
0010
0000
0000
,
0001
0000
0000
0100
0000
0000
0010
0000
,
0000
1000
0100
1000
0100
0000
0000
0010
,
0000
0000
0001
0100
0001
1000
0000
0000
,
0100
0000
0000
0010
0000
0000
0001
0000
,
0000
1000
0010
0100
0010
0000
0100
0001
,
0000
0000
0010
0000
0010
0100
0000
0000
,
1000
0000
1000
0100
0000
0100
0010
0000
,
0010
0001
0000
0001
0100
0000
0000
0100
,
0000
0000
0010
0000
0000
0010
0000
0000
,
1000
0100
0010
0001
,
1000
0010
0100
1000
,
0100
0010
0100
0001
,
0010
0100
0010
1000
,
0010
0001
1000
0010
,
1000
0100
0010
0001
,
0100
0010
0100
0001
,
0100
0010
1000
0100
,
0001
0100
0010
0001
,
1000
0010
0100
1000
,
0100
0000
0010
0000
0100
0000
0000
0010
,
0000
0000
1000
0000
0000
0001
0000
0010
,
0100
0000
0100
0010
0000
0010
0001
0000
,
0000
1000
0000
0000
0010
0000
0010
0100
,
0000
0100
0001
0000
0000
0010
0001
1000
,
0100
0000
0010
0100
0000
0100
1000
0000
,
1000
0010
0000
0010
0100
0000
0000
0010
,
0000
0000
0010
0100
0010
0100
0010
0100
,
0001
0000
0000
0010
0000
0000
0100
0000
,
0000
0010
0000
0000
0001
0000
1000
0010
,
0000
1000
0001
0000
0010
0100
1000
0100
,
0010
0000
0000
0100
0000
0000
1000
0000
,
0000
0010
0000
0100
0010
0000
0000
0100
,
0000
0000
0001
0000
0000
0010
0000
0000
,
0011
0000
0000
0001
0000
0000
0010
0000
,
0000
0001
0000
0000
1010
0000
0000
1000
,
0000
0000
0010
0000
0000
1000
0000
0000
,
0101
0000
0000
0001
0000
0000
0100
0000
,
0000
0001
0000
0000
0010
0000
0000
0000
,
0000
0000
0100
0000
1000
0100
0010
0001
,
0010
0000
0000
0100
0000
0000
1000
0000
,
0000
0010
0000
0000
0100
0000
0100
0010
,
0000
0010
1000
0000
0001
1000
0001
1000
,
0100
0000
0000
0010
0000
0000
0100
0000
,
0000
0010
0000
0000
0001
0000
0100
0010
,
0000
0010
1000
0000
1000
0100
0000
0000
,
0010
0000
0001
1000
0000
1000
0010
0000
,
0010
0100
0010
0100
0010
0000
0000
1000
,
0000
0000
0001
0000
0000
1000
0000
1000
,
0100
0000
0000
0010
0000
0000
0001
0000
,
0000
0100
0000
0000
0001
0010
0001
0010
,
0000
0000
0100
0000
0000
0010
0000
0000
,
0001
1000
0001
1000
0000
0000
0010
0000
,
0000
0100
0000
0000
0100
0010
0100
0010
,
0000
0000
0100
0000
0000
0001
0000
0000
,
1000
0000
1000
0100
1000
0100
0010
0000
,
0010
0000
0100
0000
0010
0000
0100
0010
0000
0000
0000
0000
0000
0000
0000
0000
;
