#VERSION:0.83;
#TITLE:You Carved Your Name;
#SUBTITLE:;
#ARTIST:Swingfly feat. Helena Gutarra;
#TITLETRANSLIT:;
#SUBTITLETRANSLIT:;
#ARTISTTRANSLIT:;
#GENRE:;
#ORIGIN:;
#CREDIT:;
#BANNER:You Carved Your Name.png;
#BACKGROUND:You Carved Your Name-bg.png;
#PREVIEWVID:;
#JACKET:You Carved Your Name-jacket.png;
#CDIMAGE:;
#DISCIMAGE:;
#LYRICSPATH:;
#CDTITLE:;
#MUSIC:You Carved Your Name.ogg;
#OFFSET:-0.217000;
#SAMPLESTART:34.651009;
#SAMPLELENGTH:12.000000;
#SELECTABLE:YES;
#DISPLAYBPM:135.000000:167.000000;
#BPMS:0.000=167.000,
286.000=150.000,
287.000=135.000;
#STOPS:;
#DELAYS:;
#WARPS:;
#TIMESIGNATURES:0.000=4=4;
#TICKCOUNTS:0.000=4;
#COMBOS:0.000=1;
#SPEEDS:0.000=1.000=0.000=0;
#SCROLLS:0.000=1.000;
#FAKES:;
#LABELS:0.000=Song Start;
#BGCHANGES:;
#KEYSOUNDS:;
#ATTACKS:
;

//---------------dance-single - ----------------
#NOTEDATA:;
#CHARTNAME:;
#STEPSTYPE:dance-single;
#DESCRIPTION:;
#CHARTSTYLE:;
#DIFFICULTY:Beginner;
#METER:1;
#RADARVALUES:0.140149,0.194409,0.036002,0.081004,0.000000,109.000000,105.000000,4.000000,9.000000,0.000000,0.000000,0.000000,0.000000,0.000000,0.140149,0.194409,0.036002,0.081004,0.000000,109.000000,105.000000,4.000000,9.000000,0.000000,0.000000,0.000000,0.000000,0.000000;
#CREDIT:;
#DISPLAYBPM:167.000000;
#NOTES:
0000
0000
0000
0000
,
0000
0000
0000
0000
,
0000
0000
0000
0000
,
0000
0000
0000
0000
,
0010
0000
0010
0000
,
0100
0000
0100
0000
,
0001
0000
1000
0000
,
0010
0000
1000
0000
,
0010
0000
0010
0000
,
0100
0000
0100
0000
,
0001
0000
0001
0000
,
0010
0000
0010
0000
,
1000
0000
1000
0000
,
0100
0000
0100
0000
,
1000
0000
1000
0000
,
0001
0000
0001
0000
,
0010
0000
0100
0000
,
0001
0000
1000
0000
,
0010
0000
1000
0000
,
0001
0000
0100
0000
,
0010
0000
1000
0000
,
0010
0000
0001
0000
,
1000
0000
0010
0000
,
0110
0000
0000
0000
,
1001
0000
0100
0000
,
0010
0000
1000
0000
,
0002
0000
0000
0000
,
0003
0000
0000
1000
,
1000
0000
0010
0000
,
1000
0000
0100
0000
,
2000
0000
0000
3000
,
0000
0000
0000
0000
,
0001
0000
0010
0000
,
0001
0000
0100
0000
,
0020
0000
0000
0000
,
0030
0000
0000
0100
,
0100
0000
0010
0000
,
1000
0000
0001
0000
,
2000
0000
0000
0000
,
3000
0000
0000
0000
,
0000
0010
0000
0000
,
0000
0100
0000
0000
,
0000
0001
0000
0000
,
0000
1000
0000
0000
,
0000
0100
0000
0000
,
0000
1000
0000
0000
,
0000
0010
0000
0000
,
0000
0100
0000
0000
,
0000
0010
0000
0010
,
0000
0100
0000
0100
,
0000
0001
0000
0001
,
0000
1000
0000
1000
,
0000
0010
0000
0010
,
0000
0100
0000
0100
,
0200
0000
0000
0000
,
0300
0000
0000
0000
,
0110
0000
0010
0000
,
1000
0000
0001
0000
,
0200
0000
0000
0000
,
0300
0000
0000
0010
,
0010
0000
1000
0000
,
0001
0000
0100
0000
,
0002
0000
0000
0000
,
0003
0000
0000
0000
,
1000
0000
0010
0000
,
1000
0000
0100
0000
,
0020
0000
0000
0000
,
0030
0000
0000
0001
,
0001
0000
0100
0000
,
0001
0000
1000
0000
,
0020
0000
0000
0000
,
0030
0000
0000
0000
,
0110
0000
0000
0000
;

//---------------dance-single - ----------------
#NOTEDATA:;
#CHARTNAME:;
#STEPSTYPE:dance-single;
#DESCRIPTION:;
#CHARTSTYLE:;
#DIFFICULTY:Easy;
#METER:4;
#RADARVALUES:0.281584,0.324015,0.027001,0.099005,0.000000,219.000000,216.000000,3.000000,11.000000,0.000000,0.000000,0.000000,0.000000,0.000000,0.281584,0.324015,0.027001,0.099005,0.000000,219.000000,216.000000,3.000000,11.000000,0.000000,0.000000,0.000000,0.000000,0.000000;
#CREDIT:;
#DISPLAYBPM:167.000000;
#NOTES:
0000
0000
0000
0000
,
0000
0000
0000
0000
,
0000
0000
0000
0000
,
0000
0000
0000
0000
,
0100
0010
0100
0010
,
0000
1000
0001
1000
,
0000
0001
0100
0001
,
0000
0100
0010
0100
,
0010
1000
0010
0000
,
0100
0001
0100
0000
,
0001
0010
0100
1000
,
0100
0010
0001
0000
,
0100
0001
1000
0000
,
0100
1000
0010
0000
,
1000
0000
0000
0010
0000
0000
0100
0000
,
0001
0100
0001
0000
,
1000
0100
0010
0000
,
0100
0010
0001
0000
,
0100
0001
0100
0000
,
0010
1000
0010
0000
,
0100
0001
0100
0001
,
1000
0100
0010
0000
,
0100
0010
0001
0000
,
0100
0010
1000
0000
,
1001
0100
0001
1000
,
0100
0010
0001
1000
,
0020
0100
0000
0100
,
0000
0100
0000
0130
,
0010
1000
0100
0010
,
0001
1000
0100
0010
,
0002
0010
0000
0013
,
0200
0010
0000
0310
,
0001
0100
0010
1000
,
0100
1000
0100
0010
,
0002
1000
0000
1000
,
0000
1000
0000
1003
,
0010
1000
0010
0100
,
0001
0010
0100
1000
,
0002
0100
0000
0100
,
0000
0100
0000
0103
,
0010
1000
0000
0010
,
0000
0100
0000
0001
,
0000
0010
0000
0001
,
0000
0100
0000
0001
,
0000
1000
0000
0100
,
0000
1000
0000
0010
,
0000
1000
0000
0010
,
0000
0100
0000
0001
,
0100
0001
1000
0100
,
0010
0100
1000
0010
,
0100
0001
1000
0100
,
0010
0100
1000
0001
,
0100
0001
0010
0100
,
1000
0010
0100
0001
,
2000
0001
0000
0001
,
0000
0001
0000
3001
,
1001
0100
0010
1000
,
0001
0100
0001
0010
,
0200
1000
0000
1000
,
0000
1000
0000
1300
,
0010
0100
0001
0010
,
0100
1000
0010
0100
,
0002
0100
0000
0103
,
0020
0100
0000
0130
,
0010
1000
0100
0010
,
0001
1000
0010
0100
,
0002
1000
0000
1000
,
0000
1000
0000
1003
,
0100
0010
0001
1000
,
0010
0100
0001
1000
,
0200
1000
0000
1000
,
0000
1000
0300
0100
,
0110
0000
0000
0000
;

//---------------dance-single - ----------------
#NOTEDATA:;
#CHARTNAME:;
#STEPSTYPE:dance-single;
#DESCRIPTION:;
#CHARTSTYLE:;
#DIFFICULTY:Medium;
#METER:6;
#RADARVALUES:0.351016,0.421219,0.018001,0.045002,0.000000,273.000000,271.000000,2.000000,5.000000,0.000000,0.000000,0.000000,0.000000,0.000000,0.351016,0.421219,0.018001,0.045002,0.000000,273.000000,271.000000,2.000000,5.000000,0.000000,0.000000,0.000000,0.000000,0.000000;
#CREDIT:;
#DISPLAYBPM:167.000000;
#NOTES:
0000
0000
0000
0000
,
0000
0000
0000
0000
,
0000
0000
0000
0000
,
0000
0000
0000
0000
,
1000
0001
1000
0100
,
0010
0100
1000
0010
,
0100
0001
0010
0100
,
0010
0000
0000
0001
0000
0100
0010
0000
,
1000
0000
0010
0100
0001
0000
1000
0000
,
0001
0000
0010
0100
1000
0000
0100
0000
,
0010
0000
0001
0100
0001
0000
0010
0000
,
0100
0000
1000
0100
0010
0000
0001
0000
,
0010
0100
1000
0000
0100
0000
0010
0000
,
0001
0100
0010
0000
1000
0000
0010
0000
,
0100
0001
0000
1000
0000
0000
0001
0000
,
1000
0001
0000
0100
0000
0010
0000
0000
,
1000
0010
0100
0000
0001
0000
0010
0000
,
0100
0010
0001
0000
0100
0000
0010
1000
,
0010
0000
0100
0001
0100
0000
0001
0000
,
0010
0100
0010
0000
0100
0000
1000
0100
,
1000
0000
0001
0000
0100
0000
0010
0100
,
0010
0000
1000
0000
0001
0000
0100
0001
,
0100
0000
0001
1000
0000
0100
1000
0000
,
0100
0010
0100
0000
0010
0100
0000
0000
,
0010
0000
0100
0000
0010
0000
0001
0100
,
0000
0000
0000
0001
0100
0000
0010
0000
,
1000
0000
0010
0100
0010
0000
1000
0000
,
0001
0000
0100
0001
0100
0000
0001
0000
,
1000
0000
0100
0000
0010
0000
0100
1000
,
0000
0000
0000
0000
0100
0000
1000
0020
,
0000
0000
0000
0000
0000
0000
0130
0002
,
0000
0000
0000
0003
,
1000
0000
0100
0000
0010
0000
0001
0100
,
0000
0000
0000
0001
1000
0000
0010
0000
,
0100
0000
0010
1000
0010
0000
0100
0000
,
0001
0000
0010
0100
0010
0000
0100
0000
,
1000
0000
0001
0000
0100
0000
0001
0010
,
0000
0000
0000
0000
0010
0000
0100
0010
,
0001
0100
0010
1000
,
0100
0010
0001
0100
0010
1000
0010
0000
,
0000
0100
0000
0001
,
0000
1000
0000
0100
,
0000
0010
0000
0001
,
0000
0100
0000
0010
,
0000
1000
0000
0010
,
0000
0100
0000
0001
,
0000
1000
0000
0100
,
0000
0010
0000
0001
,
1000
0001
0100
0010
,
1000
0010
0100
0001
,
0010
0100
0010
0001
,
1000
0010
0100
0010
,
1000
0001
0100
0001
,
0010
0100
0010
0001
,
1000
0001
0100
0010
,
0000
1000
0001
0100
,
1001
0000
0100
0000
0010
0000
1000
0010
,
0000
0000
0000
0100
0001
0000
1000
0000
,
0100
0000
0010
0100
0010
0000
0001
0000
,
0100
0000
0010
1000
0010
0000
0100
0000
,
0010
0000
1000
0000
0001
0000
0100
0001
,
0000
0000
0000
0000
0010
0000
0001
0200
,
0000
0000
0000
0000
0000
0000
0310
2000
,
0000
0000
0000
3000
,
0001
0000
1000
0000
0010
0000
0100
0001
,
0000
0000
0000
0100
0001
0000
1000
0000
,
0010
0000
1000
0100
0010
0000
0100
0000
,
1000
0000
0010
0100
0001
0000
0100
0000
,
0010
0000
1000
0000
0001
0000
0010
0001
,
0000
0000
0000
0000
0100
0000
0010
2000
,
0000
0000
0000
0000
,
3001
1000
0001
1000
0001
1000
0001
1000
,
1001
0000
0000
0000
;

//---------------dance-single - ----------------
#NOTEDATA:;
#CHARTNAME:;
#STEPSTYPE:dance-single;
#DESCRIPTION:;
#CHARTSTYLE:;
#DIFFICULTY:Hard;
#METER:8;
#RADARVALUES:0.554168,0.589302,0.117005,0.171008,0.004500,431.000000,418.000000,13.000000,19.000000,0.000000,0.000000,0.000000,0.000000,0.000000,0.554168,0.589302,0.117005,0.171008,0.004500,431.000000,418.000000,13.000000,19.000000,0.000000,0.000000,0.000000,0.000000,0.000000;
#CREDIT:;
#DISPLAYBPM:167.000000;
#NOTES:
// measure 0
0000
0000
0000
0000
,  // measure 1
0000
0000
0000
0000
,  // measure 2
0000
0000
0000
0000
,  // measure 3
0000
0000
0000
0000
,  // measure 4
0001
0001
1000
1000
0010
0010
0100
0100
,  // measure 5
0001
0001
0100
0100
0010
0010
1000
1000
,  // measure 6
0100
0100
0010
0010
0001
0001
1000
1000
,  // measure 7
0010
1000
0000
0010
1000
0010
0100
0001
,  // measure 8
0010
0001
1000
0100
0010
0000
0100
0010
,  // measure 9
0001
0100
0010
1000
0010
0000
1000
0010
,  // measure 10
0100
0001
0010
0001
0100
0001
0010
0100
,  // measure 11
1000
0100
0010
0001
1000
0000
0010
1000
,  // measure 12
0010
0100
0001
0010
0001
0000
0010
0100
,  // measure 13
1000
0100
0010
0001
1000
0001
0100
0001
,  // measure 14
1000
0010
0000
1010
0000
0000
0010
1000
,  // measure 15
0001
0100
0001
0100
0000
0101
0000
0000
,  // measure 16
0001
0100
0001
1000
0100
0000
0010
0100
,  // measure 17
1000
0010
0100
0001
1000
0000
0001
0100
,  // measure 18
0010
0000
1000
0100
0010
0000
0001
0010
,  // measure 19
0100
1000
0010
1000
0010
0000
0100
0010
,  // measure 20
1000
0001
0100
0001
0010
0010
0100
1000
,  // measure 21
0001
0100
0010
1000
0010
0010
0100
0001
,  // measure 22
0010
0100
1000
0100
0000
0010
0100
1000
,  // measure 23
0001
0100
0010
1000
0010
0100
0000
0000
,  // measure 24
0120
0000
1030
0010
0100
0000
0001
1000
,  // measure 25
0000
0001
0000
0010
0100
0000
1000
0100
,  // measure 26
0020
0000
0031
0010
0001
0100
0010
1000
,  // measure 27
0000
0000
0010
1000
0010
0100
0010
0000
,  // measure 28
0102
0000
0103
0010
1000
0000
0001
0010
,  // measure 29
0000
0100
0000
1000
0100
0000
0010
0002
,  // measure 30
1000
0000
0010
0000
0100
0000
0013
0200
,  // measure 31
1000
0310
0100
1000
,  // measure 32
1002
0000
0013
0100
1000
0000
0100
0010
,  // measure 33
0000
0001
0000
1000
0010
0000
0100
0010
,  // measure 34
2000
0000
3010
1000
0001
0100
0001
0010
,  // measure 35
0000
0000
0100
0010
0001
1000
0001
0000
,  // measure 36
1020
0000
1030
0010
0100
0000
0001
0010
,  // measure 37
0000
0100
0000
1000
0100
0000
0010
0001
,  // measure 38
0100
0010
1000
0100
0010
0001
0100
0010
,  // measure 39
1000
0010
0100
0001
0010
0100
1000
0000
,  // measure 40
1001
0000
0000
0000
0000
1000
0010
0100
,  // measure 41
0001
1000
0000
0001
0000
0010
0000
0200
,  // measure 42
0000
0000
0000
0000
0000
1300
0100
0010
,  // measure 43
0001
1000
0000
0010
0000
0100
0000
0002
,  // measure 44
0000
0000
1003
0002
0000
0000
0103
0010
,  // measure 45
1000
0000
0010
0100
0000
0001
0000
1000
,  // measure 46
0010
0000
1000
0000
0010
0000
0100
0000
0000
0000
0001
0000
0010
0000
0100
0010
,  // measure 47
0100
0000
1001
0000
1000
0010
0100
0000
,  // measure 48
0010
0000
1000
0010
0000
0100
0001
1000
,  // measure 49
0100
0000
0010
0100
0000
1000
0100
0010
,  // measure 50
0001
0000
1000
0010
0000
0100
0010
1000
,  // measure 51
0001
0000
0100
0001
0000
1000
0100
0010
,  // measure 52
0001
0000
1000
0010
0000
0100
0010
1000
,  // measure 53
0001
0000
1000
0001
0000
1000
0100
0010
,  // measure 54
0100
1000
0001
0010
0100
1000
0010
1000
,  // measure 55
0001
1000
0010
0100
0001
0100
0010
1000
,  // measure 56
1002
0000
0103
0010
1000
0000
0010
0100
,  // measure 57
0000
0001
0000
0010
0100
0000
1000
0100
,  // measure 58
0010
0000
0100
0010
0001
0100
0010
1000
,  // measure 59
0000
0000
0010
1000
0001
0100
0001
0000
,  // measure 60
2001
0000
3100
0010
0001
0000
0100
0010
,  // measure 61
0000
1000
0000
0010
0100
0000
0001
2000
,  // measure 62
0100
0000
0010
0000
0001
0000
3010
0200
,  // measure 63
0010
0301
1000
0001
,  // measure 64
0021
0000
0130
1000
0001
0000
0100
0010
,  // measure 65
0000
0100
0000
0001
1000
0000
0010
1000
,  // measure 66
0100
0000
0010
0100
0010
0001
0100
0010
,  // measure 67
0000
0000
0100
0001
1000
0010
1000
0000
,  // measure 68
2010
0000
3100
0010
0001
0000
0010
0100
,  // measure 69
0000
1000
0000
0001
0100
0000
0010
1000
,  // measure 70
0100
1000
0001
1000
0010
0100
0001
0010
,  // measure 71
0100
0010
0001
1000
0010
0100
0001
1000
,  // measure 72
2002
0000
0000
3003
;
