#TITLE:Violent;
#SUBTITLE:;
#ARTIST:The Faint;
#TITLETRANSLIT:;
#SUBTITLETRANSLIT:;
#ARTISTTRANSLIT:;
#CREDIT:;
#BANNER:Violent-bn.png;
#BACKGROUND:Violent-bg.png;
#LYRICSPATH:;
#CDTITLE:;
#MUSIC:Violent.ogg;
#OFFSET:-0.018;
#SAMPLESTART:61.000;
#SAMPLELENGTH:13.500;
#SELECTABLE:YES;
#BPMS:0.000=71.000,32.000=70.900,51.250=141.800,52.000=70.900,64.000=141.800,80.000=283.600,108.000=567.196,112.000=283.601,144.000=141.800,150.000=70.900,152.000=141.800,153.000=70.900,169.000=141.800,233.000=283.600,261.000=567.196,265.000=283.600,297.000=141.800;
#STOPS:51.250=0.360
,108.000=0.200
,110.000=0.200
,149.000=0.440
,149.500=0.440
,151.750=0.380
,152.000=0.320
,152.750=0.560
,261.000=0.220
,263.000=0.200
;
#BGCHANGES:0.000=Violent-bg.png=1.000=0=0=1,
99999=-nosongbg-=1.000=0=0=0 // don't automatically add -songbackground-
;

//---------------dance-single - I tried.----------------
#NOTES:
     dance-single:
     I tried.:
     Hard:
     12:
     0.552,0.830,0.058,0.425,0.425: // measure 1
0000
0000
0000
0000
0000
0000
0000
0000
0000
0000
0000
0000
0000
0000
0001
1000
0000
0000
0000
0000
0000
0000
0000
0000
0000
0000
0000
0000
0000
0000
0000
0000
,  // measure 2
1000
0000
0000
0000
0000
0000
0000
0000
0000
0000
0000
0000
0000
0000
0001
1000
0000
0000
0000
0000
0000
0000
0000
0000
0000
0000
0000
0000
0000
0000
0000
0000
,  // measure 3
1000
0000
0001
1000
0000
0200
0000
1300
0100
0000
0010
0002
0000
0000
0003
0000
,  // measure 4
0011
0000
0001
0020
0030
0000
0001
0010
0000
0200
0000
0300
1000
0002
0000
0100
,  // measure 5
0103
0000
0001
0000
0020
0000
0031
0001
0000
1000
0000
0200
0000
0300
0000
2000
,  // measure 6
0010
00M0
0010
30M0
0010
0100
00M0
0100
0010
0000
1000
0000
0001
0000
0010
0100
,  // measure 7
1000
0000
0010
0000
0100
0000
0001
0010
0000
0020
0000
0001
0000
0000
0030
0010
,  // measure 8
0100
0000
0001
0000
0100
0000
1000
0001
0000
0000
0100
1000
0000
0200
0000
0300
,  // measure 9
0010
0000
0000
0100
0000
0000
1000
0000
0000
0000
0000
0000
0001
0000
0000
0000
0010
0000
0000
0000
1000
0000
0000
0000
0100
0000
0000
1000
0000
0000
0010
0000
0000
0000
0000
0000
0100
0000
0000
0200
0000
0000
0000
0000
0000
0000
0000
0000
,  // measure 10
0301
0000
0010
0000
0001
0000
0000
0000
0010
0000
0001
0000
0010
0000
0000
0000
1000
0100
0010
0001
0010
0100
1000
0100
0010
0000
0001
0000
0001
0000
0010
0000
,  // measure 11
0100
0000
0000
1000
0000
0000
0010
0000
0000
0000
0000
0000
0100
0000
0000
0000
0100
0000
0000
0000
0100
0000
0000
0000
0100
0000
0000
0010
0000
0000
1000
0000
0000
0000
0000
0000
0001
0000
0000
0002
0000
0000
0000
0000
0000
0010
0000
0000
,  // measure 12
0010
0000
0000
0000
1003
0000
0000
0000
0100
0000
0000
0000
0010
0000
0100
0000
0000
0000
0000
0000
1000
0000
0000
0000
0100
0000
1000
0000
0100
1000
0100
1000
,  // measure 13
0100
0000
1000
0000
0010
0000
0100
0001
0010
0000
0200
0000
0000
0000
1300
0000
1000
0000
0100
0000
1000
0000
0000
0000
1000
0000
0200
0000
1000
0000
0000
0000
,  // measure 14
1300
1000
0100
0000
0010
0100
0000
0100
1000
0100
0001
0000
0001
0100
1000
0010
,  // measure 15
0100
0001
0010
0000
0100
1000
0000
0010
0000
0100
0000
0001
0010
0001
0010
0000
,  // measure 16
0001
0000
0010
0002
0000
0000
0100
0000
1000
0000
0010
0000
0023
0000
0031
0100
,  // measure 17
M2MM
0000
M0MM
0000
M3MM
0001
0010
M2MM
,  // measure 18
0000
0000
0000
0000
0000
0000
0000
0000
00MM
0000
0000
0000
0000
0000
0000
0000
2000
3000
0000
0000
0000
0000
0000
0000
03MM
0000
0000
0000
0000
0000
0000
0000
0000
0000
0000
0000
0000
0000
0000
0000
1000
0000
0000
0000
0000
0000
0000
0000
0010
0000
0000
0000
0000
0000
0000
0000
M2MM
0000
0000
0000
0000
0000
0000
0000
,  // measure 19
0000
0000
0000
0000
0000
0000
0000
0000
M0M0
0000
0000
0000
0000
0000
0000
0000
0002
0003
0000
0000
0000
0000
0000
0000
M3M0
0000
0000
0000
0000
0000
0000
0000
0000
0000
0000
0000
0000
0000
0000
0000
0001
0000
0000
0000
0000
0000
0000
0000
1000
0000
0000
0000
0000
0000
0000
0000
MM2M
0000
0000
0000
0000
0000
0000
0000
,  // measure 20
0000
0000
0000
0000
0000
0000
0000
0000
M00M
0000
0000
0000
0000
0000
0000
0000
0200
0300
0000
0000
0000
0000
0000
0000
M00M
0000
0000
0000
0000
0000
0000
0000
0000
0000
0000
0000
0000
0000
0000
0000
0000
0000
0000
0000
0000
0000
0000
0000
2000
3000
0000
0000
0000
0000
0000
0000
0000
0000
0000
0000
0000
0000
0000
0000
,  // measure 21
1030
0000
0100
0000
,  // measure 22
1000
0000
0000
0100
1000
0010
1000
0100
,  // measure 23
0010
0000
0001
0000
,  // measure 24
0010
0000
0000
0001
0010
0100
1000
0010
,  // measure 25
0001
0000
0010
0000
,  // measure 26
1000
0000
0000
0100
1000
0100
0010
0001
,  // measure 27
0020
0000
0000
0030
,  // measure 28
2MM2
3003
0000
0000
0000
0000
0000
0000
0000
0000
0000
0000
0000
0000
0000
0000
MMMM
0000
0000
0000
0000
0000
0000
0000
0000
0000
0000
0000
0000
0000
0000
0000
2MM2
3003
0000
0000
0000
0000
0000
0000
0000
0000
0000
0000
0000
0000
0000
0000
MMMM
0000
0000
0000
0000
0000
0000
0000
0000
0000
0000
0000
0000
0000
0000
0000
,  // measure 29
0001
0000
0000
0001
1000
0000
0000
1000
,  // measure 30
0001
0000
0000
0001
0010
0100
1000
0100
,  // measure 31
1000
0000
0000
1000
0100
0000
0000
0100
,  // measure 32
0010
0000
0000
0010
0001
0010
0100
1000
,  // measure 33
0020
0000
0000
0030
,  // measure 34
1000
0001
1000
0000
1000
0010
1000
0000
,  // measure 35
0200
0000
0300
0010
,  // measure 36
0020
0130
0200
1300
,  // measure 37
1000
0100
2000
0010
00M0
0010
30M0
0010
,  // measure 38
1000
0000
0000
0000
0001
0000
0010
0000
0001
0000
0000
0010
0000
0000
0100
1000
,  // measure 39
0001
1000
0000
0200
1300
0010
0000
0100
0000
0001
0000
0010
0001
0010
0000
1000
,  // measure 40
0000
0010
0000
0100
1000
0010
0000
0100
0000
0001
0000
0010
0100
1000
0000
0001
,  // measure 41
0000
0100
0000
0010
0100
0001
0000
0100
0000
1000
0000
0001
0010
1000
0000
0001
,  // measure 42
0000
0010
0000
0001
0010
1000
0000
0001
0000
0100
0000
1000
0001
0100
0000
0001
,  // measure 43
0000
0100
0000
0010
1000
0000
0100
0000
0010
0000
0100
0000
0000
0000
0001
0000
,  // measure 44
0100
0001
0100
1000
0001
0000
0100
0010
,  // measure 45
0100
0010
2000
3000
2000
3000
2000
3000
,  // measure 46
0000
1000
0000
0000
0010
0000
0010
0200
,  // measure 47
0000
0310
0010
0010
1000
0000
0001
0000
,  // measure 48
0020
0100
0M00
0100
0M30
0100
1000
0100
,  // measure 49
1000
1000
2000
0000
3010
0000
0001
0020
,  // measure 50
0000
1030
0000
0000
0100
0001
0000
0100
,  // measure 51
1000
0100
1000
0100
1000
0000
0000
0000
0100
0000
0001
0000
0001
0000
0001
0000
,  // measure 52
0100
2000
0000
3000
1000
0200
0000
0300
,  // measure 53
0000
1000
0001
0000
0100
0000
0001
0002
,  // measure 54
0000
0023
0000
0000
0130
0000
1000
0100
,  // measure 55
0010
0100
0010
0100
0010
0000
0000
0000
0200
0000
1000
0000
0000
0000
0300
0000
,  // measure 56
0100
0020
0000
0000
0031
0020
0001
0001
,  // measure 57
0031
0000
0001
0000
0001
0020
0000
0030
,  // measure 58
0100
2000
0000
3000
0100
0020
0030
2002
,  // measure 59
0000
3003
0001
1000
0001
0100
0010
0000
,  // measure 60
0010
0100
0010
0100
0001
0010
0100
0000
,  // measure 61
0000
0000
1000
0100
0010
0100
1000
0000
,  // measure 62
1000
0100
0010
0001
0010
0001
0010
0000
,  // measure 63
0000
0000
0001
0010
0100
0010
0100
0000
,  // measure 64
0100
1000
0010
0100
0001
0010
0100
0000
,  // measure 65
0100
1000
0100
1000
0010
0100
0001
0000
,  // measure 66
0000
0000
0000
0000
0000
0000
0000
0000
0000
0000
0000
0000
0000
0000
0000
0000
2MM2
3003
0000
0000
0000
0000
0000
0000
0000
0000
0000
0000
0000
0000
0000
0000
MMMM
0000
0000
0000
0000
0000
0000
0000
0000
0000
0000
0000
0000
0000
0000
0000
2MM2
3003
0000
0000
0000
0000
0000
0000
0000
0000
0000
0000
0000
0000
0000
0000
,  // measure 67
MMMM
0000
0001
0010
0100
1000
0010
0000
,  // measure 68
0010
0100
0001
1000
0100
0010
0002
0000
,  // measure 69
0003
0000
0001
0010
0100
1000
0100
0000
,  // measure 70
0100
0010
0001
0010
0100
1000
0100
0000
,  // measure 71
0000
0000
100M
0100
M010
0001
0M10
0000
,  // measure 72
0M01
1000
0M01
0010
010M
1000
010M
0000
,  // measure 73
100M
0100
100M
0100
M010
0100
M010
0100
,  // measure 74
00M1
0100
10M0
0100
00M1
0100
1000
0000
,  // measure 75
MMMM
0000
0000
0000
0000
0000
0000
0000
0000
0000
0000
0000
0000
0000
0000
0000
0000
0000
0000
0000
0000
0000
0000
0000
0000
0000
0000
0000
0000
0000
0000
0000
0000
0000
0000
0000
0000
0000
0000
0000
0000
0000
0000
0000
0000
0000
0000
0000
11MM
0000
0000
0000
0000
0000
0000
0000
0000
0000
0000
0000
0000
0000
0000
0000
00MM
0000
0000
0000
0000
0000
0000
0000
0000
0000
0000
0000
0000
0000
11MM
0000
0000
0000
0000
0000
0000
0000
0000
0000
0000
0000
0000
0000
0000
0000
0000
0000
0000
0000
0000
0000
0000
0000
0000
0000
0000
0000
0000
0000
0000
0000
0000
0000
0000
0000
0000
0000
0000
0000
0000
0000
0000
0000
0000
0000
0000
0000
0000
0000
0000
0000
0000
0000
0000
0000
0000
0000
0000
0000
0000
0000
0000
0000
0000
0000
0000
0000
0000
0000
0000
0000
0000
0000
0000
0000
0000
0000
0000
0000
0000
0000
0000
0000
0000
0000
0000
0000
0000
0000
0000
0000
0000
0000
0000
0000
0000
0000
0000
0000
0000
0000
0000
0000
0000
0000
0000
0000
0000
0000
0000
0000
0000
0000
;

//---------------dance-single - Literal garbage. You----------------
#NOTES:
     dance-single:
     Literal garbage. You:
     Medium:
     10:
     0.665,0.910,0.050,0.065,0.504:
0000
0000
0000
0000
,
0000
0000
0000
0000
,
1000
0100
0010
0001
1000
0100
0010
0001
1000
0100
0010
0001
1000
0100
0010
0001
,
1000
0100
0010
0001
1000
0100
0010
0001
1000
0100
0010
0001
1000
0010
0100
0001
,
1000
0100
0010
0001
1000
0100
0010
0001
1000
0100
0010
0001
1000
0100
0010
0001
,
1000
0100
0010
0001
1000
0100
0010
0001
1000
0100
0010
0001
1000
0010
0100
0001
,
1000
0100
0010
0001
1000
0100
0010
0001
1000
0100
0010
0001
1000
0100
0010
0001
,
1000
0100
0010
0001
1000
0100
0010
0001
1000
0100
0010
0001
1000
0010
0100
0001
,
1000
0100
1000
0000
0100
1000
0100
0000
1000
0100
0010
0000
0100
0100
0000
0100
,
1000
0010
0100
0000
0001
0010
0001
0000
0001
0010
0100
0010
0001
0010
0100
0000
,
0001
0010
0100
0000
0001
0010
0100
0000
0001
0010
0100
1000
0100
0010
0100
0000
,
1000
0010
1000
0000
0010
0100
0010
0000
0100
0001
0100
0001
0010
0100
1000
0100
,
1000
0000
0000
0000
0010
0000
0000
0000
0100
0000
0000
0000
0000
0000
0000
0000
0100
0000
0000
0000
0001
0000
0000
0000
0100
0000
0000
0000
0000
0000
0000
0000
0001
0000
0000
0000
0010
0000
0000
0000
0100
0000
0000
0000
0000
0000
0000
0000
1100
0000
0000
0000
2200
3300
0000
0000
0000
0000
0000
0000
0000
0000
0000
0100
,
1000
0100
1000
0100
1000
0100
1000
0100
1000
0010
1000
0010
1000
0100
0010
0001
,
1000
0010
0100
0000
0100
0001
0100
0010
0100
0010
0100
0001
0010
0100
1000
0100
,
1000
0100
0010
0100
1000
0001
1000
0001
1000
0010
1000
0010
1000
0100
0010
0100
,
1000
0001
1000
0000
1000
0001
1000
0000
,
1000
0010
1000
0100
0010
0001
0010
0000
,
1000
0100
1000
0000
1000
0010
1000
0000
,
1000
0100
1000
0010
1000
0001
1000
0001
,
1000
0010
1000
0000
0000
0000
1000
0010
,
1000
0010
1000
0000
0000
0000
0000
0000
,
0100
0001
0100
0000
0000
0000
0100
0001
,
0100
0001
0100
0000
0000
0000
0000
0000
,
0010
0001
0010
0000
0000
0000
0010
0001
,
0010
0001
0010
0000
0000
0000
0000
0000
,
0001
0010
0100
0000
0100
1000
0010
0100
,
0002
0000
2000
3003
,
1000
0010
0100
0000
0100
0001
0010
0000
,
0010
0001
0010
0000
0010
0100
0010
0000
,
0010
1000
0010
0100
0010
0001
0010
0100
,
1000
0010
0100
0001
1000
0010
0100
0001
,
1000
0100
0010
0001
1000
0010
0100
0001
,
1000
0000
0010
0000
0100
0000
0001
0010
,
0100
0000
0100
1000
0010
0000
0010
0100
,
0001
0000
0001
0010
0100
1000
0100
1000
,
0100
1000
0100
0000
1000
0100
0000
1000
,
0100
0000
0000
0000
1000
0000
0100
0000
1000
0010
0100
0001
1000
0010
0100
0020
,
0230
0310
0000
0200
0301
0010
0001
0010
0001
0010
0001
0010
0001
0010
0001
0010
,
0001
0010
0001
0010
0100
1000
0100
1000
0100
1000
0100
1000
0100
1000
0100
1000
,
0001
1000
0001
1000
0001
1000
0001
1000
0001
1000
0001
1000
0001
1000
0001
1000
,
0100
1000
0100
1000
0100
1000
0100
1000
0100
0010
0001
0010
0100
1000
0100
1000
,
0100
1000
0010
0100
0001
0000
0010
0000
0001
0000
0010
0000
0001
0000
0010
0000
,
0001
0010
0001
0100
0001
0100
0001
0100
,
0001
0100
0101
0000
0101
0000
0101
0000
,
1000
0100
0010
0100
1000
0001
0100
0010
,
0100
0001
1000
0100
0010
0001
0010
0100
,
1000
0001
0010
0100
1000
0001
0010
0100
,
0000
0100
1000
0010
0100
0000
0001
0100
,
0010
0000
0001
0010
0100
1000
0100
0010
,
0100
0010
0100
0010
0100
0000
1000
0000
0010
0000
0000
0000
0010
0000
0100
0000
,
0001
0000
0001
0001
0010
0000
0001
0010
,
0000
0000
0001
0010
0100
0010
0001
0010
,
0100
1000
0010
0100
0001
0010
0100
0010
,
0100
1000
0001
0100
0010
0000
0010
0100
,
0001
0000
0001
0010
0100
1000
0100
0010
,
0000
0010
0100
0010
0100
0000
0010
0100
,
0010
0000
0010
0100
0010
0100
0010
0100
,
0010
0000
0001
1000
0001
0000
0001
0100
,
0001
0000
0001
0010
0001
0000
0001
0010
,
0001
0010
0001
0010
0001
0000
0001
1000
,
0001
0000
0001
0010
0100
1000
0100
0000
,
0100
1000
0100
0000
0100
0010
0100
0000
,
0100
0001
0100
1000
0100
0001
0100
1000
,
0010
0100
0001
0010
0100
1000
0001
0010
,
0100
1000
0002
0000
0000
0000
2000
0000
,
0000
3003
0001
0010
0001
0010
0100
1000
,
0100
1000
0001
0010
0001
0010
0100
1000
,
0100
1000
0100
0010
0001
1000
0100
0010
,
0001
1000
0100
0010
0001
1000
0100
1000
,
0010
0100
0001
0010
0100
1000
0001
0010
,
0100
1000
0100
0010
0100
1000
0001
0010
,
0100
1000
0100
1000
0010
0100
0001
0010
,
0100
1000
0001
0010
0100
0000
1000
0000
,
0001
0000
0000
0000
0000
0000
0000
0000
1MM1
0000
M00M
MMMM
0000
1MM1
0000
0000
0000
0000
0000
0000
0000
0000
0000
0000
0000
0000
0000
0000
0000
0000
0000
0000
;

//---------------dance-single - Hard.----------------
#NOTES:
     dance-single:
     Hard.:
     Easy:
     7:
     0.442,0.642,0.050,0.072,0.176:
0000
0000
0000
0000
,
0000
0000
0000
0000
,
1000
0100
0000
0100
1000
0010
0000
0010
,
0100
0001
0000
0001
0010
0100
0000
0010
,
0100
0000
1000
0000
0000
0100
1000
0000
0100
0000
0010
0000
0000
0100
0010
0000
,
0100
0000
1000
0000
0000
0001
0010
0000
0001
0000
0100
0000
0000
0010
1000
0000
,
0010
0100
0001
0010
0100
1000
0100
0010
,
0100
1000
0001
0010
0100
0010
0100
1000
,
0100
1000
0200
0000
0000
0300
1000
0000
0010
0100
0001
0000
0001
0000
0001
0000
,
0010
0001
0020
0000
0000
0000
0031
0000
0100
0000
0010
0000
1000
0000
0100
0000
,
1000
0100
0020
0000
0000
0000
0130
0000
1000
0010
0100
0000
0010
0000
0100
0000
,
0001
0010
0002
0000
0000
0000
1003
0000
0010
0100
0001
0000
0010
0000
0100
0000
,
1000
0100
0020
0000
0000
0000
0031
0000
0001
0010
0100
0000
1000
1000
MMMM
0000
,
1000
0100
1000
0000
0100
0000
0010
0000
0100
1000
0100
0000
1000
0100
0010
0100
,
1000
0001
1000
0000
0010
0000
0001
0000
0010
1000
0100
0000
1000
0000
0010
0000
,
0100
0001
0010
0000
0001
0010
0100
0000
0010
0100
1000
0100
1000
0100
1000
0000
,
1000
0010
1000
0010
1000
0000
0010
1000
0000
0010
1000
0000
0010
0000
0000
0000
,
0100
0001
0100
0001
0100
0000
0001
0100
0000
0001
0100
0000
0001
0000
0000
0000
,
1000
0010
1000
0010
1000
0000
0010
1000
0000
0010
1000
0000
0010
0000
0000
0000
,
0100
0001
0100
0001
0100
0000
0001
0100
0000
0001
0100
0000
0001
0000
0010
0000
,
0100
0000
1000
0000
,
0100
0000
1000
0100
,
0010
0000
0100
0000
,
1000
0000
0001
0010
,
0001
0000
0100
0000
,
1000
0000
0010
0100
,
0001
0000
0010
0000
,
M22M
M00M
M00M
M33M
,
1000
1000
0100
0000
,
1000
1000
0010
0010
,
0100
0100
0001
0000
,
0001
0001
0010
0010
,
0100
0100
1000
0000
,
1000
1000
0100
0100
,
1000
1000
0010
0000
,
0001
0010
0100
1000
,
0100
1000
0100
1000
0000
0100
1000
0000
,
0200
0000
1000
0000
1000
0000
1000
0000
1000
0000
1000
0000
1000
0000
0000
1000
,
1000
0000
0000
1000
1300
0000
0100
0000
1000
0000
0100
0000
1000
0000
0010
0000
,
1000
0010
1000
0001
1000
0001
1000
0010
,
1000
0010
0001
0010
0001
0010
1000
0100
,
1000
0100
0001
0100
0001
0100
1000
0010
,
1000
0000
0010
0000
0200
0000
0000
0300
0000
0000
0000
0000
0110
0000
0000
0000
,
1000
0000
0010
0010
0010
0000
0010
0100
,
0000
0101
1010
0101
,
0001
0001
0010
0000
0100
0000
1000
0000
,
0010
0010
0000
0000
1000
0100
0010
0000
,
0010
0100
1000
0001
,
0000
0000
0001
0001
0001
0001
0001
0000
,
0010
0000
0001
0000
0010
0000
0100
1000
,
0100
0000
1000
0010
0100
0000
0001
0010
,
0001
0000
0010
0100
1000
0100
0010
0000
,
0100
0000
1000
0010
0100
0000
0001
0010
,
0001
0000
0100
0010
1000
0000
0001
0100
,
0001
0100
0001
0010
0001
0000
0001
0010
,
0001
0000
0001
0010
0100
1000
0100
1000
,
0000
1000
0100
1000
0010
0000
0010
0100
,
0001
0000
0000
0000
0001
0010
0000
0001
0010
0001
0010
0000
0001
0010
0001
0010
,
0002
1003
0100
1000
,
0100
1000
0100
1000
,
0100
1000
0010
1000
,
0010
1000
0010
1000
,
0010
0100
0010
0100
,
0010
0100
0001
0100
,
0010
0100
1000
0100
,
0010
0110
0000
0110
,
0000
0001
0010
0100
,
1000
0100
0010
0001
,
0010
0100
0001
0100
,
1000
0100
0010
0100
,
1000
0001
0100
1000
,
0001
0010
1000
0100
,
1000
0010
0100
0001
,
0010
0100
1000
0001
,
0010
0000
0000
0000
0000
0000
0000
0000
0100
0000
0000
0000
0000
0100
0000
0000
0000
0000
0000
0000
0000
0000
0000
0000
0000
0000
0000
0000
0000
0000
0000
0000
;
