#TITLE:Twinbee's Home Town Song;
#SUBTITLE:;
#ARTIST:Sota Fujimori;
#TITLETRANSLIT:;
#SUBTITLETRANSLIT:;
#ARTISTTRANSLIT:;
#CREDIT:;
#BANNER:Twinbee's Home Town Song.png;
#BACKGROUND:Twinbee's Home Town Song-bg.png;
#LYRICSPATH:;
#CDTITLE:CDTitle.png;
#MUSIC:Twinbee's Home Town Song.mp3;
#OFFSET:-2.271;
#SAMPLESTART:85.040;
#SAMPLELENGTH:12.000;
#SELECTABLE:YES;
#DISPLAYBPM:*;
#BPMS:0.000=168.000,215.500=84.000,223.500=168.000;
#STOPS:71.000=0.180
;
#BGCHANGES:-5.000=Twinbee's Home Town Song.avi=1.000=0=0=1,
99999=-nosongbg-=1.000=0=0=0 // don't automatically add -songbackground-
;

//---------------dance-single - ----------------
#NOTES:
     dance-single:
     :
     Hard:
     10:
     0.633,0.934,0.118,0.277,0.328:
0000
0000
0000
0000
,
0000
0000
0000
0000
,
0000
0000
0000
0000
,
0000
0000
0000
0000
,
0000
0000
0000
0000
,
0001
0100
0001
0100
,
0001
0000
0010
2000
0000
3010
0100
0002
,
0100
0100
0103
0001
,
1000
0000
0010
0002
0000
0013
0100
2000
,
0010
3010
1010
1001
,
0001
0000
1000
0010
0000
1000
0010
0200
,
0001
0001
0301
0101
,
1001
0000
0001
1000
0000
1000
0100
0020
,
0000
0030
0110
0101
,
0001
0000
1000
0000
0001
0000
2000
0000
0000
3000
0001
1000
0001
0000
0100
0000
,
0001
0000
0100
0000
0001
0000
0002
0000
0000
0003
1000
0001
1000
0000
0010
0000
,
1000
0000
0001
0000
0010
0000
2000
0000
0000
3000
0010
1000
0010
0000
0100
0000
,
0001
1000
0010
0002
0000
0003
0100
0001
,
1000
0000
0010
0000
2000
0000
0000
3000
0010
1000
0010
0000
0100
0000
0001
0000
,
0010
0000
1000
0000
0002
0000
0000
0003
1000
0010
1000
0000
0010
0000
1000
0000
,
0001
0000
0100
0000
0010
0000
0000
0000
1000
0100
1000
0000
0001
0000
1000
0000
,
0010
0000
0100
0000
0010
0000
0100
0000
0001
1000
0001
0000
0000
0000
0100
0000
,
0000
0000
0010
0000
1000
0000
0000
0000
0010
0100
0010
0000
0200
0000
0010
0000
,
0000
0310
0000
0100
0000
0101
0000
0002
,
0000
0000
0103
2000
0000
0010
0000
0010
,
0000
3010
0000
1000
0010
0001
1000
0200
,
0000
0310
0100
0000
0001
0100
0010
0200
,
0000
0000
0310
0000
0100
0000
0000
0000
0001
0000
1000
0100
1000
0000
0010
0000
,
0000
1000
0020
1000
0000
1000
0030
1000
,
0010
0000
0100
0000
0001
0000
0000
0000
1000
0001
1000
0000
0001
0000
0100
0000
,
0000
0010
0100
0000
0001
0010
0100
1000
,
0000
0001
0010
0000
0001
0100
0001
0100
,
0000
0001
0020
0000
0130
0100
0000
1000
,
0001
0000
0010
0000
0001
0000
0000
0000
1000
0010
1000
0000
0000
0000
0002
0000
,
0000
0013
1000
0000
0000
2000
0000
3010
,
0001
0000
0000
0020
0000
0230
0000
0320
,
0000
0030
1000
0002
0000
0100
0000
0100
,
0000
0103
0000
0100
0000
1000
0000
0020
,
0000
1000
1030
0000
0000
2000
0000
0010
,
3010
0000
0000
1100
0000
1001
0000
0002
,
0000
0000
0100
0103
0000
0001
0000
1001
,
0000
0000
1000
0000
0000
0000
0001
0100
0001
0100
0001
0100
0001
0000
1000
0000
,
0010
0000
1000
0000
0010
0000
1000
0010
1000
0010
1000
0000
0001
0000
0100
0000
,
0001
0000
0100
0000
0001
0000
0100
0000
0010
0100
0010
0100
0010
0000
1000
0000
,
0001
0000
1000
0000
0010
0000
0100
0000
1000
0010
1000
0010
1000
0000
0010
0000
,
1000
0000
0010
0000
0100
0000
0010
0000
0001
0100
0001
0100
0001
0000
0100
0000
,
0001
0000
0100
0000
0001
0000
0010
0000
0100
0010
0100
0010
0100
0000
0001
0000
,
0100
0000
0010
0000
0001
0000
0100
0000
1000
0100
1000
0100
1000
0000
0001
0000
,
0100
0000
0010
0000
1000
0000
0001
0000
0100
0010
0100
0010
0100
0000
0010
0000
,
1000
0000
0001
0000
0100
0000
1000
0000
0010
0100
0010
0100
0010
0000
1000
0000
,
0001
0010
0100
1000
0010
1000
0000
0001
,
1000
0100
0010
0001
1000
0010
0000
1000
,
0010
1000
0010
0100
0001
0100
0000
0001
,
0100
0000
0000
0000
0001
0000
0000
0000
0100
0000
0000
0000
0010
0000
0000
0000
1000
0000
0000
0000
0010
0000
0000
0000
0100
0000
0000
0000
0001
0000
0000
1000
,
0000
0000
0010
0000
0001
0100
0001
0000
0100
0000
0001
0000
1000
0000
0000
0010
0000
0000
1000
0000
0000
0000
0010
1000
0010
0000
1000
0000
0010
0000
0000
0100
,
0000
0000
0010
0000
0001
0100
0001
0100
0001
0000
0100
0000
0001
0000
0000
0000
0010
0000
1000
0000
0001
0000
1000
0000
1001
0000
0000
0000
0001
0000
0000
0000
,
0000
1000
0010
0000
1000
0010
1000
0000
,
0100
0000
0001
0000
0100
0001
0100
0000
0001
0000
0100
0000
0010
0100
0010
0000
,
0100
0000
0010
0000
1000
0010
1000
0000
0010
0000
0100
0000
0001
0100
0001
0000
,
0100
0000
0010
0000
1000
0010
1000
0000
0010
0000
1000
0000
0000
0000
0001
0000
,
0000
0100
1000
0000
0001
0100
0001
0000
,
0001
0000
1000
0000
0100
0000
0010
0100
0010
0000
0100
0000
0010
0000
0100
0010
,
0100
0000
0010
0000
0100
0000
0001
0100
0001
0000
0100
0000
0010
0000
1000
0010
,
1000
0000
0010
0000
0100
0000
0001
0100
0001
0000
0100
0000
0000
0000
0001
0000
,
0000
0000
1000
0000
0010
0000
0000
0000
0100
0010
0200
0000
0000
0000
0010
0000
,
0000
0310
0000
0110
0000
0101
0000
0002
,
0000
0000
0103
2000
0000
3100
0000
1000
,
0010
0100
0001
0100
0000
0010
0000
1000
,
0000
0001
0010
0000
0100
2000
0000
0001
,
0000
3001
0000
1000
0000
0001
1000
0010
,
0000
0001
0000
0000
0001
0000
0200
0000
0000
0000
0001
0000
0000
0000
0010
0000
,
0000
0000
0000
0000
0301
0000
0000
0000
0000
0000
0000
0000
1001
0000
0000
0000
0000
0000
0000
0000
0001
0000
0000
0000
0000
0000
0000
0000
0010
0000
0000
0001
,
0000
0000
0100
0000
0000
0001
0000
0000
1000
0000
0000
0010
0000
0000
1000
0000
0000
0001
0000
0000
0100
0000
0000
0001
0000
0000
1000
0000
0000
0010
0000
0000
,
0100
0000
0000
0001
0000
0000
1000
0000
0000
0010
0000
0000
0100
0000
0000
0001
0000
0000
1000
0000
0000
0010
0000
0000
0100
0000
0000
0001
0000
0000
1000
0000
,
0000
0010
0000
0000
0100
0000
0000
0000
0000
0000
0000
0000
0000
0000
0000
0000
0000
0000
0000
0000
0000
0000
0000
0000
0000
0000
0000
0000
0000
0000
0000
0000
;

//---------------dance-single - ----------------
#NOTES:
     dance-single:
     :
     Medium:
     8:
     0.455,0.716,0.050,0.260,0.059:
0000
0000
0000
0000
,
0000
0000
0000
0000
,
0000
0000
0000
0000
,
0000
0000
0000
0000
,
0000
0000
0000
0000
,
0001
0100
0001
1000
,
0001
0000
1000
2000
0000
3000
0010
0020
,
0000
0000
0030
0100
,
0010
0000
0100
0002
0000
0003
0010
0200
,
0000
0300
0001
1000
,
0001
0000
1000
0100
0000
0100
0010
0200
,
0000
0000
0300
0001
,
0100
0000
0001
0100
0000
0000
0100
0002
,
0000
0003
1000
0010
,
1000
0000
0010
2000
0000
3100
0000
0100
,
0010
0100
0010
0200
0000
0310
0000
0010
,
0100
0010
0000
2000
0000
3010
0000
1000
,
0010
1000
0000
0020
0000
0030
0000
0100
,
0000
0100
0002
0000
0013
0000
0010
0001
,
0000
0001
0200
0000
0310
0000
0010
1000
,
0000
1000
0010
0000
0100
0010
0000
0010
,
0100
0001
0100
0001
0010
0000
0000
1000
,
0000
1000
0010
0000
0000
0100
0002
0000
,
0000
0003
0000
1000
0000
0010
0000
0200
,
0000
0000
0301
0002
0000
0000
0000
0000
,
0000
0003
0000
0100
0010
0100
0010
0200
,
0000
0310
0100
0000
0010
0100
0010
0200
,
0000
0310
0100
0000
0001
0100
0010
0001
,
0000
0100
0020
0000
0030
0100
0000
0010
,
0100
0010
0100
0001
0100
0001
0000
1000
,
0000
0010
0100
0000
0001
0100
0001
0100
,
0000
0010
0100
0000
1000
0010
1000
0010
,
0000
0100
0020
0000
0030
0000
0000
1000
,
0100
0010
0001
0000
0100
0001
0000
0002
,
0000
0003
1000
0000
0000
2000
0000
3000
,
0010
0000
0000
0100
0000
0010
0000
0100
,
0000
0000
0010
0200
0000
0000
0000
0000
,
0000
0300
0000
0001
0000
0100
0000
0020
,
0000
0000
0130
0000
0000
0200
0000
0000
,
0310
0000
0000
0100
0000
0010
0000
0200
,
0000
0000
0310
0002
0000
0000
0000
0000
,
0000
0003
0000
0100
0001
0010
0100
1000
,
0000
0010
0000
1000
0010
1000
0000
0010
,
0000
0010
0000
0100
0010
0100
0010
0100
,
0000
0010
0000
1000
0010
1000
0000
0001
,
0000
0100
0000
0001
0100
0001
0000
0100
,
0000
0010
0000
1000
0010
1000
0010
0100
,
0000
0100
0000
0001
0100
0001
0100
0010
,
0000
0010
0000
1000
0010
1000
0000
0100
,
0000
0100
0000
1000
0100
0010
0001
0100
,
0000
0010
0000
0100
0000
0010
0000
0100
,
0001
0010
0100
1000
0010
0100
0000
0010
,
0000
0100
0000
0010
0000
0100
0000
0001
,
1000
0000
0000
0000
0001
0000
0000
0000
0010
0000
0000
0000
0100
0000
0000
0000
1000
0000
0000
0000
0001
0000
0000
0000
0100
0000
0000
0000
0001
0000
0000
0100
,
0000
0000
0010
0000
0000
0000
1000
0000
0010
0000
1000
0000
0010
0000
0000
1000
0000
0000
0100
0000
0000
0000
0010
0000
0100
0000
0001
0000
0100
0000
0000
0001
,
0000
0010
0000
0100
0001
0100
0001
0000
0100
0010
0100
0010
1000
0000
0100
0000
,
0000
0001
0010
0000
0010
0001
0010
0000
,
0100
0001
0100
0001
0100
0010
1000
0010
,
1000
0010
0100
0001
0100
0001
1000
0100
,
1000
0010
0100
0010
0100
0010
0000
1000
,
0000
0100
1000
0000
0100
0001
0100
0000
,
0001
1000
0010
0100
0010
0100
0010
1000
,
0100
1000
0100
1000
0001
0010
0001
0010
,
0001
0100
0001
0100
0001
0010
0000
0001
,
0000
0100
0010
0000
0100
0020
0000
0000
,
0000
0030
0000
0010
0000
0110
0000
0200
,
0000
0000
0310
0020
0000
0030
1000
0010
,
1000
0010
1000
0100
0000
0010
0000
0001
,
0000
0100
0010
0000
0010
2000
0000
0000
,
0000
3000
0000
0010
0000
1000
0010
0100
,
0001
1000
0010
0002
0000
0000
0000
0000
,
0000
0003
0000
0100
0000
0010
0000
1000
,
0000
1100
0000
0100
0000
0110
0000
0010
,
0000
0011
0000
0010
0000
0110
0000
0100
,
0000
1100
0000
0000
0000
0000
0000
0000
;

//---------------dance-single - ----------------
#NOTES:
     dance-single:
     :
     Easy:
     5:
     0.312,0.405,0.034,0.101,0.004:
0000
0000
0000
0000
,
0000
0000
0000
0000
,
0000
0000
0000
0000
,
0000
0000
0000
0000
,
0000
0000
0000
0000
,
0000
0000
0000
0000
,
0100
0000
0001
0100
0000
0001
0100
0002
,
0000
0000
0000
0000
0000
0003
0010
0000
,
0001
0000
0001
1000
0000
1000
0010
2000
,
0000
0000
0000
3000
0010
0000
0100
0000
,
0001
0000
1000
0010
0000
0000
0010
0200
,
0000
0000
0300
0001
,
1000
0000
0010
1000
0000
0010
0100
0020
,
0000
0000
0000
0030
1000
0000
1000
0000
,
0010
0000
0001
0010
0000
0010
0000
0000
,
0001
0000
0100
0010
0000
1000
0000
0000
,
0010
0000
1000
0100
0000
0100
0000
0000
,
0010
0000
0000
0001
0000
0000
0001
0100
,
0000
0001
0100
0000
0010
0000
0000
1000
,
0000
0100
1000
0000
1000
0000
0000
0010
,
0000
0010
1000
0000
0000
0100
0001
0100
,
0001
0000
0100
0000
0010
1000
0000
1000
,
0000
0001
0100
0000
0010
0100
2000
0000
,
0000
0000
3000
0100
0000
0100
0000
0010
,
0000
0000
0001
0200
0000
0000
0000
0000
,
0300
0000
0000
0010
0000
0000
0000
0100
,
0000
0010
0100
0000
0000
0001
0000
0100
,
0000
0100
0001
0000
0000
1000
0000
0010
,
0000
0010
1000
0000
0000
0000
0000
0100
,
0000
0010
0100
0000
0000
0001
0000
1000
,
0000
1000
0010
0000
0000
0100
0000
0010
,
0000
0100
0001
0000
0000
0100
0000
0001
,
0000
0100
0001
0000
0000
1000
0000
0010
,
0000
1000
0000
0000
0000
0010
0000
1000
,
0000
0000
0010
0000
0000
0100
0000
0000
,
0010
0000
0000
0100
0000
0001
0000
1000
,
0000
0000
0001
0020
0000
0000
0000
0000
,
0000
0030
0000
0010
0000
0100
0000
0010
,
0000
0000
1000
0000
0000
0100
0000
0000
,
0010
0000
0000
0100
0000
1000
0000
0010
,
0000
0000
0100
0002
0000
0000
0000
0000
,
0000
0000
0003
0000
0000
0000
0000
0100
,
0000
0010
0000
0100
0000
0010
0000
1000
,
0000
0010
0000
1000
0000
0010
0000
1000
,
0000
0001
0000
1000
0000
0001
0000
0100
,
0000
0001
0000
0100
0000
0001
0000
1000
,
0000
0010
0000
1000
0000
0010
0000
0100
,
0000
0010
0000
0100
0000
0010
0000
1000
,
0000
0001
0000
1000
0000
0001
0000
0100
,
0000
0001
0000
0100
0000
0001
0000
1000
,
0000
1000
0000
0100
0000
0100
0000
0010
,
0000
0010
0000
0001
0000
0001
0000
0100
,
0000
0100
0000
0010
0000
0010
0000
1000
,
0000
1000
0000
0001
0000
0001
0000
1000
,
0000
1001
0000
0000
0001
0000
0000
0000
0101
0000
0000
0000
0100
0000
0000
0000
,
0110
0000
0010
0000
1010
0000
1000
0001
,
0000
0100
0010
0000
0000
1000
0000
0000
,
1000
0100
0000
0000
0100
0010
0000
0000
,
0001
0100
0000
0000
0100
0001
0000
0000
,
1000
0010
0000
0000
0010
1000
0000
1000
,
0000
0010
0000
1000
,
0000
0100
0010
0000
0000
0100
0010
0000
,
0000
0100
0001
0000
0000
0010
0100
0000
,
0000
0010
1000
0000
0000
0010
0000
0100
,
0000
0010
0100
0000
0001
0002
0000
0000
,
0000
0003
0000
1000
0000
0100
0000
0010
,
0000
0000
0001
0200
0000
0000
0000
0000
,
0000
0300
0000
0001
0000
0010
0000
0100
,
0000
1000
0100
0000
0010
0002
0000
0000
,
0000
0000
0003
0010
0000
0010
0000
0001
,
0000
0000
0100
0020
0000
0000
0000
0000
,
0000
0030
0000
0100
0000
0000
0000
0001
,
0000
0100
0000
0001
0000
0100
0000
0010
,
0000
1000
0000
0010
0000
1000
0000
0010
,
0000
0100
0000
0000
0000
0000
0000
0000
;

//---------------dance-single - Copied from----------------
#NOTES:
     dance-single:
     Copied from:
     Beginner:
     3:
     0.188,0.248,0.000,0.042,0.000: // measure 1
0000
0000
0000
0000
,  // measure 2
0000
0000
0000
0000
,  // measure 3
0000
0000
0000
0000
,  // measure 4
0000
0000
0000
0000
,  // measure 5
0000
0000
0000
0000
,  // measure 6
0000
0000
0000
0000
,  // measure 7
0100
0000
0001
0000
,  // measure 8
0100
0000
0001
0000
,  // measure 9
1000
0000
0010
0000
,  // measure 10
1000
0000
0010
0000
,  // measure 11
1000
0000
0010
0000
,  // measure 12
0100
0000
0010
0000
,  // measure 13
0100
0000
0010
0000
,  // measure 14
0100
0000
0001
0000
,  // measure 15
2000
0000
0000
0000
3000
0010
0000
0000
,  // measure 16
0200
0000
0000
0000
0300
0010
0000
0000
,  // measure 17
2000
0000
0000
0000
3000
0100
0000
0000
,  // measure 18
0020
0000
0000
0030
0000
0000
0001
1000
,  // measure 19
0000
1000
0000
0000
0100
0000
0000
0010
,  // measure 20
0000
0010
0000
0000
0001
0000
0000
0100
,  // measure 21
0000
0100
0000
0000
0000
0001
0000
0001
,  // measure 22
0000
0010
0000
0100
0000
1000
0000
0001
,  // measure 23
0000
0000
0100
0000
0000
0001
0000
0000
,  // measure 24
0000
0000
0000
1000
0000
0010
0000
1000
,  // measure 25
0000
0000
0000
0200
0000
0000
0000
0000
,  // measure 26
0000
0300
0000
0100
0000
0000
0000
0010
,  // measure 27
0000
0000
0100
0000
0000
0000
0000
0001
,  // measure 28
0000
0000
1000
0000
0000
0000
0000
1000
,  // measure 29
0000
0000
0010
0000
0000
0000
0000
1000
,  // measure 30
0000
0000
0010
0000
0000
0000
0000
0100
,  // measure 31
0000
0000
0001
0000
0000
0000
0000
0100
,  // measure 32
0000
0000
0001
0000
0000
0000
0000
1000
,  // measure 33
0000
0000
0100
0000
0000
0000
0000
0010
,  // measure 34
0000
0000
0001
0000
0000
0000
0000
1000
,  // measure 35
0000
0000
0100
0000
0000
0010
0000
0000
,  // measure 36
0001
0000
0000
0100
0000
0010
0000
0100
,  // measure 37
0000
0000
0000
0001
0000
0000
0000
1000
,  // measure 38
0000
0000
0000
1000
0000
0000
0000
0010
,  // measure 39
0000
0000
1000
0000
0000
0010
0000
0000
,  // measure 40
1000
0000
0000
0100
0000
0001
0000
0100
,  // measure 41
0000
0000
0000
0001
0000
0000
0000
0100
,  // measure 42
0000
0000
0000
0001
0000
0000
0000
1000
,  // measure 43
0000
0000
0000
1000
0000
0000
0000
0010
,  // measure 44
0000
0000
0000
0010
0000
0000
0000
1000
,  // measure 45
0000
0000
0000
1000
0000
0000
0000
0100
,  // measure 46
0000
0000
0000
0100
0000
0000
0000
0001
,  // measure 47
0000
0000
0000
0001
0000
0000
0000
0010
,  // measure 48
0000
0000
0000
0010
0000
0000
0000
1000
,  // measure 49
0000
0000
0000
1000
0000
0000
0000
0001
,  // measure 50
0000
0000
0000
0001
0000
0000
0000
1000
,  // measure 51
0000
0000
0000
0010
0000
0000
0000
1000
,  // measure 52
0000
0000
0000
0001
0000
0000
0000
0100
,  // measure 53
0000
0000
0000
0001
0000
0000
0000
1000
,  // measure 54
0000
0000
0000
0010
0000
0000
0000
1000
,  // measure 55
0000
0010
0000
1000
0000
0010
0000
0100
,  // measure 56
0000
0010
0000
0100
0000
0001
0000
0100
,  // measure 57
0000
0010
0000
0100
,  // measure 58
0000
0010
0000
0000
0000
0100
0000
0000
,  // measure 59
0000
0010
0000
0000
0000
1000
0000
0000
,  // measure 60
0000
0100
0000
0000
0000
1000
0000
1000
,  // measure 61
0000
0010
0000
0100
,  // measure 62
0000
0001
0000
0001
,  // measure 63
0000
0100
0000
0100
,  // measure 64
0000
0000
0010
0000
0000
0000
0000
1000
,  // measure 65
0000
0000
0010
0000
0000
1000
0000
0000
,  // measure 66
0000
0000
0000
0100
0000
0010
0000
0100
,  // measure 67
0000
0000
0000
1000
0000
0000
0000
0001
,  // measure 68
0000
0000
0000
0100
0000
0000
0000
0001
,  // measure 69
0000
0000
0001
0000
0000
0100
0000
0000
,  // measure 70
0000
0000
0000
1000
0000
0010
0000
1000
,  // measure 71
0000
0000
0000
0010
0000
0000
0000
1000
,  // measure 72
0000
0000
0000
0000
0000
0000
0000
0010
,  // measure 73
0000
0000
0000
1000
0000
0000
0000
0001
,  // measure 74
0000
0000
0000
0100
0000
0000
0000
0010
;

//---------------dance-single - ----------------
#NOTES:
     dance-single:
     :
     Challenge:
     11:
     0.707,0.903,0.143,0.319,0.433:
0000
0000
0000
0000
,
0000
0000
0000
0000
,
0000
0000
0000
0000
,
0000
0000
0000
0000
,
0000
0000
0000
0000
,
0010
0100
0001
1000
,
0010
0000
0000
0000
1000
0000
0002
0000
0000
0003
0100
0001
0100
0000
0001
0000
,
0100
0010
0100
0010
0100
0000
0001
0000
,
1000
0000
0000
0000
0001
0000
0200
0000
0300
0000
0010
0100
0010
0000
0100
0000
,
0010
0100
0010
0100
0001
0000
1001
0000
,
0001
0000
0000
0000
1000
0000
0200
0000
0300
0000
1000
0100
1000
0000
0100
0000
,
0010
0001
0100
0001
0100
0010
1000
0000
,
1001
0000
0000
0000
1000
0000
0020
0000
0030
0000
0100
0010
0100
0000
0020
0000
,
0100
0130
0101
1001
,
0001
0000
0100
0000
0001
0000
0200
0000
0000
0300
0001
0100
0001
0000
0100
0000
,
0001
0000
0100
0000
0001
0000
0200
0000
0000
0300
0001
0100
0001
0000
0100
0000
,
0010
0000
0100
0000
0010
0000
0020
0000
0000
0030
1000
0010
1000
0000
0010
0000
,
0100
1000
0010
0002
0000
0003
0101
0001
,
0100
0000
0010
0000
2000
0000
0000
3000
0010
1000
0010
0000
1000
0000
0010
0000
,
1000
0000
0100
0000
0002
0000
0000
0003
0100
0001
0100
0000
0001
0000
1000
0000
,
0100
0000
0010
0000
0001
0000
0000
0000
0001
0010
0001
0000
0010
0000
0100
0000
,
1000
0010
1000
0000
0010
0100
0010
0000
0100
0000
0001
0000
0000
0000
1000
0000
,
0000
0000
0010
0000
2000
0000
0000
3000
0010
1000
0010
0000
1000
0000
0100
0000
,
0010
0100
0010
0000
0100
0000
0002
0000
0000
0000
0203
0000
0000
0000
0320
0000
,
0000
0030
1000
0010
1000
0010
0100
0001
,
0100
0001
0010
1000
0000
0100
0010
0200
,
0000
0310
0100
0000
0100
0010
0100
0020
,
0000
0000
0130
0000
0010
0000
0000
0000
0001
0000
0100
0001
0100
0000
0001
0000
,
0100
0001
0100
0001
0010
0001
0010
0001
,
0100
0000
0010
0000
1000
0000
0000
0000
0010
1000
0010
0000
1000
0000
0020
0000
,
0000
0130
0010
0000
0010
0100
0010
0200
,
0000
0310
0100
0000
0001
0100
0010
1000
,
0000
0001
0020
0000
0130
1000
0000
0001
,
0100
0000
0010
0000
1000
0000
0000
0000
0010
0100
0010
0000
0000
0000
0200
0000
,
0000
0301
0101
0000
0000
0002
0000
0103
,
0101
0000
0000
0002
0000
0203
0000
0320
,
0000
0030
1000
0010
1000
0010
0100
0001
,
0100
0001
0000
1000
0000
0010
0000
0200
,
0000
0310
0110
0000
0000
0020
0000
0130
,
0110
0000
0000
0101
0000
1001
0000
2000
,
0000
3010
0100
0010
0100
0000
0002
0000
0000
0000
0003
0000
0000
0000
0011
0000
,
0000
0000
0001
0000
0000
0000
0100
0001
0100
0001
0100
0001
0100
0000
0001
0000
,
0010
0000
0100
0000
1000
0000
0010
1000
0010
1000
0010
0000
1000
0000
0100
0000
,
0010
0000
0001
0000
1000
0000
0100
0000
0010
1000
0010
1000
0010
0000
0100
0000
,
0010
0000
0100
0000
0010
0000
0001
0000
0100
0001
0100
0001
0100
0000
0010
1000
,
0010
1000
0100
0010
0100
0000
0010
0000
1000
0100
1000
0100
1000
0000
0100
0000
,
0010
0000
0001
0000
0100
0000
0001
0000
0100
0010
0100
0010
0100
0000
0010
0000
,
1000
0000
0010
0000
1000
0000
0100
0000
0010
0100
0010
0100
0010
0000
0100
0000
,
0010
0000
0001
0000
0100
0000
1000
0000
0010
0100
0010
0100
0010
0000
0100
0001
,
0100
0001
0010
0100
0010
0100
0010
0000
1000
0010
1000
0010
1000
0000
0100
0000
,
0010
0000
0001
0000
0100
0000
1000
0010
1000
0000
1000
0010
1000
0000
0001
0000
,
1000
0000
0100
0000
0010
0000
0001
0100
0001
0000
0001
0100
0001
0000
0100
0000
,
0010
0000
0100
0000
0010
0000
0100
0010
0100
0000
0100
0010
0100
0000
0010
1000
,
0010
0000
1000
0000
0010
0000
0000
0000
1000
0000
0000
0000
0100
0000
1000
0000
0100
0000
0000
0000
1000
0000
0000
0000
0010
0000
0000
0000
1000
0000
0000
0010
,
0000
0000
0100
0000
0001
0100
0001
0000
0100
0000
0001
0000
0100
0000
0000
0001
0000
0000
0100
0000
0000
0000
0001
0100
0001
0000
0100
0000
0010
0000
0000
0100
,
0000
0000
0010
0000
0100
0010
0100
0000
0010
0000
0100
0000
1000
0000
0000
0000
0100
0000
0010
0000
0001
0000
1000
0000
1001
0000
0000
0000
0002
0000
0000
0000
,
0000
0103
0020
0000
0130
0010
0100
0000
,
0010
0000
1000
0000
0010
1000
0010
0000
1000
0000
0100
0000
0001
0010
0001
0000
,
0010
0000
0001
0000
0100
0001
0100
0000
0001
0000
0100
0000
0100
0010
0100
0000
,
0010
0000
0100
0000
0010
1000
0010
0000
1000
0000
0010
0000
0000
0000
0002
0000
,
0000
0000
0103
0000
0020
0000
0000
0000
0031
0000
0010
0000
0001
0000
0100
0001
,
0100
0000
0001
0000
0010
0000
1000
0100
1000
0000
0100
0000
0010
0000
0100
0010
,
0100
0000
0010
0000
0100
0000
0001
0010
0001
0000
0010
0000
0001
0000
0100
0001
,
0100
0000
0001
0000
0100
0000
0001
0100
0001
0000
0100
0000
0000
0000
0010
0000
,
0000
0000
1000
0000
0010
0000
0000
0000
0100
0010
0100
0000
0010
0000
0100
0000
,
0010
0100
0000
0101
0000
1001
0000
0002
,
0000
0000
0103
0010
0100
0010
0100
0001
,
0010
0100
0010
0200
0000
0302
0000
0103
,
0000
0000
0001
0000
0010
0000
0000
0000
0010
0001
0010
0000
0001
0000
0100
0000
,
0001
0200
0000
0310
0000
0010
0000
1010
,
0000
1000
0000
0000
0010
0000
0200
0000
0000
0000
0010
0000
0000
0000
0010
0000
,
0000
0000
0000
0000
0310
0000
0000
0000
0000
0000
0000
0000
1010
0000
0000
0000
0000
0000
0000
0000
1000
0000
0000
0000
0000
0000
0000
0000
0010
0000
0000
0100
,
0000
0000
0001
0000
0000
1000
0000
0000
0010
0000
0000
0100
0000
0000
0001
0000
0000
0010
0000
0000
0001
0000
0000
0100
0000
0000
0001
0000
0000
1000
0000
0000
,
0010
0000
0000
1000
0000
0000
0100
0000
0000
1000
0000
0000
0010
0000
0000
1000
0000
0000
0001
0000
0000
0010
0000
0000
0001
0000
0000
0100
0000
0000
0001
0000
,
0000
0010
0000
0000
0100
0000
0000
0000
0000
0000
0000
0000
0000
0000
0000
0000
0000
0000
0000
0000
0000
0000
0000
0000
0000
0000
0000
0000
0000
0000
0000
0000
;
