#VERSION:0.83;
#TITLE:罪と罰;
#SUBTITLE:;
#ARTIST:Xceon feat.Mayumi Morinaga;
#TITLETRANSLIT:Tsumi to Batsu;
#SUBTITLETRANSLIT:;
#ARTISTTRANSLIT:;
#GENRE:;
#ORIGIN:;
#CREDIT:;
#BANNER:[ROUND 1] - Tsumi to Batsu.png;
#BACKGROUND:[ROUND 1] - Tsumi to Batsu-bg.png;
#PREVIEWVID:;
#JACKET:[ROUND 1] - Tsumi to Batsu-jacket.png;
#CDIMAGE:;
#DISCIMAGE:;
#LYRICSPATH:;
#CDTITLE:;
#MUSIC:[ROUND 1] - Tsumi to Batsu.ogg;
#OFFSET:-2.040837;
#SAMPLESTART:14.948082;
#SAMPLELENGTH:14.164011;
#SELECTABLE:YES;
#BPMS:0.000=144.027;
#STOPS:228.000=0.417;
#DELAYS:;
#WARPS:;
#TIMESIGNATURES:0.000=4=4;
#TICKCOUNTS:0.000=4;
#COMBOS:0.000=1;
#SPEEDS:0.000=1.000=0.000=0;
#SCROLLS:0.000=1.000;
#FAKES:;
#LABELS:0.000=Song Start;
#BGCHANGES:;
#KEYSOUNDS:;
#ATTACKS:
;

//---------------dance-single - ----------------
#NOTEDATA:;
#CHARTNAME:;
#STEPSTYPE:dance-single;
#DESCRIPTION:;
#CHARTSTYLE:;
#DIFFICULTY:Hard;
#METER:8;
#RADARVALUES:0.418752,0.485790,0.047792,0.254893,0.131429,368.000000,362.000000,6.000000,32.000000,0.000000,0.000000,0.000000,0.000000,0.000000,0.418752,0.485790,0.047792,0.254893,0.131429,368.000000,362.000000,6.000000,32.000000,0.000000,0.000000,0.000000,0.000000,0.000000;
#CREDIT:;
#NOTES:
// measure 0
0000
0000
0000
0000
,  // measure 1
0000
0000
0000
0000
,  // measure 2
0000
0000
0000
0000
,  // measure 3
0000
0000
0000
0000
,  // measure 4
1000
0010
0200
0000
0301
0100
0020
0000
,  // measure 5
0130
1000
0100
0001
1000
0100
0010
0100
,  // measure 6
1000
0001
0020
0000
0031
1000
0200
0000
,  // measure 7
0310
0001
1000
0010
0100
0001
1000
0100
,  // measure 8
1000
0000
0000
0000
0001
0000
1000
0010
0000
0000
0000
0000
0100
0000
0010
0000
,  // measure 9
1000
0000
0100
0000
0010
0000
0001
1000
0000
0000
0000
0000
0001
0000
0100
0000
,  // measure 10
0001
0000
0000
0000
0100
0000
0010
1000
0000
0000
0100
0000
1000
0000
0010
0000
,  // measure 11
0100
0001
0010
0001
1000
0000
0001
0010
,  // measure 12
0001
0000
0000
0000
0010
0000
0100
1000
0000
0000
0000
0000
0100
0000
1000
0000
,  // measure 13
0001
0000
0100
0000
0010
0000
1000
0001
0000
0000
0000
0000
0000
0000
1000
0000
,  // measure 14
0200
0000
0000
0000
0300
0000
0010
0000
0002
0000
0000
0103
0000
0000
0010
0000
,  // measure 15
2000
0000
0000
3010
0000
0000
0100
0000
0002
0000
0000
0013
0000
0000
0100
0000
,  // measure 16
2002
0000
0000
0000
,  // measure 17
0000
0000
0000
0000
,  // measure 18
3003
0000
0000
0000
,  // measure 19
0000
1000
0001
1000
0000
1000
0001
1000
,  // measure 20
0000
1000
0001
1000
0100
0010
0100
1000
,  // measure 21
0000
0001
1000
0001
0000
0001
1000
0001
,  // measure 22
0000
0001
1000
0001
0010
0100
0010
0001
,  // measure 23
0000
0100
0010
0100
0000
0100
0010
0100
,  // measure 24
0000
0100
0010
0100
0010
1000
0001
0010
,  // measure 25
0000
0100
1000
0100
0010
0000
0100
1000
,  // measure 26
0001
0000
1000
0010
2000
0000
3000
0000
,  // measure 27
0100
0000
0100
2000
0000
0010
0000
0020
,  // measure 28
0000
0000
3030
1000
0100
1000
0001
0010
,  // measure 29
0100
0000
0100
0010
0000
0002
0000
0100
,  // measure 30
0000
0103
0010
2000
0000
0000
3000
0000
,  // measure 31
0010
0000
0000
1000
0000
0000
0001
0000
0000
0000
1000
0000
0001
0000
0010
0000
,  // measure 32
0100
0000
0000
0010
0000
0000
0001
0000
1000
0000
0000
0000
0000
0000
0100
0000
,  // measure 33
0010
0000
0000
0010
0000
0000
0010
0000
0001
0000
0000
0001
0000
0000
0001
0000
,  // measure 34
1000
0000
0000
0010
0000
0000
0100
0000
0002
0000
0000
0000
0000
0000
0003
0000
,  // measure 35
0101
0000
0000
1010
0000
0000
1100
0000
1001
0000
0000
0000
0001
0000
1000
0000
,  // measure 36
0010
0000
0000
0000
0100
0000
0001
1000
0000
0000
0000
0000
0100
0000
0010
0000
,  // measure 37
0100
0000
1000
0000
0001
0000
1000
0010
0000
0000
0000
0000
0100
0000
0001
0000
,  // measure 38
0010
0000
0000
0000
0010
0000
0100
1000
0000
0000
0100
0000
1000
0000
0010
0000
,  // measure 39
0100
0010
1000
0001
1000
0000
0001
0100
,  // measure 40
0001
0000
0000
0000
0100
0000
0010
1000
0000
0000
0000
0000
0100
0000
0010
0000
,  // measure 41
0001
0000
0100
0000
0010
0000
1000
0001
0000
0000
0000
0000
0000
0000
1000
0000
,  // measure 42
0200
0000
0000
0000
0300
0000
0010
0000
0002
0000
0000
0013
0000
0000
0001
0000
,  // measure 43
0200
0000
0000
0310
0000
0000
1000
0000
0002
0000
0000
0103
0000
0000
0010
0000
,  // measure 44
2002
0000
0000
0000
,  // measure 45
0000
0000
0000
0000
0000
0000
0000
3003
,  // measure 46
1000
0100
1000
0001
,  // measure 47
1000
0100
0010
0001
,  // measure 48
1000
0010
0100
0001
,  // measure 49
0100
0000
0000
0000
0010
0000
0000
0000
1000
0000
0001
1000
0001
0000
0000
0000
,  // measure 50
1000
0100
1000
0010
,  // measure 51
0100
0000
0000
0000
0001
0000
0000
0000
1000
0000
0001
1000
0001
0000
0000
0000
,  // measure 52
0000
1000
0010
1000
0000
0001
0100
0001
,  // measure 53
0000
1000
0010
0100
0001
1000
0010
0100
,  // measure 54
0001
1000
0001
1000
0010
0100
0010
0100
,  // measure 55
0001
0100
0010
1000
0001
0100
0010
1000
,  // measure 56
0200
0000
0000
0000
,  // measure 57
0300
0000
0000
0000
1000
0000
0000
0000
1000
0000
0001
0100
0000
0000
0000
0000
,  // measure 58
0100
0000
0010
0000
1000
0000
0001
0000
0010
0000
0100
0010
0000
0000
0000
0000
,  // measure 59
0100
0000
0010
0000
0100
0000
0000
0000
0010
0000
0001
1000
0000
0000
0010
0000
,  // measure 60
1000
0001
0010
0100
0010
0001
1000
0000
,  // measure 61
0001
0000
1000
0000
0010
0000
0000
0000
0100
0000
0001
0010
0000
0000
0000
0000
,  // measure 62
0100
0000
1000
0000
0010
0000
0100
0000
0001
0000
1000
0100
0000
0000
0000
0000
,  // measure 63
0000
0000
0010
0000
0002
0000
0000
0000
0003
0000
1000
0000
0020
0000
0000
0130
,  // measure 64
0000
0000
0001
0000
0020
0000
0000
0130
0000
0000
1000
0000
0020
0000
0000
0130
,  // measure 65
0000
0001
1000
0001
0200
0000
0301
1000
,  // measure 66
0200
0000
1300
0001
0100
0001
0010
0001
,  // measure 67
1000
0100
1000
0001
0020
0000
0031
1000
,  // measure 68
0020
0000
1030
0100
0001
0100
1000
0001
,  // measure 69
1000
0001
1000
0000
0020
0000
0000
0000
0000
0000
0000
0000
0000
0000
0000
0000
,  // measure 70
0000
0000
0000
0000
,  // measure 71
0000
0000
0000
0030
;

//---------------dance-single - ----------------
#NOTEDATA:;
#CHARTNAME:;
#STEPSTYPE:dance-single;
#DESCRIPTION:;
#CHARTSTYLE:;
#DIFFICULTY:Easy;
#METER:3;
#RADARVALUES:0.218479,0.510781,0.159308,0.238962,0.000000,192.000000,172.000000,20.000000,30.000000,0.000000,0.000000,0.000000,0.000000,0.000000,0.218479,0.510781,0.159308,0.238962,0.000000,192.000000,172.000000,20.000000,30.000000,0.000000,0.000000,0.000000,0.000000,0.000000;
#CREDIT:;
#NOTES:
0000
0000
0000
0000
,
0000
0000
0000
0000
,
0000
0000
0000
0000
,
0000
0000
0000
0000
,
0001
0100
0000
0001
,
0000
1000
0100
1000
,
0001
0010
0001
0100
,
0001
0010
0100
1000
,
0001
1000
0100
1000
,
0001
0001
1000
0001
,
0100
0001
0010
0001
,
1000
0100
0010
0001
,
1000
0100
1000
0010
,
0100
0001
0010
0000
,
0002
0003
2000
3000
,
0020
0030
0200
0300
,
2002
0000
0000
0000
,
0000
0000
0000
0000
,
3003
0000
0000
0000
,
1000
0000
1000
0000
,
1000
0001
0100
0001
,
0000
0100
0000
0100
,
0000
0100
0010
1000
,
0000
0100
0000
0100
,
0000
0100
0010
0001
,
1000
0001
0100
0001
,
0010
0100
0010
0000
,
0100
1000
0010
0100
,
0002
0003
1000
0001
,
1000
0100
1000
0010
,
0100
0001
2000
3000
,
0001
1000
0200
0300
,
1000
0001
0200
0300
,
1001
0000
0110
0000
,
1001
0000
0120
0000
,
0130
0010
1001
0000
,
0001
0000
1000
0000
,
0100
1000
0100
0000
,
0010
0000
0001
0000
,
0100
0001
1000
0000
,
0100
0000
1000
0000
,
0001
0100
0010
0000
,
0200
0300
0020
0030
,
2000
3000
0002
0003
,
0220
0000
0000
0000
,
0000
0000
0000
0000
,
0330
0000
0000
0000
,
0000
0000
0000
0000
,
1000
0000
0100
0000
,
1000
0100
0010
0001
,
0100
0000
0001
0000
,
0100
0001
0010
0001
,
1001
0000
0110
0000
,
1001
0000
0110
0110
,
1001
1001
1001
1001
,
0110
0110
0220
0000
,
0330
0000
0000
0000
,
0000
0001
0000
1000
,
0000
0001
0100
0001
,
0000
1000
0000
0100
,
0000
1000
0010
0100
,
0000
0010
0000
0010
,
0000
0010
0100
0010
,
0000
0200
0300
0020
,
0030
2000
3000
0002
,
0003
2000
3100
0002
,
0103
0002
0013
0100
,
1000
0020
0130
0200
,
0310
0100
0010
1000
,
0001
2002
0000
0000
,
0000
0000
0000
0000
,
0000
3003
0000
0000
;

//---------------dance-single - ----------------
#NOTEDATA:;
#CHARTNAME:;
#STEPSTYPE:dance-single;
#DESCRIPTION:;
#CHARTSTYLE:;
#DIFFICULTY:Medium;
#METER:6;
#RADARVALUES:0.335685,0.400062,0.071689,0.127446,0.055758,295.000000,286.000000,9.000000,16.000000,0.000000,0.000000,0.000000,0.000000,0.000000,0.335685,0.400062,0.071689,0.127446,0.055758,295.000000,286.000000,9.000000,16.000000,0.000000,0.000000,0.000000,0.000000,0.000000;
#CREDIT:;
#NOTES:
0000
0000
0000
0000
,
0000
0000
0000
0000
,
0000
0000
0000
0000
,
0000
0000
0000
0000
,
0001
0101
0100
0110
,
0010
0000
1010
0000
1000
0010
0100
0000
,
0001
1001
1000
1100
,
0100
0000
0110
0000
0010
0001
0100
0010
,
1000
0000
0001
0100
0001
0000
1000
0100
,
1000
0000
0010
0000
0100
0000
0001
0100
,
0001
0000
0100
0001
0100
0000
0001
0000
,
1000
0000
0100
0010
0001
0000
1000
0100
,
1000
0000
0010
1000
0010
0000
0100
0000
,
0001
0000
1000
0000
0100
0000
0010
0001
,
1000
0000
0000
0000
0000
0000
0001
0000
0100
0000
0000
0100
0000
0000
0100
0000
,
0010
0000
0000
0010
0000
0000
0010
0000
0100
0000
0000
0010
0000
0000
1000
0000
,
0002
0000
0000
0000
,
0000
0000
0000
0000
,
0003
0000
0000
0000
,
1000
0100
1000
0001
,
0010
0000
0001
0000
0100
0010
1000
0001
,
1000
0100
1000
0010
,
0100
0000
0001
0000
1000
0001
1000
0001
,
0100
0001
0010
0001
,
1000
0000
0100
0000
0010
0001
0100
0010
,
1000
0000
0001
0000
0100
0000
0010
1000
,
0001
0000
1000
0001
1000
0000
0000
0000
,
0001
0000
0010
0001
0000
0100
0000
0020
,
0000
0000
0030
0100
0010
0000
0100
0000
,
0001
0000
1000
0010
0000
0100
0000
0001
,
0000
1000
0010
2000
0000
0000
3000
0000
,
0001
0000
0000
1000
0000
0000
0001
0000
0000
0000
0000
0000
0100
0000
0000
0000
,
0010
0000
0000
1000
0000
0000
0001
0000
0100
0000
0000
0000
0000
0000
0000
0000
,
0020
0000
0230
0000
,
0301
0000
0000
1000
0000
0000
0010
0000
0200
0000
0000
0000
0000
0000
0000
0000
,
0301
0000
0000
1000
0000
0000
0010
0000
1001
0000
0000
0000
0001
0000
1000
0000
,
0001
0000
0100
0001
0100
0000
0010
0000
,
1000
0000
0001
0000
0010
0000
0100
1000
,
0100
0000
1000
0010
1000
0000
0010
0000
,
0100
0000
0010
0100
0001
0000
1000
0010
,
1000
0000
0001
0010
0001
0000
0010
0000
,
0100
0000
1000
0001
1000
0000
0000
1000
,
0010
0000
0000
0000
0000
0000
0100
0000
0001
0000
0000
0001
0000
0000
0001
0000
,
0100
0000
0000
0100
0000
0000
0100
0000
0010
0000
0000
1000
0000
0000
0100
0000
,
0020
0000
0000
0000
,
0000
0000
0000
0030
,
0001
0000
0010
0000
,
0001
0000
0100
0000
,
0010
1000
0010
0100
,
0010
1000
0001
1000
,
0001
0100
0001
0010
,
0001
0100
0010
1000
,
0000
0001
1000
0001
0000
1000
0001
1000
,
0000
0001
1000
0001
1000
0000
1001
0000
,
0000
0010
0100
0010
0100
0000
0001
0010
,
0100
0000
0000
1000
0000
0000
0001
0000
0200
0000
0000
0000
0000
0000
0000
0000
,
0020
0000
0000
0000
,
0330
0000
1001
0000
1000
0001
1000
0000
,
0001
0100
0001
0000
0100
0000
0010
0000
,
1000
0100
1000
0000
0001
0100
0001
0000
,
1000
0000
0001
0000
0100
0010
1000
0000
,
0001
0010
0001
0000
0010
0001
0010
0000
,
0001
1000
0100
1000
,
0000
0000
0010
0000
0100
0000
0000
0000
0000
0000
0001
0000
0100
0000
0000
0100
,
0000
0000
0100
0000
0010
0000
0000
0010
0000
0000
0010
0000
0100
0000
0000
0010
,
0000
1000
0002
0000
0103
0000
0002
0000
,
1003
0000
0002
0000
0013
0000
0001
0010
,
0100
1000
0200
0000
1300
0000
0200
0000
,
0310
0000
0200
0000
0301
0000
0001
0100
,
1000
0010
0200
0000
0000
0000
0000
0000
,
0000
0000
0000
0000
,
0000
0000
0000
0300
;

//---------------dance-single - ----------------
#NOTEDATA:;
#CHARTNAME:;
#STEPSTYPE:dance-single;
#DESCRIPTION:;
#CHARTSTYLE:;
#DIFFICULTY:Beginner;
#METER:1;
#RADARVALUES:0.100136,0.170260,0.063723,0.000000,0.000000,88.000000,80.000000,8.000000,0.000000,0.000000,0.000000,0.000000,0.000000,0.000000,0.100136,0.170260,0.063723,0.000000,0.000000,88.000000,80.000000,8.000000,0.000000,0.000000,0.000000,0.000000,0.000000,0.000000;
#CREDIT:;
#NOTES:
0000
0000
0000
0000
,
0000
0000
0000
0000
,
0000
0000
0000
0000
,
0000
0000
0000
0000
,
0010
0000
0000
0000
,
0100
0000
0000
0000
,
0001
0000
0000
0000
,
1000
0000
0001
0000
,
1001
0000
0000
0000
,
1000
0000
0000
0000
,
0010
0000
0000
0000
,
0100
0000
0100
0000
,
0010
0000
0000
0000
,
1000
0000
0000
0000
,
0001
0000
1000
0000
,
0010
0000
0100
0000
,
1001
0000
0000
0000
,
0000
0000
0000
0000
,
0000
0000
0000
0000
,
1000
0000
0000
0000
,
1000
0000
0000
0000
,
0001
0000
0000
0000
,
0001
0000
0000
0000
,
0010
0000
0000
0000
,
0010
0000
0000
0000
,
0100
0000
0000
0000
,
0100
0000
0000
0000
,
1000
0000
1000
0000
,
1000
0000
0000
0000
,
0001
0000
0001
0000
,
0001
0000
0000
0000
,
0010
0000
0000
0000
,
0100
0000
0000
0000
,
0001
0000
1000
0000
,
0010
0000
0100
0000
,
0110
0000
0000
0000
,
1001
0000
0000
0000
,
1000
0000
0000
0000
,
0010
0000
0000
0000
,
0100
0000
0000
0000
,
0001
0000
0000
0000
,
0010
0000
0000
0000
,
0001
0000
1000
0000
,
0010
0000
0100
0000
,
1001
0000
0000
0000
,
0000
0000
0000
0000
,
0000
0000
0000
0000
,
0000
0000
0000
0000
,
1000
0000
0000
0000
,
1000
0000
0000
0000
,
0001
0000
0000
0000
,
0001
0000
0000
0000
,
0100
0000
0100
0000
,
0100
0000
0000
0000
,
0010
0000
0010
0000
,
0010
0010
0010
0000
,
0000
0000
0000
0000
,
0000
1000
0000
0000
,
0000
0001
0000
0000
,
0000
0010
0000
0000
,
0000
0001
0000
1000
,
0000
0010
0000
0000
,
0000
0100
0000
0000
,
0000
0010
0000
0100
,
0000
0001
0000
1000
,
0000
1001
0000
0000
,
0000
1000
0000
0000
,
0000
0001
0000
1000
,
0000
0010
0000
0100
,
0000
1001
0000
0000
,
0000
0000
0000
0000
,
0000
1001
0000
0000
;
