#TITLE:To Make the End of Battle;
#SUBTITLE:(Ys II Special Version);
#ARTIST:Falcom Sound Team jdk / SoundTeMP;
#TITLETRANSLIT:;
#SUBTITLETRANSLIT:;
#ARTISTTRANSLIT:;
#GENRE:;
#CREDIT:usaminseijin;
#BANNER:[Round 1] - To Make the End of Battle (Ys II Special Version).png;
#BACKGROUND:[Round 1] - To Make the End of Battle (Ys II Special Version)-bg.png;
#LYRICSPATH:;
#CDTITLE:cdtitle.png;
#MUSIC:[Round 1] - To Make the End of Battle (Ys II Special Version).ogg;
#OFFSET:-0.091000;
#SAMPLESTART:14.446000;
#SAMPLELENGTH:14.357000;
#SELECTABLE:YES;
#BPMS:0.000000=200.615997
;
#STOPS:
;
#BGCHANGES:0.000=[Round 1] - To Make the End of Battle (Ys II Special Version).avi=1.000=0=0=1=====,
99999=-nosongbg-=1.000=0=0=0 // don't automatically add -songbackground-
;
#KEYSOUNDS:;
#ATTACKS:;

//---------------dance-single - ----------------
#NOTES:
     dance-single:
     :
     Hard:
     9:
     0.579408,0.777013,0.076004,0.849864,0.027638,587.000000,576.000000,11.000000,123.000000,0.000000,0.000000,0.579408,0.777013,0.076004,0.849864,0.027638,587.000000,576.000000,11.000000,123.000000,0.000000,0.000000:
0000
0000
0000
0000
,
0000
0000
0000
0000
,
0000
0000
0000
0000
,
0000
0000
0000
0000
,
1000
0100
1000
0001
1000
0010
1000
0001
,
2000
0000
3002
0000
0203
0020
0330
0000
,
1000
0001
0100
0001
0010
0001
0100
0001
,
1000
0000
0000
0000
0100
0002
0000
0000
2000
0000
0000
0000
3003
0000
0000
0000
,
0100
0001
0100
0010
0100
1000
0100
0010
,
0200
0000
0320
0000
2030
0002
3003
0000
,
0010
1000
0010
0100
0010
0001
0010
0100
,
0010
0000
0000
0000
1000
0002
0000
0000
0200
0000
0000
0000
0303
0000
0000
0000
,
1000
0100
0010
0002
0000
0000
2003
0000
,
3010
0100
0001
0100
0010
1000
0100
1000
,
0002
0000
2003
0000
,
3001
0010
0001
0100
0010
1000
0100
1000
,
0001
0100
0001
0100
0001
1000
0001
1000
,
0010
1000
0010
1000
0010
0100
0010
0100
,
0010
1000
0010
1000
0100
1000
0100
1000
,
0001
0010
0001
0100
0010
1000
0100
1000
,
0200
0000
0000
0000
0000
0000
0000
1300
,
0020
0000
0000
0000
0000
0000
1030
0100
,
1000
0010
1000
0010
0100
0001
1000
0001
,
2000
0000
3002
0013
,
0001
0010
0100
2000
0000
0000
0000
0000
,
0000
0000
0000
0000
3001
0100
0010
1000
,
0100
0010
0001
0020
0000
0000
0000
0000
,
0000
0000
0000
0000
0031
0100
0001
0100
,
0020
0000
0000
2030
0000
0000
3001
0000
,
0020
0000
0000
0230
0000
0000
0310
0000
,
0002
0000
0000
2003
0000
0000
3100
0000
,
0020
0000
0000
0230
0000
0000
1300
0000
,
2002
0000
0000
3003
,
1000
0100
0010
0001
0010
0100
1000
0100
,
0020
0000
0000
0032
0000
0000
1003
0000
,
0020
0000
0000
0230
0000
0000
0301
0000
,
0010
0100
1000
0100
0010
0001
0010
0100
,
1000
0100
0010
0001
0010
0100
1000
0100
,
1000
0001
1000
0001
0100
0010
0100
0020
,
0200
0000
0330
0000
,
1000
0100
0010
0002
0000
0000
0000
0000
,
0000
0000
0000
0000
1003
0001
1000
0001
,
0010
0100
1000
0200
0000
0000
0000
0000
,
0000
0000
0000
0000
1300
0100
0010
0001
,
2000
0000
0000
3002
0000
0000
0103
0000
,
0020
0000
0000
0230
0000
0000
0301
0000
,
2000
0000
0000
3020
0000
0000
0130
0000
,
0002
0000
0000
0023
0000
0000
0130
0000
,
2002
0000
0000
3003
,
0001
0010
0100
1000
0100
0010
0001
0010
,
0200
0000
0000
2300
0000
0000
3001
0000
,
0200
0000
0000
0320
0000
0000
0130
0000
,
0001
1000
0001
1000
0010
0100
0010
0100
,
0010
1000
0010
1000
0001
0100
0001
0100
,
0002
0000
2003
0000
,
3200
0000
0020
0330
,
0022
0000
0033
0000
0100
0010
0001
2000
,
0000
0000
3002
0000
1003
0010
0000
0200
,
0000
0000
0302
0000
1003
0001
0000
2000
,
0000
0000
3200
0000
0000
0020
0330
0000
,
0202
0000
0303
0000
0010
0100
0001
2000
,
0000
0000
3002
0000
1003
0100
0000
0020
,
0000
0000
0032
2003
,
3002
0000
2000
3003
,
1000
0010
0001
1000
0100
0001
1000
0010
,
0001
1000
0100
0001
1000
0001
1000
0001
,
1000
0010
0001
1000
0100
0001
1000
0010
,
0001
1000
0100
0001
0100
0010
0100
0010
,
0100
0001
0010
0100
1000
0010
0100
0001
,
0010
0100
1000
0010
1000
0001
1000
0001
,
0100
0001
0010
0100
1000
0010
0100
0001
,
0010
0100
1000
0010
1000
0001
1000
0001
,
1000
0001
0100
0010
1000
0001
0100
0010
,
1000
0010
0100
0001
1000
0100
0010
0001
,
2000
0000
0000
0000
0000
0000
0000
0000
0000
0000
0000
0000
3000
0000
0001
0010
,
0002
0000
0000
0000
0000
0000
0000
0000
0000
0000
0000
0000
1003
0100
1000
0000
,
0010
0100
0010
1000
0001
1000
0100
0020
,
0200
0000
0000
0330
,
4000
0004
0000
0000
0000
0000
0000
0000
0000
0000
0000
0000
0000
0000
3003
0000
,
0400
0040
0000
0000
0000
0000
0000
0000
0000
0000
0000
0000
0000
0000
0330
0000
,
1000
0100
0010
0002
0000
0000
0000
0000
,
0000
0000
0000
0000
1003
0100
0010
0100
,
1000
0100
0010
0002
0000
0000
0000
0000
,
0000
0000
0000
0000
1003
0001
0100
0010
,
2000
0000
0000
3002
0000
0000
0103
0000
,
0020
0000
0000
0230
0000
0000
0301
0000
,
2000
0000
0000
3020
0000
0000
0130
0000
,
0002
0000
0000
0023
0000
0000
0130
0000
,
2002
0000
0000
3003
,
1000
0100
0010
0001
0010
0100
1000
0100
,
0020
0000
0000
0032
0000
0000
1003
0000
,
0020
0000
0000
0230
0000
0000
0301
0000
,
1000
0100
0010
0100
1000
0100
0010
0100
,
1000
0100
0010
0001
0010
0100
1000
0100
,
0020
0000
0230
0000
,
2300
0000
0002
3003
,
2020
0000
3030
0000
1000
0100
0010
0002
,
0000
0000
0013
0000
0100
2000
0000
3002
,
0000
0000
1003
0000
0010
0100
0000
0002
,
0000
0000
2003
0000
0000
0002
3003
0000
,
2200
0000
3300
0000
1000
0100
0010
0002
,
0000
0000
2003
0000
3010
0200
0000
0302
,
0000
0000
0203
0320
,
4030
0400
0000
0000
0000
0000
0000
0300
3002
0000
0000
0000
0003
0000
0000
0000
,
0100
0001
0010
0100
1000
0010
0100
0001
,
0010
0100
1000
0010
1000
0001
1000
0001
,
0100
0001
0010
0100
1000
0010
0100
0001
,
0010
0100
1000
0010
1000
0001
1000
0001
,
1000
0010
0001
1000
0100
0001
1000
0010
,
0001
1000
0100
0001
1000
0001
1000
0001
,
1000
0010
0001
1000
0100
0001
1000
0010
,
0001
1000
0100
0001
0100
0010
0100
0010
,
1000
0100
1000
0001
1000
0010
1000
0001
,
2000
0000
3002
0000
0203
0020
0330
0000
,
1000
0001
0100
0001
0010
0001
0100
0001
,
1000
0000
0000
0000
0100
0002
0000
0000
2000
0000
0000
0000
3003
0000
0000
0000
,
1000
0001
0001
0100
0010
0010
1000
0001
,
0001
0100
0010
0010
1001
0000
1001
0000
,
1001
0010
0100
1001
0000
0000
0000
0000
;

//---------------dance-single - ----------------
#NOTES:
     dance-single:
     :
     Challenge:
     10:
     0.771886,1.267757,0.386930,0.663309,0.134735,782.000000,726.000000,56.000000,96.000000,0.000000,0.000000,0.771886,1.267757,0.386930,0.663309,0.134735,782.000000,726.000000,56.000000,96.000000,0.000000,0.000000:
0000
0000
0000
0000
,
0000
0000
0000
0000
,
0000
0000
0000
0000
,
0000
0000
0000
0000
,
1000
0100
1000
0001
1000
0010
1000
0001
,
2000
0000
3002
0000
0203
0020
0330
0000
,
1000
0001
0100
0001
0010
0001
0100
0001
,
1000
0000
0000
0000
0001
0100
0000
0000
0001
1000
0001
0000
1000
0000
0010
0000
,
0100
0001
0100
0010
0100
1000
0100
0010
,
0200
0000
0320
0000
2030
0002
3003
0000
,
1000
0010
0100
0010
0001
0010
0100
0010
,
1000
0000
0001
0100
0001
0000
1000
0010
1000
0000
0010
0000
0100
0000
0010
0000
,
1000
0100
0010
0002
0000
0000
2003
0000
,
3010
0100
0001
0100
0010
1000
0100
1000
,
0002
0000
2003
0000
,
3001
0010
0001
0100
0010
1000
0100
1000
,
0001
0100
0001
1001
0000
1001
0000
1000
,
0010
1000
0010
0110
0000
0110
0000
0100
,
0010
1000
0010
1001
0000
1001
0000
1000
,
0001
0010
0001
0100
0010
1000
0100
1000
,
0200
0000
0000
0010
0000
0000
0000
1300
,
0020
0000
0000
0100
0000
0000
1030
0100
,
1000
0000
0010
0000
1000
0000
0010
0000
0100
0000
0001
0000
1000
0000
0001
1000
,
0001
0100
0001
0100
1000
0010
1000
0010
,
1000
0100
0010
0002
0000
0000
1000
0000
,
0000
0000
1000
0000
1003
0100
0010
0100
,
1000
0010
0100
0020
0000
0000
1000
0000
,
0000
0000
0000
0000
1000
0000
0000
0000
1030
0000
0001
1000
0001
0000
1000
0000
,
0020
0000
0100
2030
0000
0000
3001
0000
,
0020
0000
0001
0230
0000
0000
0310
0000
,
0001
0001
1000
0001
0200
0020
0330
0000
,
1000
1000
0110
1000
0001
0100
0010
0000
,
2002
0000
0000
3003
,
1000
0100
0010
0001
0010
0100
1000
0100
,
0020
0000
0100
0032
0000
0000
1003
0000
,
0020
0000
1000
0230
0000
0000
0301
0000
,
0010
0100
1000
0100
0010
0001
0010
0100
,
1000
0100
0010
0001
0010
0100
1000
0100
,
1000
0001
1000
0001
0100
0010
0100
0010
,
0200
0000
0000
0000
0310
0000
0000
0000
0001
1000
0001
1000
0010
0100
0010
0100
,
1000
0100
0010
0002
0000
0000
1000
0000
,
0000
0000
1000
0000
1003
0001
1000
0001
,
0010
0100
1000
0200
0000
0000
0010
0000
,
0000
0000
0000
0000
0010
0000
0000
0000
1300
0000
0100
0010
0100
0000
1000
0000
,
0002
0000
0100
2003
0000
0000
3100
0000
,
0020
0000
0001
0230
0000
0000
1300
0000
,
0001
0001
1000
0001
0200
0020
0330
0000
,
1000
1000
0011
1000
0010
0100
0001
0000
,
2002
0000
0000
3003
,
0001
0010
0100
1000
0100
0010
0001
0010
,
0200
0000
0010
2300
0000
0000
3001
0000
,
0200
0000
0001
0320
0000
0000
0130
0000
,
0001
1000
0001
1000
0010
0100
0010
0100
,
0010
1000
0010
1000
0001
0100
0001
0100
,
0002
0100
2003
0010
,
3001
0000
0010
0001
0010
0000
0001
0000
1000
0000
0001
0000
1000
0000
0001
0000
,
0012
0000
1003
0000
0100
0010
0001
2000
,
0000
0000
3002
0000
1003
0010
0000
0200
,
0000
0000
0302
0000
1003
0001
0100
0010
,
0000
0000
0201
0000
0000
0020
0330
0000
,
0201
0000
0310
0000
0010
0100
0001
2000
,
0000
0000
3002
0000
1003
0100
0000
0020
,
0000
0001
0032
2003
,
3001
0100
0100
1001
1000
0110
0010
0110
,
1000
0010
0001
1000
0100
0001
1000
0010
,
0001
1000
0100
0001
1001
1000
1001
0001
,
1000
0010
0001
1000
0100
0001
1000
0010
,
0001
1000
0100
0001
0110
0100
0110
0010
,
0100
0001
0010
0100
1000
0010
0100
0001
,
0010
0100
1000
0010
1001
0001
1001
1000
,
0100
0001
0010
0100
1000
0010
0100
0001
,
0010
0000
0100
0000
1000
0000
0010
0000
1000
0001
1000
0000
1001
0000
0001
0000
,
1000
0001
0100
0010
1000
0001
0100
0010
,
1000
0010
0100
0001
1000
0100
0010
0001
,
2000
0000
0000
0000
0001
0000
0000
0000
0000
0000
0000
0000
3001
0000
0001
0010
,
0002
0000
0000
0000
1000
0000
0000
0000
0003
0000
1000
0100
1000
0000
0000
0000
,
0010
0100
0010
1001
0001
1001
0100
0010
,
0200
0000
0000
0001
0000
0001
0300
0000
,
1000
0010
1000
0010
0100
0001
0100
0001
1000
0100
1000
0100
0010
0001
0010
0001
,
1000
0001
1000
0001
0100
0010
0100
0010
1000
0000
1001
0000
0001
0000
1001
0000
,
1000
0100
0010
0002
0000
0000
1000
0000
,
0000
0000
1000
0000
1003
0100
0010
0100
,
1000
0100
0010
0002
0000
0000
0100
0000
,
0000
0000
0000
0000
0100
0000
0000
0000
1003
0000
0001
1000
0001
0000
0100
0000
,
0002
0000
0100
2003
0000
0000
3100
0000
,
0020
0000
1000
0230
0000
0000
1300
0000
,
1000
1000
0010
1000
0002
0200
0303
0000
,
0001
0001
0110
0001
1000
0010
0100
0000
,
2002
0000
0000
3003
,
1000
0100
0010
0001
0010
0100
1000
0100
,
0020
0000
0100
0032
0000
0000
1003
0000
,
0020
0000
1000
0230
0000
0000
0301
0000
,
1000
0100
0010
0100
1000
0100
0010
0100
,
1000
0100
0010
0001
0010
0100
1000
0100
,
0020
1000
0230
0010
,
1300
0000
0100
1000
0100
0000
1000
0000
1001
0000
0100
0000
0110
0000
0010
0000
,
2020
0000
3030
0000
1000
0100
0010
0002
,
0000
0000
0013
0000
0100
2000
0010
3002
,
0000
0000
1003
0000
0010
0100
0010
1000
,
0000
0000
0102
0000
0000
2000
3003
0000
,
2200
0000
3300
0000
1000
0100
0010
0002
,
0000
0000
2003
0000
3010
0200
0010
0302
,
0000
1000
0203
0320
,
0130
0001
0100
0001
0100
0001
0100
0001
1000
0000
0010
0000
0110
0000
0010
0000
,
1000
0010
0001
1000
0100
0001
1000
0010
,
0001
1000
0100
0001
1001
1000
1001
0001
,
1000
0010
0001
1000
0100
0001
1000
0010
,
0001
1000
0100
0001
0110
0100
0110
0010
,
1000
0000
0001
0010
0001
0000
0010
0000
0001
0100
0001
0000
1000
0000
0010
1000
,
0010
0000
1000
0000
0100
1000
0100
0000
1001
0000
0001
0000
1001
0000
1000
0000
,
1010
0010
0010
0110
0100
0100
0101
0001
,
0001
1001
1000
1010
0100
0110
0010
0110
,
1000
0100
1000
0001
1000
0010
1000
0001
,
2000
0000
3002
0000
0203
0020
0330
0000
,
1000
0001
0100
0001
0010
0001
0100
0001
,
1000
0000
0100
1000
0100
0000
0010
0001
0010
0000
0100
0000
0110
0000
0100
0000
,
1000
0001
1001
0100
0010
0110
0001
1000
,
1001
0010
0100
0110
1001
0000
1001
0000
,
0100
0010
0100
0110
0000
0000
0000
0000
;

//---------------dance-single - ----------------
#NOTES:
     dance-single:
     :
     Medium:
     8:
     0.546835,0.736117,0.255650,0.753132,0.000000,554.000000,517.000000,37.000000,109.000000,0.000000,0.000000,0.546835,0.736117,0.255650,0.753132,0.000000,554.000000,517.000000,37.000000,109.000000,0.000000,0.000000:
0000
0000
0000
0000
,
0000
0000
0000
0000
,
0000
0000
0000
0000
,
0000
0000
0000
0000
,
1000
0001
1000
0001
1000
0010
1000
0010
,
1000
0000
1001
0000
0001
1000
0000
0000
,
0010
0001
0010
0001
0100
0001
0100
0001
,
2000
3001
2002
3003
,
0100
0010
0100
0010
0100
0001
0100
0001
,
0100
0000
0110
0000
1000
0010
0000
0000
,
1000
0010
1000
0010
1000
0100
1000
0100
,
2000
3010
0220
0330
,
1000
0100
0010
0002
0000
0000
1003
0000
,
0001
1000
0001
1000
0010
0100
0010
0100
,
0002
0003
2000
3000
,
0010
1000
0010
1000
0001
0100
0001
0100
,
0001
1000
0001
1000
0010
1000
0010
1000
,
0100
1000
0100
1000
0001
1000
0001
1000
,
0001
0100
0001
0100
0001
1000
0001
1000
,
0001
0010
0001
0010
0001
1000
0001
1000
,
0020
0000
0000
0000
0030
0000
0000
0100
,
0002
0000
0000
0000
0003
0000
1000
0100
,
1000
0001
1000
0001
0100
0001
0100
0001
,
2000
0000
3001
0001
,
1000
0100
1000
0200
0000
0000
0000
0000
,
0000
0000
0300
0000
0010
0001
0010
0001
,
1000
0001
1000
0002
0000
0000
0000
0000
,
0000
0000
0003
0000
1000
0001
1000
0001
,
2000
0000
3000
0002
0000
0003
1000
0000
,
0020
0000
0030
0200
0000
0300
0010
0000
,
2000
0000
3000
0002
0000
0003
0100
0000
,
0020
0000
0030
0200
0000
0300
0001
0000
,
2002
0000
0000
3003
,
0100
0010
0100
0010
1000
0001
1000
0001
,
2000
0000
3000
0002
0000
0003
0100
0000
,
0020
0000
0030
0200
0000
0300
0010
0000
,
1000
0001
1000
0001
1000
0010
1000
0010
,
1000
0001
1000
0001
0100
0001
0100
0001
,
1000
0010
1000
0010
0100
0010
0100
0010
,
2000
0000
3000
0000
,
0001
0100
0001
0200
0000
0000
0000
0000
,
0300
0000
0000
0000
0010
0100
0010
0100
,
0010
1000
0010
2000
0000
0000
0000
0000
,
3000
0000
0000
0000
0001
1000
0001
1000
,
0002
0000
0003
2000
0000
3000
0010
0000
,
0200
0000
0300
0020
0000
0030
1000
0000
,
0002
0000
0003
2000
0000
3000
0001
0000
,
0200
0000
0300
0020
0000
0030
0100
0000
,
2002
0000
3003
0000
,
0100
0010
0100
0010
0100
0001
0100
0001
,
2000
0000
3000
0002
0000
0003
1000
0000
,
0020
0000
0030
0200
0000
0300
0010
0000
,
1000
0001
1000
0001
0100
0010
0100
0010
,
1000
0010
1000
0010
0100
0001
0100
0001
,
2000
3000
0002
0003
,
0200
0300
0020
0030
,
2000
0000
3000
0000
0001
0010
0001
0020
,
0000
0030
0001
0000
1000
0001
0000
2000
,
0000
3000
0010
0000
0100
0010
0000
2000
,
0000
3000
0020
0000
0030
0200
0000
0300
,
0002
0000
0003
0000
1000
0100
1000
0020
,
0000
0030
0100
0000
0010
0100
0000
0002
,
0000
0003
2000
3001
,
0220
0330
2002
3003
,
1001
0000
0000
1000
0000
0000
1001
0000
,
0000
0001
0000
0000
0110
0000
1001
0000
,
0100
0010
0100
0010
0100
0010
0100
0010
,
0100
0010
0100
0010
1001
0000
1001
0000
,
0110
0000
0000
0100
0000
0000
0110
0000
,
0000
0010
0000
0000
1001
0000
0110
0000
,
1000
0001
1000
0001
1000
0001
1000
0001
,
1000
0001
1000
0001
2000
0000
3001
0000
,
1000
0100
1000
0100
0010
0001
0010
0001
,
1000
0001
1000
0001
0100
0010
0100
0010
,
2000
0000
0000
0000
3000
0000
0000
0001
,
0200
0000
0000
0000
0300
0000
0010
0100
,
0001
1000
0001
1000
0001
0100
0001
0100
,
0002
0000
0003
0000
,
2002
0000
0000
0000
,
3003
0000
0000
0000
1000
0001
1000
0001
,
1000
0100
1000
0200
0000
0000
0000
0000
,
0300
0000
0000
0000
0010
0001
0010
0001
,
0100
0010
0100
0020
0000
0000
0000
0000
,
0030
0000
0000
0000
1000
0100
1000
0100
,
2000
0000
3000
0002
0000
0003
0100
0000
,
0020
0000
0030
0200
0000
0300
0001
0000
,
2000
0000
3000
0020
0000
0030
0100
0000
,
0002
0000
0003
0200
0000
0300
0010
0000
,
2000
0000
3000
0000
,
0100
0010
0100
0010
1000
0100
1000
0100
,
2000
0000
3000
0002
0000
0003
1000
0000
,
0020
0000
0030
0200
0000
0300
0010
0000
,
1000
0100
1000
0100
0010
0001
0010
0001
,
1000
0010
1000
0010
0100
0001
0100
0001
,
2000
3000
0002
0003
,
0200
0300
0020
0030
,
2000
0000
3000
0000
0001
0010
0001
0200
,
0000
0300
0002
0000
1003
0100
0000
0020
,
0000
0030
0100
0000
1000
0100
0000
0020
,
0000
0030
0002
0000
0003
1000
0000
0000
,
0020
0000
0030
0000
0100
0010
0100
0002
,
0000
0003
1000
0000
0010
1000
0000
0002
,
0000
0003
0000
0000
2000
0000
3001
0000
,
0220
0330
2002
3003
,
1001
0000
0000
1000
0000
0000
1001
0000
,
0000
0001
0000
0000
0110
0000
1001
0000
,
0100
0010
0100
0010
0100
0010
0100
0010
,
0100
0010
0100
0010
1001
0000
1001
0000
,
2000
0000
3000
0002
0000
0003
2000
0000
,
3000
0002
0000
0003
1001
0000
0110
0000
,
1000
0001
0100
0010
1000
0001
0100
0010
,
1000
0001
0100
0010
1000
0010
0100
0001
,
1000
0001
1000
0001
1000
0010
1000
0010
,
1000
0000
1001
0000
0001
1000
0000
0000
,
0010
0001
0010
0001
0100
0001
0100
0001
,
2000
3001
2002
3003
,
0110
0000
0000
1001
0000
0000
0110
0000
,
0000
1001
0000
0000
1100
0000
0101
0000
,
1000
0001
1000
0001
0000
0000
0000
0000
;

//---------------dance-single - ----------------
#NOTES:
     dance-single:
     :
     Easy:
     6:
     0.536964,0.736117,0.324745,0.138189,0.000000,544.000000,497.000000,47.000000,20.000000,0.000000,0.000000,0.536964,0.736117,0.324745,0.138189,0.000000,544.000000,497.000000,47.000000,20.000000,0.000000,0.000000:
0000
0000
0000
0000
,
0000
0000
0000
0000
,
0000
0000
0000
0000
,
0000
0000
0000
0000
,
1000
0000
1001
0000
0010
0100
0010
0000
,
0010
0000
1001
0000
0100
0010
0100
0000
,
0001
0000
1001
0000
1000
0001
1000
0000
,
0010
0000
0110
0000
1000
0001
1000
0001
,
0100
0000
0110
0000
1000
0100
1000
0000
,
0001
0000
1001
0000
0010
0001
0010
0000
,
0100
0000
0110
0000
0001
1000
0001
0000
,
1000
0000
0001
0000
2002
0000
0000
3003
,
1000
1001
0000
0100
,
0100
0010
0100
0010
,
2000
0000
3002
0000
,
1003
0100
0010
0001
,
1000
0000
0000
0110
0000
0110
0000
0000
,
0001
1000
0001
0100
0000
0110
0000
0000
,
0010
0000
0000
1001
0000
1001
0000
0000
,
0100
0010
0100
0010
0000
1000
0000
0001
,
1000
0000
0000
1001
0000
0000
0010
0000
,
0100
0000
0100
0010
0000
0000
1000
0000
,
1000
0001
1000
0001
,
0100
0010
0220
0330
,
1000
0000
0001
0000
0000
0100
0010
0000
,
1000
0001
1000
0001
0000
0100
0010
0000
,
1000
0000
0100
0000
0000
0010
0001
0000
,
1000
0100
0010
0001
0000
1001
0000
0000
,
0010
0000
0001
0100
0000
0100
0001
0000
,
1000
0000
0010
1000
0000
1000
0010
0000
,
1000
0000
0100
1000
0000
0001
1000
0000
,
0010
0100
0010
0100
0010
0100
0010
0000
,
1000
0000
0100
0000
0000
0010
0001
0000
,
1000
0000
0100
1000
0000
0001
0010
0000
,
0001
0000
0100
0000
0000
0010
0100
0000
,
0001
0000
1000
0010
0000
0100
0001
0000
,
1000
0000
0001
0010
0000
0100
1000
0000
,
0010
0000
0100
0010
0000
1000
0001
0000
,
1000
0000
0100
1000
0000
1000
0001
0000
,
0100
0010
0220
0330
,
0001
0000
1000
0000
0000
0010
1000
0000
,
0010
0100
0010
0100
0000
0010
1000
0000
,
0001
0000
0100
0000
0000
0010
1000
0000
,
0001
0010
0001
0010
0000
1100
0000
0000
,
1000
0000
0100
1000
0000
1000
0001
0000
,
0100
0000
0010
0100
0000
0100
0001
0000
,
1000
0000
0001
0100
0000
0100
0010
0000
,
1000
0001
1000
0001
1000
0001
1000
0000
,
0010
0000
0100
0000
0000
0010
0100
0000
,
0001
0000
1000
0001
0000
0100
0001
0000
,
1000
0000
0010
0000
0000
0100
0010
0000
,
1000
0000
0001
0100
0000
0010
0100
0000
,
1000
0000
0001
1000
0000
1000
0001
0000
,
0100
0000
0010
0100
0000
0100
0010
0000
,
2000
3000
0200
0300
,
0020
0030
0002
0003
,
1000
0000
0001
0000
0000
1000
0010
0000
,
0100
0000
0010
0100
0000
0001
1000
0000
,
0001
0000
0100
0000
0000
0010
0100
0000
,
0001
0100
0010
1000
0000
0001
1000
0000
,
0010
0000
0100
0000
0000
0010
1000
0000
,
0001
0000
0100
0010
0000
1000
0001
0000
,
1000
0000
0010
0100
0000
0010
1000
0000
,
0101
0010
1010
0100
,
1000
0000
0000
0001
0000
0000
1000
0000
,
0000
0001
0000
0000
0100
0000
0010
0000
,
0100
0000
0000
0010
0000
0000
0100
0000
,
0000
0010
0000
0000
1000
0000
0001
0000
,
1000
0000
0000
1001
0000
0000
0001
0000
,
0000
1001
0000
0000
0100
0000
0110
0000
,
0010
0000
0000
0110
0000
0000
0100
0000
,
0000
0110
0000
0000
2002
0000
3003
0000
,
1000
0001
1000
0001
,
0100
0010
0100
0010
,
1000
0100
0001
0101
,
1000
0100
0001
0010
,
1000
0000
0000
1001
0000
1001
0000
0000
,
0100
0000
0000
0110
0000
0110
0000
0000
,
1000
0001
1000
0001
,
0100
0000
0010
0000
0100
0010
0100
0010
,
1000
0000
0001
0000
0000
0100
0010
0000
,
1000
0001
1000
0001
0000
0100
0010
0000
,
1000
0000
0100
0000
0000
0010
0001
0000
,
1000
0100
0010
0001
0000
1001
0000
0000
,
0010
0000
0001
0100
0000
0100
0001
0000
,
1000
0000
0010
1000
0000
1000
0010
0000
,
1000
0000
0100
1000
0000
0001
1000
0000
,
0010
0100
0010
0100
0010
0100
0010
0000
,
1000
0000
0100
0000
0000
0010
0001
0000
,
1000
0000
0100
1000
0000
0001
0010
0000
,
0001
0000
0100
0000
0000
0010
0100
0000
,
0001
0000
1000
0010
0000
0100
0001
0000
,
1000
0000
0001
0010
0000
0100
1000
0000
,
0010
0000
0100
0010
0000
1000
0001
0000
,
2000
3000
0200
0300
,
0020
0030
0002
0003
,
1000
0000
0001
0000
0000
1000
0010
0000
,
0100
0000
0010
0100
0000
0001
1000
0000
,
0001
0000
0100
0000
0000
0010
0100
0000
,
0001
0010
0100
1000
0000
0001
1000
0000
,
0010
0000
0100
0000
0000
0010
1000
0000
,
0001
0000
0100
0010
0000
1000
0001
0000
,
1000
0000
0010
0100
0000
0010
1000
0000
,
0101
0010
1010
0100
,
1000
0000
0000
0001
0000
0000
1000
0000
,
0000
0001
0000
0000
0100
0000
0010
0000
,
0100
0000
0000
0010
0000
0000
0100
0000
,
0000
0010
0000
0000
1000
0000
0001
0000
,
1000
0000
0000
1001
0000
0000
0001
0000
,
0000
1001
0000
0000
0100
0000
0110
0000
,
0010
0000
0000
0110
0000
0000
0100
0000
,
0000
0110
0000
0000
2002
0000
3003
0000
,
1000
0000
1001
0000
0010
0100
0010
0000
,
0010
0000
1001
0000
0100
0010
0100
0000
,
0001
0000
1001
0000
1000
0001
1000
0000
,
0010
0000
0110
0000
1000
0001
1000
0001
,
0100
0010
0100
0001
1000
0001
0010
0100
,
0010
0001
1000
0001
0110
0000
0110
0000
,
1000
0001
1000
0001
0000
0000
0000
0000
;

//---------------dance-single - ----------------
#NOTES:
     dance-single:
     :
     Beginner:
     4:
     0.251702,0.368447,0.172737,0.152008,0.000000,255.000000,230.000000,25.000000,22.000000,0.000000,0.000000,0.251702,0.368447,0.172737,0.152008,0.000000,255.000000,230.000000,25.000000,22.000000,0.000000,0.000000:
// measure 0
0000
0000
0000
0000
,  // measure 1
0000
0000
0000
0000
,  // measure 2
0000
0000
0000
0000
,  // measure 3
0000
0000
0000
0000
,  // measure 4
1000
0000
1000
0000
,  // measure 5
0001
0000
0001
0000
,  // measure 6
0100
0000
0100
0000
,  // measure 7
0020
0000
0000
0030
,  // measure 8
0100
0000
0100
0000
,  // measure 9
0010
0000
0010
0000
,  // measure 10
1000
0000
1000
0000
,  // measure 11
0002
0000
0000
0003
,  // measure 12
2002
0000
0000
0000
,  // measure 13
3003
0000
0000
0000
,  // measure 14
1000
0000
0000
0000
,  // measure 15
0001
0000
0000
0000
,  // measure 16
0100
0000
0000
0000
,  // measure 17
0110
0000
0000
0000
,  // measure 18
0010
0000
0000
0000
,  // measure 19
0110
0000
0000
0000
,  // measure 20
1000
0000
0000
0000
,  // measure 21
1001
0000
0000
0000
,  // measure 22
1000
0000
0001
0000
,  // measure 23
0100
0010
0100
0010
,  // measure 24
1000
1000
0001
0000
,  // measure 25
0001
0001
0100
0000
,  // measure 26
0010
0010
0100
0000
,  // measure 27
1000
1000
0001
0000
,  // measure 28
0100
0000
0010
0000
,  // measure 29
1000
0000
0001
0000
,  // measure 30
0100
0000
0001
0000
,  // measure 31
1000
1000
0001
0001
,  // measure 32
0100
0000
0010
0000
,  // measure 33
1000
0000
0001
0000
,  // measure 34
0100
0000
0001
0000
,  // measure 35
1000
0000
0010
0000
,  // measure 36
1000
0000
0100
0000
,  // measure 37
0010
0000
0001
0000
,  // measure 38
1000
0001
1000
0001
,  // measure 39
0200
0000
0300
0000
,  // measure 40
1000
1000
0001
0000
,  // measure 41
0100
0100
0010
0000
,  // measure 42
1000
1000
0100
0000
,  // measure 43
0010
0010
0001
0000
,  // measure 44
1000
0001
1000
0000
,  // measure 45
0010
0100
0010
0000
,  // measure 46
0001
1000
0001
0000
,  // measure 47
0010
0100
0010
0100
,  // measure 48
1000
0000
0001
0000
,  // measure 49
0100
0000
0010
0000
,  // measure 50
1000
0000
0100
0000
,  // measure 51
0010
0000
0001
0000
,  // measure 52
1000
0000
0010
0000
,  // measure 53
0100
0000
0001
0000
,  // measure 54
1000
0000
0001
0000
,  // measure 55
0100
0000
0010
0000
,  // measure 56
1001
0000
1000
0000
,  // measure 57
0001
0001
1000
0000
,  // measure 58
0110
0000
0100
0000
,  // measure 59
0010
0010
0100
0000
,  // measure 60
0011
0000
1000
0000
,  // measure 61
0001
1000
0001
0000
,  // measure 62
1100
0000
0010
0000
,  // measure 63
0001
0010
0001
0000
,  // measure 64
2002
0000
0000
0000
,  // measure 65
3003
0000
0000
0000
,  // measure 66
0220
0000
0000
0000
,  // measure 67
0330
0000
0000
0000
,  // measure 68
2020
0000
0000
0000
,  // measure 69
3030
0000
0000
0000
,  // measure 70
0202
0000
0000
0000
,  // measure 71
0303
0000
0000
0000
,  // measure 72
1000
0001
1000
0001
,  // measure 73
0100
0010
0100
0010
,  // measure 74
1000
0000
0010
0100
,  // measure 75
0010
0000
0110
0000
,  // measure 76
1001
0000
0000
0000
,  // measure 77
0110
0000
0000
0000
,  // measure 78
1000
0000
0001
0000
,  // measure 79
0100
0001
1000
0010
,  // measure 80
1000
1000
0001
0000
,  // measure 81
0001
0001
0100
0000
,  // measure 82
0010
0010
0100
0000
,  // measure 83
1000
1000
0001
0000
,  // measure 84
0100
0000
0010
0000
,  // measure 85
1000
0000
0001
0000
,  // measure 86
0100
0000
0001
0000
,  // measure 87
1000
1000
0001
0001
,  // measure 88
0100
0000
0010
0000
,  // measure 89
1000
0000
0001
0000
,  // measure 90
0100
0000
0001
0000
,  // measure 91
1000
0000
0010
0000
,  // measure 92
1000
0000
0100
0000
,  // measure 93
0010
0000
0001
0000
,  // measure 94
1000
0000
0001
0000
,  // measure 95
0100
0000
0010
0000
,  // measure 96
1001
0000
1000
0000
,  // measure 97
0001
0001
1000
0000
,  // measure 98
0110
0000
0100
0000
,  // measure 99
0010
0010
0100
0000
,  // measure 100
0011
0000
1000
0000
,  // measure 101
0001
1000
0001
0000
,  // measure 102
1100
0000
0010
0000
,  // measure 103
0001
0010
0001
0000
,  // measure 104
2002
0000
0000
0000
,  // measure 105
3003
0000
0000
0000
,  // measure 106
0220
0000
0000
0000
,  // measure 107
0330
0000
0000
0000
,  // measure 108
2020
0000
0000
0000
,  // measure 109
3030
0000
0000
0000
,  // measure 110
0202
0000
0000
0000
,  // measure 111
0303
0000
0000
0000
,  // measure 112
1000
0000
1000
0000
,  // measure 113
0001
0000
0001
0000
,  // measure 114
0100
0000
0100
0000
,  // measure 115
0020
0000
0000
0030
,  // measure 116
1001
0000
0000
0110
,  // measure 117
0000
0000
1000
0001
,  // measure 118
0100
0010
0100
0000
;
