#TITLE:The Queen;
#SUBTITLE:;
#ARTIST:M2U;
#TITLETRANSLIT:;
#SUBTITLETRANSLIT:;
#ARTISTTRANSLIT:;
#GENRE:;
#CREDIT:;
#BANNER:[Round 1] - The Queen.png;
#BACKGROUND:[Round 1] - The Queen-bg.png;
#LYRICSPATH:;
#CDTITLE:;
#MUSIC:[Round 1] - The Queen.ogg;
#OFFSET:-0.067000;
#SAMPLESTART:69.180046;
#SAMPLELENGTH:12.000000;
#SELECTABLE:YES;
#BPMS:0.000000=124.999992
;
#STOPS:
;
#BGCHANGES:;
#KEYSOUNDS:;
#ATTACKS:;

//---------------dance-single - ----------------
#NOTES:
     dance-single:
     :
     Hard:
     10:
     0.556363,0.703181,0.278181,0.247272,0.468787,378.000000,351.000000,27.000000,24.000000,0.000000,0.000000,0.556363,0.703181,0.278181,0.247272,0.468787,378.000000,351.000000,27.000000,24.000000,0.000000,0.000000:
// measure 0
0000
0000
0000
0000
,  // measure 1
0000
0000
0000
0000
,  // measure 2
0000
0000
0000
0000
,  // measure 3
0000
0000
0000
0000
,  // measure 4
0001
0000
0000
0000
0001
0000
0000
0000
1000
0000
0010
0100
0010
0000
1000
0000
,  // measure 5
0100
0000
0000
0000
0010
0000
0000
0000
0100
0000
1000
0100
1000
0000
0010
0000
,  // measure 6
0100
0000
0000
0000
0010
0000
0000
0000
0100
0000
0001
1000
0001
0000
0010
0000
,  // measure 7
0100
0000
0000
0010
0000
0000
0001
1000
0000
0000
0000
0000
0010
1000
0000
0100
,  // measure 8
0000
0000
0010
0000
0001
0000
0200
0000
0310
0000
0000
0100
0001
1000
0100
0000
,  // measure 9
0010
0000
0001
0000
1000
0000
0020
0000
0000
0000
0130
0000
0001
1000
0100
0000
,  // measure 10
0010
0000
0010
0000
0001
0000
0001
0000
0200
0000
0000
1000
0300
0000
0100
0010
,  // measure 11
0100
0001
0010
0200
0000
0000
1300
0000
,  // measure 12
0011
0000
0000
0000
0010
0000
0001
0000
0100
0000
0000
0010
0100
0000
0010
0000
,  // measure 13
1000
0000
0000
0100
0010
0000
0001
1000
0010
0000
0000
0000
0110
0000
0000
0000
,  // measure 14
1100
0000
0000
0000
1000
0000
0100
0000
0010
0000
0000
0100
0010
0000
0001
0000
,  // measure 15
1000
0000
0000
0010
1000
0000
0010
0000
0101
0000
0000
0000
0010
0000
0000
0000
,  // measure 16
1100
0000
0000
0000
1000
0000
0010
0000
0100
0000
0000
0100
0010
0000
0100
0000
,  // measure 17
0001
1000
1100
0110
,  // measure 18
0011
0000
0000
0000
0010
0000
0100
0000
1000
0000
0000
1000
0100
0000
0010
0000
,  // measure 19
0001
0000
0100
0010
1010
0000
0010
0000
,  // measure 20
0101
0000
0000
0000
0001
0000
0010
0000
0100
0000
0100
0010
0001
0000
0020
0000
,  // measure 21
0100
0000
0030
0100
0010
0000
0001
0000
0100
0000
0000
0000
0110
0000
0000
0000
,  // measure 22
1001
0000
0000
0000
1000
0000
0010
0000
0100
0000
0010
1000
0000
0000
1000
0000
,  // measure 23
0100
0000
0000
0010
0000
0000
0100
0000
1000
0000
0001
0000
1000
0010
0000
1010
,  // measure 24
0000
0000
1000
0001
0010
0000
0010
0000
0001
0000
0000
0000
1001
0000
1000
0010
,  // measure 25
0100
0000
0010
0000
1000
0000
0200
0000
0300
0000
0100
1000
0001
0000
0100
0000
,  // measure 26
0010
0000
0010
0000
0100
0000
0100
0000
1000
0000
0000
0100
0010
0000
0100
0001
,  // measure 27
0100
0000
0010
0000
1000
0000
0002
0000
0000
0000
0013
0000
0100
0010
0000
0110
,  // measure 28
0000
0000
0010
0100
0010
0000
0001
0000
0010
0000
0000
0100
0000
0000
0100
0010
,  // measure 29
0001
0000
0010
0000
0100
0000
1000
0000
0000
0000
0001
0100
0010
0000
1000
0000
,  // measure 30
0100
0000
0100
0000
0001
0000
0001
0000
0100
0000
0000
0010
0100
0000
1000
0010
,  // measure 31
1000
0010
0100
0020
0000
0000
0030
0000
,  // measure 32
0100
0000
0000
0100
0000
0010
1000
0100
0010
0000
0000
0010
0000
0001
1000
0001
,  // measure 33
0100
0000
0010
0100
0010
1000
0001
0010
0000
0010
0001
0100
0001
1000
0010
0100
,  // measure 34
0000
0000
1010
0000
0000
1000
0001
0010
0100
0010
0100
1000
0100
1000
0001
0100
,  // measure 35
0010
1000
0000
0010
0000
1000
0100
0000
0001
0000
0000
0000
0110
0000
0000
0000
,  // measure 36
1100
0000
0000
0000
1000
0010
0100
0001
0020
0000
0000
0000
1030
0000
0010
0000
,  // measure 37
0001
0000
0100
0010
0100
0000
0010
0000
1000
0000
0010
0000
1010
0000
0000
0000
,  // measure 38
1100
0000
0100
0000
0010
0100
0010
0001
0010
0000
0001
1000
0000
0010
1000
0000
,  // measure 39
0200
0320
0032
0203
0320
0032
0023
1030
,  // measure 40
1001
0000
0000
0000
1000
0010
0100
0010
1000
0100
0010
0100
0001
0000
0100
0000
,  // measure 41
1000
0000
1000
0010
0000
0000
1010
0000
1000
0001
0010
0001
0100
0010
0100
0001
,  // measure 42
0010
0000
0011
0002
2003
3020
0032
2003
,  // measure 43
3200
0000
0301
0000
1000
0100
0010
0100
1000
0010
0100
0001
0010
0001
0000
0011
,  // measure 44
0000
0000
0010
0001
0100
0000
0000
0000
0000
0000
0000
0000
0000
0000
0000
0000
,  // measure 45
1010
0000
0000
0110
0000
0000
1001
0000
0000
0000
0000
1000
0001
0010
0001
0100
,  // measure 46
0010
0000
0010
0000
1000
0000
1000
0000
0100
0000
0000
0100
0010
0000
0001
0000
,  // measure 47
1000
0000
0010
0000
0100
0000
2000
0000
0000
0000
3000
0100
0010
0000
0100
0000
,  // measure 48
0000
0100
0001
0000
0000
0001
0010
0000
0020
0000
0000
0000
0130
0000
0000
0000
;

//---------------dance-single - ----------------
#NOTES:
     dance-single:
     :
     Medium:
     7:
     0.413592,0.426931,0.309090,0.020606,0.103030,281.000000,251.000000,30.000000,2.000000,0.000000,0.000000,0.413592,0.426931,0.309090,0.020606,0.103030,281.000000,251.000000,30.000000,2.000000,0.000000,0.000000:
0000
0000
0000
0000
,
0000
0000
0000
0000
,
0000
0000
0000
0000
,
0000
0000
0000
0000
,
1000
0000
0001
0000
0001
1000
0010
0100
,
0010
0000
0100
0000
0010
0100
0001
1000
,
0100
0000
0010
0000
0001
0010
0100
1000
,
0010
0000
0000
1000
0000
0000
0000
0000
0000
0000
0000
0000
1000
0000
0000
0000
,
1100
0000
0100
0010
0001
0000
0001
0000
,
0010
0100
1000
0010
0000
0100
0010
0100
,
0001
0001
1000
1000
0100
0000
0010
0000
,
0001
1000
0001
0200
0000
0000
0300
0000
,
0110
0000
0100
0010
0100
0000
0001
0000
,
0011
0000
0010
0001
0010
0000
0100
0000
,
1010
0000
0000
0000
1000
0000
0010
0000
0100
0000
0000
0010
0000
0000
0100
0000
,
0001
0010
0110
0101
,
1001
0000
1000
0001
0010
0000
0011
0000
,
1100
0000
0100
1000
0100
0000
0010
0000
,
0110
0000
0000
0000
0100
0000
0000
0000
0010
0000
0000
0010
0000
0000
0010
0000
,
0001
0000
1000
0010
0100
0000
1010
0000
,
0101
0000
0001
0010
0100
0000
0010
0001
,
1000
0000
1000
0010
0100
0000
0110
0000
,
1010
0000
0000
0000
1000
0000
0100
0000
0010
0000
0000
0010
0000
0000
0100
0000
,
1000
0000
0000
0000
0001
0000
0000
0000
1000
0000
0010
0000
0010
0100
0000
0010
,
0000
0000
0010
0000
1010
0000
1000
0001
,
0010
0010
0001
0100
0000
0001
0010
0100
,
0010
0010
0100
0100
0010
0000
0011
0000
,
0001
0000
0010
0000
0100
0000
1000
0000
0000
0000
0000
0000
0001
1000
0000
0010
,
0000
0100
1000
0100
0010
0000
1010
0000
,
0011
0010
0100
0010
0000
0001
1000
0000
,
1000
0010
1000
0001
0010
0000
0100
0000
,
0110
0010
0001
2000
0000
3000
1001
0000
,
0001
0000
0000
0100
0000
0000
0100
0000
0001
0000
0000
0000
1000
0000
0000
0000
,
0010
0000
0000
1000
0000
0000
0100
0000
0010
0000
0000
0000
0001
0000
0000
0000
,
0010
1000
0010
0001
,
1000
0010
0000
1000
0000
0010
0100
0000
0010
0000
0000
0000
0100
0000
0000
0000
,
0001
0000
0100
0010
1000
0001
0010
0100
,
1000
0100
0100
0010
0100
0001
0100
0000
,
0011
0000
0001
0100
0010
0100
0001
0000
,
1100
0110
0101
0110
,
1001
0000
1000
0010
0100
0001
0010
0000
,
0110
0000
0010
0000
0001
0001
0001
1000
,
1010
0000
0010
0100
0001
0010
0001
0100
,
0010
0000
1000
0000
1000
0000
0001
0000
1000
0000
1000
0000
0100
0010
0000
0001
,
0000
0011
0000
0000
,
0001
0000
0000
1000
0000
0000
0010
0000
0000
0000
0100
0000
0010
0000
0100
0000
,
0001
0001
1000
1000
0100
0000
0011
0000
,
0001
0000
1000
0000
0010
0000
0100
0000
0000
0000
0000
0000
0100
0010
0000
0100
,
0000
0000
0001
0000
1000
0100
0000
0001
0000
0000
0000
0000
0100
0000
0000
0000
;

//---------------dance-single - ----------------
#NOTES:
     dance-single:
     :
     Easy:
     5:
     0.322337,0.401817,0.195757,0.041212,0.041212,219.000000,200.000000,19.000000,4.000000,0.000000,0.000000,0.322337,0.401817,0.195757,0.041212,0.041212,219.000000,200.000000,19.000000,4.000000,0.000000,0.000000:
0000
0000
0000
0000
,
0000
0000
0000
0000
,
0000
0000
0000
0000
,
0000
0000
0000
0000
,
1100
0000
1000
0000
0010
0000
0100
0100
,
0001
0000
1000
0000
0100
0000
0010
0010
,
0001
0000
1000
0000
0010
0000
0100
0100
,
0001
0000
0000
0001
0000
0000
0000
0000
0000
0000
0000
0000
0010
0000
0000
0100
,
0000
0000
1100
0000
1000
0000
0010
1000
,
0001
0000
0010
0100
0000
0000
0010
0000
,
0001
1000
0010
1000
0001
0000
0100
0000
,
0010
0000
0010
2000
0000
0000
3000
0000
,
1100
1000
0100
0010
,
0101
0000
0100
0010
0100
0000
0010
0000
,
1001
0000
1000
0001
0010
0000
0100
0000
,
0110
0000
0010
0001
0011
0000
1001
0000
,
1010
1000
0110
0101
,
0001
0000
0010
0001
0010
0000
0110
0000
,
1100
0000
0000
0000
1000
0000
0000
0000
0100
0000
0000
0100
0010
0000
0000
0000
,
0001
0100
1000
0100
,
0011
0000
0001
0010
0100
0000
0010
0000
,
1001
0000
1000
0010
0100
0000
0010
0000
,
0110
0000
0100
0001
0100
0000
0001
0000
,
0010
0000
0000
0000
0100
0000
0010
0000
0100
0000
0000
0000
0010
0000
0000
0100
,
0000
0000
1100
0000
1000
0000
0010
1000
,
0010
0100
0001
0010
,
0100
0010
0100
0010
0100
0000
0010
0000
,
0001
0000
1000
0020
0000
0030
0100
0000
,
0000
0100
0001
1000
0100
0000
0010
0000
,
0001
0000
0010
0100
0000
1000
0010
0000
,
0010
1000
0010
1000
0001
0000
0010
0000
,
0100
0000
0100
0020
0000
0000
0030
0000
,
0010
0000
0010
0001
,
1000
0000
1000
0010
,
0100
0100
0010
0100
,
0010
0000
1000
0100
,
0011
0000
0001
0000
0010
0100
0010
0000
,
0001
0000
1010
0000
1000
0010
1000
0010
,
0100
0001
1000
0100
,
0010
0100
1000
0010
,
0001
0000
0010
0000
1000
0010
1000
0000
,
0001
0000
1000
0000
0100
0100
0010
0000
,
0001
0010
1000
0001
,
0100
0000
0000
0000
0000
0000
0010
0000
0100
0000
0000
0000
0010
0000
0000
0001
,
0000
1000
0000
0000
,
0010
0000
0000
0010
0000
0000
0010
0000
0000
0000
0000
0000
0100
0000
0000
0000
,
0001
0010
0100
0000
0100
0000
0010
0000
,
0001
0000
0000
0000
1000
0000
0020
0000
0000
0000
0000
0000
0130
0000
0000
0010
,
0000
0000
0000
0100
0000
0000
0000
0000
0001
0000
0000
0000
0010
0000
0000
0000
;

//---------------dance-single - ----------------
#NOTES:
     dance-single:
     :
     Beginner:
     3:
     0.245800,0.326477,0.082424,0.041212,0.015455,167.000000,159.000000,8.000000,4.000000,0.000000,0.000000,0.245800,0.326477,0.082424,0.041212,0.015455,167.000000,159.000000,8.000000,4.000000,0.000000,0.000000:
0000
0000
0000
0000
,
0000
0000
0000
0000
,
0000
0000
0000
0000
,
0000
0000
0000
0000
,
1000
0000
1000
0001
,
0001
0000
0001
0100
,
0100
0000
0100
0100
,
0010
0000
0000
0000
,
0010
1000
0100
0000
,
0010
0100
0010
0100
0000
0000
0010
0000
,
0001
1000
0001
0100
,
0010
0000
1000
0200
0000
0000
0300
0000
,
0010
0001
1000
0010
,
1000
0000
1000
0100
,
0001
0100
0010
0100
,
1000
0000
0010
0010
,
1001
0001
1000
0010
,
0100
1000
0100
0010
,
1000
0000
0001
0010
,
0100
1000
1000
0010
,
0110
0000
0100
0010
0100
0000
0010
0000
,
1001
0001
0010
0100
,
1000
0000
0100
0010
,
0001
0000
0000
0000
1000
0000
0000
0000
0001
0000
0000
0000
0010
0000
0000
0001
,
0000
1000
0010
0100
,
0100
0010
0100
0010
0000
0000
1000
0000
,
0001
0010
0100
1000
,
0010
0000
0000
0000
0100
0000
0020
0000
0000
0000
0000
0000
0030
0000
0000
0100
,
0000
0010
1000
0100
,
1000
0000
0100
0010
0000
0000
0010
0000
,
0001
0010
1000
0010
,
0001
0000
0100
0020
0000
0000
0030
0000
,
1000
0000
1000
1000
,
0010
0000
0010
0000
,
0100
0100
0001
0100
,
0100
0000
0010
0000
,
1001
1000
0001
0001
,
0100
0000
0010
0100
0010
0100
0010
0000
,
1001
1000
0100
0010
,
0100
1000
0010
0100
,
0010
0000
0000
0000
0100
0010
0100
0000
,
1001
0000
0000
1000
0001
1000
0001
0000
,
0010
0100
0001
0100
,
0010
0000
0000
0000
0000
0000
0000
0000
0001
0000
0000
0000
0000
0000
0000
1000
,
0000
0010
0000
0000
,
0100
0000
0000
0110
0000
0000
0010
0000
,
1000
0100
0010
0001
,
1000
0000
0010
0200
0000
0000
0300
0000
,
0000
0000
0010
1001
;
