#TITLE:Sweet Devil;
#SUBTITLE:(colate remix);
#ARTIST:Hachiouji-P;
#TITLETRANSLIT:;
#SUBTITLETRANSLIT:;
#ARTISTTRANSLIT:;
#GENRE:;
#CREDIT:Loodee;
#BANNER:Sweet devil (colate remix)-bn.png;
#BACKGROUND:Sweet devil (colate remix)-bg.png;
#LYRICSPATH:;
#CDTITLE:loodeecdtitleSmall.png;
#MUSIC:Sweet Devil (colate remix).ogg;
#OFFSET:-0.004;
#SAMPLESTART:75.698;
#SAMPLELENGTH:14.765;
#SELECTABLE:YES;
#DISPLAYBPM:130.000;
#BPMS:0.000=130.000,37.000=195.000,41.375=65.000,41.500=195.000,42.875=65.000,43.000=195.000,46.000=130.000,46.250=195.000,47.375=65.000,47.500=195.000,48.000=130.000,98.000=195.000,99.875=65.000,100.000=130.000,130.000=195.000,130.375=65.000,130.500=195.000,132.000=130.000,147.000=195.000,147.375=65.000,147.500=195.000,148.000=130.000,193.000=195.000,195.000=260.000,195.500=130.000,195.750=65.000,196.000=130.000;
#STOPS:37.000=0.038
,37.250=0.039
,37.500=0.038
,37.750=0.039
,38.000=0.077
,38.500=0.039
,38.750=0.077
,39.250=0.077
,39.750=0.077
,40.250=0.077
,40.750=0.038
,41.500=0.039
,41.750=0.077
,42.250=0.038
,43.000=0.039
,43.250=0.038
,43.500=0.039
,43.750=0.038
,44.000=0.019
,44.125=0.019
,44.250=0.019
,44.375=0.019
,44.500=0.038
,44.750=0.077
,45.250=0.077
,45.750=0.019
,45.875=0.018
,46.250=0.039
,46.500=0.039
,46.750=0.039
,47.500=0.039
,47.750=0.038
,98.000=0.038
,98.250=0.039
,98.500=0.038
,98.750=0.039
,99.000=0.038
,99.250=0.039
,130.500=0.019
,130.625=0.019
,130.750=0.019
,130.875=0.019
,131.000=0.039
,131.250=0.038
,131.500=0.039
,131.750=0.039
,147.500=0.020
,147.625=0.019
,147.750=0.019
,147.875=0.019
,193.000=0.039
,193.250=0.038
,193.500=0.039
,193.750=0.038
,194.000=0.019
,194.125=0.019
,194.250=0.019
,194.375=0.019
,194.500=0.020
,194.625=0.020
,194.750=0.019
,194.875=0.019
;
#BGCHANGES:;
#KEYSOUNDS:;

//---------------dance-single - Loodee----------------
#NOTES:
     dance-single:
     Loodee:
     Challenge:
     10:
     0.751,0.731,0.392,0.467,0.593:
0000
0000
0000
0000
,
0000
0000
0000
0000
,
0000
0000
0000
0000
,
0000
0000
0000
0000
,
2000
0000
0000
3000
1100
0000
0000
0000
0001
0000
0000
0000
1001
0000
0000
0000
,
1000
0000
0000
0000
0101
0000
0000
0000
0002
0000
0013
0100
0010
0001
1000
0000
,
0020
0000
0000
0030
0110
0000
0000
0000
1000
0000
0000
0000
1100
0000
0000
0000
,
0100
0000
0000
0000
0010
0001
1000
0010
0200
0000
0302
0000
1003
0000
0000
0000
,
1100
0000
0200
0000
0320
0000
0032
2003
,
0000
0000
3010
0100
0001
1000
0001
1000
0100
0000
0010
0100
0000
1000
0000
0010
,
0000
0100
0000
0001
1000
0000
0001
0010
0000
0010
0100
0000
1000
0010
1000
0010
,
0400
0000
0301
0010
0000
1000
0000
0040
0000
0130
1000
0001
1000
0000
0010
0100
,
0010
1000
0010
1000
0010
1000
0001
1000
,
0100
0010
0100
0010
0100
0010
0001
1000
,
0001
0100
0001
0100
0001
1000
0010
1000
,
0100
1000
0001
0100
0010
0100
0001
0101
,
1001
0000
0000
1000
0010
0000
0000
0000
0100
0000
0000
0000
0001
0000
1000
0100
,
0010
0000
0000
0000
0000
0000
0000
0000
0100
0000
0000
0000
0000
0000
0000
0000
1000
0000
0000
0000
0000
0000
0000
0000
0001
0100
0001
0100
0001
0000
1000
0000
,
0100
0000
0000
0100
0010
0000
0000
0000
0001
0000
0000
0000
1000
0000
0010
0000
,
0100
0000
0000
0000
0010
0000
0000
0000
1000
0000
0000
0001
1000
0000
1100
0000
,
0011
0001
1000
0010
1000
0001
0100
0010
,
1000
0100
0010
0001
1000
0001
1000
1010
,
0101
0000
0000
0000
0001
0000
0000
0000
1000
0100
1000
0100
1000
0000
0100
0000
0000
0000
0100
0000
0000
0000
0010
0000
0001
1000
0001
1000
0001
0000
1000
0000
,
0010
0100
0001
1000
0100
0010
0100
0010
0004
0000
0000
0000
0000
0000
0000
0000
,
0103
0000
0010
0000
1000
0000
1000
0000
0001
0010
0100
0001
0100
1000
0001
0000
,
0201
0000
0000
0000
0320
0000
1030
1000
0001
0010
0000
0100
1000
0001
0010
0001
,
1000
0010
0100
0000
0200
0000
0301
1000
0001
0000
0010
0100
2000
0000
3020
0000
,
0230
0000
0000
0000
0301
1000
0001
1000
0100
0010
0001
0100
0000
0100
0010
1000
,
0001
0000
0200
0000
0301
1000
0100
1000
0100
0010
0001
0100
2000
0000
0000
3000
,
1200
0000
0000
0000
0302
0000
0000
1003
0100
1000
0001
0100
0010
0100
0001
1000
,
0100
0000
0010
0000
0012
0000
1003
0010
0100
0010
1000
0001
0020
0000
0230
0000
,
2300
0000
0000
0000
3001
0100
0001
0100
0010
1000
0000
0100
0000
0010
0000
0000
,
0001
0000
0100
0001
0010
0100
1000
0001
2000
0000
3040
0000
0130
0001
1000
0001
,
0020
0000
0000
0000
0230
0000
0000
0000
0310
0001
1000
0010
0000
0100
0000
0000
,
0101
0000
0100
0000
0120
0000
1030
0001
1000
0100
0010
0001
0200
0000
0320
0000
,
2030
0000
0000
0000
3100
0010
0100
0010
0001
0100
0000
0010
0000
1000
0000
0000
,
0001
0000
0010
0100
1000
0010
0000
0100
0000
0001
0010
0001
0200
0000
0340
0000
,
2030
0000
0000
0000
3002
0000
0103
0010
1000
0010
0000
0100
0000
0001
1000
0001
,
0010
0000
0100
0000
2100
0000
3001
0100
0001
1000
0100
0010
0002
0000
0203
0000
,
0310
0100
0010
0001
0010
1000
0001
1000
0100
0001
0100
0010
,
0001
0000
1000
0000
0001
0000
1000
0000
0010
0000
0100
0000
0102
0000
0000
0003
,
1001
0000
1000
0000
0020
0000
0000
0000
0130
0001
0100
0001
1000
0000
0200
0000
,
0000
0000
0310
0000
0011
0000
0001
0000
0010
0000
1000
0000
0010
0000
0001
1000
,
0010
0000
0100
0000
0002
0000
0000
0000
0013
0100
1000
0001
0100
0000
2000
0000
,
0000
0000
3100
0000
0110
0000
0010
0000
1000
0000
0001
0000
0010
0000
0100
1000
,
0100
0000
0010
0000
0002
0000
0000
0000
0103
0010
1000
0001
0010
0000
0200
0000
,
0310
0000
0100
0000
1100
0000
1000
0000
0010
0000
0100
0000
1000
0000
0100
0010
,
1000
0000
0001
0000
0020
0000
0000
0000
0130
0010
0001
1000
0010
0000
0200
0000
,
0000
0000
0000
0000
0000
0000
0000
0000
0301
0000
1000
0000
0001
0000
1000
0000
0400
0000
0000
0000
0340
0000
0000
0000
0230
0000
0000
0300
0000
0000
0000
0000
,
1000
0100
0011
0001
0010
0100
1100
1000
,
0010
0000
1000
0000
0101
0000
0100
0000
0001
0000
0010
0000
0011
0000
0001
1000
,
0010
0000
0100
0000
0110
0000
0010
0000
1000
0000
0001
0000
1001
0000
1000
0100
,
1000
0000
0001
0000
1100
0000
0100
0000
1000
0000
0010
0000
0101
0000
0001
0010
,
0100
1000
0011
1000
0010
1000
0101
1000
,
0001
0000
0010
0000
1100
0000
0001
0000
0100
0000
0001
0000
1010
0000
0001
0010
,
0100
0000
1000
0000
1100
0000
0100
0000
0010
0000
0001
0000
1001
0000
1000
0010
,
0100
0000
0001
0000
0020
0000
0000
0000
0130
0000
1000
0000
0020
0000
0130
0001
,
2000
0000
0000
3000
1010
0000
0000
0000
0001
0000
0000
0000
1001
0000
0000
0000
,
1000
0000
0000
0000
0011
0000
0000
0000
0002
0000
0103
0010
1000
0001
0010
0000
,
0200
0000
0000
0300
0110
0000
0000
0000
0001
0000
0000
0000
1001
0000
0000
0000
,
1000
0000
0000
0000
0010
0100
0001
0010
0200
0000
2300
0000
3010
0000
0000
0000
,
0200
0000
0000
0300
0101
0000
0000
0000
0001
0000
0000
0000
0011
0000
0000
0000
,
1000
0000
0000
0000
1100
0000
0000
0000
0100
0000
0010
0001
1000
0010
0100
0000
,
0002
0000
0000
0003
1001
0000
0000
0000
1000
0000
0000
0000
0011
0000
0000
0000
,
0001
0000
0000
0000
0100
0010
1000
0100
0010
0000
0002
0000
1003
0000
1000
0000
;

//---------------dance-single - Loodee----------------
#NOTES:
     dance-single:
     Loodee:
     Hard:
     8:
     0.540,0.569,0.184,0.384,0.263:
0000
0000
0000
0000
,
0000
0000
0000
0000
,
0000
0000
0000
0000
,
0000
0000
0000
0000
,
0002
0000
0000
0003
1001
0000
0000
0000
1000
0000
0000
0000
0010
0000
0000
0000
,
1000
0000
0000
0000
0001
0000
0000
0000
0010
0000
0100
0010
0000
0000
0001
0000
,
0200
0000
0000
0300
0101
0000
0000
0000
0100
0000
0000
0000
0010
0000
0000
0000
,
1000
0000
0000
0000
0001
0010
0000
0000
0001
0000
1000
0000
0020
0000
0000
0030
,
1001
0000
0002
0000
0023
0000
0031
2000
,
0000
0000
3010
0000
0200
0000
0000
0000
0301
0000
1000
0001
0000
0100
0000
0010
,
0000
0100
0000
0000
0001
0000
1000
0001
0000
1000
0001
0000
0020
0000
0000
0000
,
0130
0000
1000
0100
0000
1000
0000
0001
0000
0020
0000
0000
0031
0000
1000
0000
,
0010
0100
0010
0100
0010
1000
0001
1000
,
0100
0010
0100
0010
0100
1000
0001
0100
,
0010
1000
0010
1000
0001
1000
0001
0010
,
0100
1000
0100
1000
0100
0010
0001
1000
,
0001
0000
0000
0001
0000
0000
0000
0000
0100
0000
0000
0000
0001
0000
1000
0001
,
1000
0000
0000
0000
0100
0000
0000
0000
0010
0000
0000
0000
0001
1000
0001
1000
,
0010
0000
0000
0010
0000
0000
0000
0000
1000
0000
0000
0000
0001
0000
0010
0000
,
0001
0000
0000
0000
1000
0000
0000
0000
0010
0000
0000
0100
0010
0000
1000
0000
,
0001
0010
0001
0010
0001
0010
0100
1000
,
0010
0100
0010
0100
0010
1000
0001
1000
,
1000
0000
0100
0000
0010
0001
0010
0001
0000
1000
0000
0000
0001
0000
1000
0000
,
0004
0000
0000
0000
,
0013
0010
0100
0010
0001
0100
0010
1000
,
0002
0000
0000
0000
0023
0000
0000
0000
0130
1000
0000
0001
0000
1000
0000
0000
,
0100
0000
0010
0000
0001
0000
1000
0010
1000
0000
0001
0000
0100
0000
1000
0000
,
0200
0000
0000
0300
0110
0000
0000
0000
1000
0001
0000
0010
0000
0001
0000
0000
,
0100
0000
0010
0000
1000
0000
0001
0010
0001
0000
1000
0000
0020
0000
0000
0000
,
0230
0000
0000
0000
0302
0000
0000
0000
1003
0100
0000
1000
0000
0010
0000
0000
,
0100
0000
0001
0000
0010
0000
0001
1000
0001
0000
0100
0000
0010
0000
1000
0000
,
0020
0000
0000
0030
1010
0000
0000
0000
0001
0010
0000
0100
0000
1000
0000
0000
,
0001
0000
0001
0000
0100
0010
0100
0000
0001
0000
2000
0000
3020
0000
0000
0000
,
2030
0000
0000
0000
3200
0000
0000
0000
0310
0001
0000
0100
0000
0010
0000
0000
,
0100
0000
0010
0000
1000
0000
0001
0010
0001
0000
1000
0000
0010
0000
0100
0000
,
0002
0000
0000
0003
1001
0000
0000
0000
1000
0010
0000
0100
0000
0010
0000
0000
,
1000
0000
0100
1000
0000
0010
0000
0100
0000
0001
1000
0000
0001
0000
0020
0000
,
0230
0000
0000
0000
2300
0000
0000
0000
3010
0100
0000
0001
0000
1000
0000
0000
,
0100
0000
0010
0000
0001
0000
1000
0010
1000
0000
0010
0000
0100
0000
0001
0000
,
1000
0100
1000
0100
1000
0100
0010
0001
1000
0001
1000
0001
,
2000
0000
0000
0000
0000
0000
0000
0000
0000
0000
0000
3000
1010
0000
0000
0000
,
0101
0000
1002
0000
0023
0000
0031
2000
,
0000
3010
0100
0001
0010
0100
0001
0100
,
1000
0000
1020
0000
0230
0000
0310
0002
,
0000
0013
1000
0001
0010
0100
0010
0001
,
1000
0000
0021
0000
0230
0000
0310
0002
,
0000
1003
0010
0100
0001
0010
1000
0010
,
0100
1000
0020
0000
0230
0000
0301
2000
,
0000
0000
3002
0000
0023
0230
1300
0000
,
1100
0000
0110
0000
0010
0001
0100
0010
,
1000
0000
1001
0000
0001
0010
0001
1000
,
0010
0000
0110
0000
0100
0001
1000
0100
,
0020
0001
0230
1000
,
0310
0000
0011
0000
0001
0100
0010
1000
,
0001
0000
0101
0000
0100
0001
1000
0100
,
0010
0000
0110
0000
0100
1000
0010
1000
,
0001
0010
0100
0010
,
0002
0000
0000
0003
1001
0000
0000
0000
1000
0000
0000
0000
0100
0000
0000
0000
,
1000
0000
0010
0000
0100
0001
1000
0100
,
0020
0000
0000
0030
0011
0000
0000
0000
0001
0000
0000
0000
1000
0000
0000
0000
,
0010
0000
0000
0000
1000
0000
0000
0001
1000
0000
0100
0000
0010
0000
0000
0000
,
0200
0000
0000
0300
1100
0000
0000
0000
1000
0000
0000
0000
0001
0000
0000
0000
,
0100
0000
0000
0000
0001
0000
0000
0000
1000
0000
0100
1000
0000
0000
0001
0000
,
0200
0000
0000
0300
0101
0000
0000
0000
0001
0000
0000
0000
1000
0000
0000
0000
,
0100
0000
0000
0000
0010
0001
0000
0000
1000
0000
0010
0000
0100
0000
0100
0000
;

//---------------dance-single - Loodee----------------
#NOTES:
     dance-single:
     Loodee:
     Medium:
     5:
     0.400,0.405,0.083,0.451,0.029:
0000
0000
1001
0000
,
0000
0000
0000
0000
,
0000
0000
0000
0000
,
0000
0000
0000
0000
,
0002
0013
0100
0010
,
0001
0000
1000
0000
0010
0100
0001
0100
,
0020
1030
0001
1000
,
0100
0000
0010
0001
1000
0000
0010
0000
,
0100
0000
0002
0000
2003
0000
3001
2000
,
0000
0000
3100
0000
0020
0000
0000
0000
0032
0000
0000
0000
0000
1003
0000
0001
,
0000
1000
0000
0001
0000
0000
0000
0000
0000
0000
1000
0000
0020
0000
0000
0000
,
0230
0000
0301
0000
0000
1000
0000
0001
0000
1000
0000
0000
0100
0000
0000
0000
,
0010
0000
0001
0000
,
1000
0000
0001
0000
,
1000
0000
0010
0000
,
0100
0000
0001
0010
,
0012
0000
0000
0000
1003
0000
0010
1000
,
0200
0000
0000
0000
0310
0000
0001
0100
,
0020
0000
0000
0000
1030
0000
0001
1000
,
0200
0000
0000
0000
0320
0000
0031
0010
,
0001
0000
0100
0000
0010
0000
1000
0001
,
1000
0000
0100
0000
1000
0000
0100
0010
,
0200
0000
0000
0000
,
2300
0000
0002
0000
,
3003
0000
0000
0000
,
0002
0000
0203
0000
0310
1000
0010
0000
,
0100
0000
1001
0000
1000
0100
1000
0000
,
0200
0000
0310
0001
0010
0000
0001
0000
,
1000
0010
0100
0000
0001
0010
0200
0000
,
2300
0000
3002
0000
0013
0100
0010
0000
,
0001
0000
0101
0000
0100
0010
0100
0000
,
0002
0000
1003
0100
1000
0000
0010
0000
,
0100
0000
0100
0010
1000
0020
0000
0000
,
2030
0000
3002
0000
0013
0100
1000
0000
,
0100
1000
0100
0010
0001
0000
0100
0000
,
0200
0000
0301
1000
0001
0000
0010
0000
,
0100
1000
0001
1000
0010
0000
0110
0000
,
1001
0000
2000
0000
3100
0000
0010
0001
,
1000
0000
0020
0000
0130
0000
0001
1000
,
0200
0010
0320
0001
,
0032
0000
0000
1003
,
0010
0000
0002
0000
0013
0000
0100
0010
,
0000
0010
1000
0000
1000
0100
0010
0001
,
0010
0000
2000
0000
3020
0000
0031
1000
,
0000
1000
0010
0000
0100
0001
1000
0001
,
0100
0000
2000
0000
3200
0000
0301
0100
,
0001
0000
1000
0000
0100
0010
0001
0010
,
0100
0000
2000
0000
3002
0000
0103
0020
,
0000
0000
2030
3001
,
2000
0000
3100
0000
0010
0001
0010
0001
,
2000
0000
3010
0000
0100
0001
0100
0010
,
0200
0000
0301
0000
1000
0100
1000
0100
,
0020
0031
0200
0301
,
0020
0000
0130
0000
1000
0001
1000
0001
,
0200
0000
0310
0000
1000
0001
0010
0001
,
0020
0130
1000
0001
,
0200
0310
2000
3001
,
0010
0011
0000
0001
,
1000
0000
0010
0000
0200
0000
0301
1000
,
0100
1100
0000
1000
,
0001
0000
0100
0010
0100
0000
0001
0000
,
1000
1001
0000
0001
,
0010
0000
0001
0000
2000
0000
3010
0100
,
0010
0110
0000
0100
,
0001
0000
1000
0001
1000
0000
0100
0000
;

//---------------dance-single - Loodee----------------
#NOTES:
     dance-single:
     Loodee:
     Easy:
     3:
     0.235,0.243,0.025,0.159,0.000:
0000
0000
0000
0000
,
0000
0000
0000
0000
,
0000
0000
0000
0000
,
0000
0000
0000
0000
,
0001
1000
0001
0000
,
0100
0000
0010
0000
1000
0001
1000
0000
,
0001
0010
0001
0000
,
1000
0000
0010
0100
0010
0000
0000
0000
,
1000
0000
0002
0000
0013
0000
0000
0002
,
0000
0000
0000
0000
,
0000
0000
0000
0003
,
2000
0000
0000
3001
,
1000
0000
0000
0000
,
0001
0000
0000
0000
,
1000
0000
0000
0000
,
0010
0000
0000
0100
,
1002
0000
0000
0000
,
0023
0000
0000
0000
,
0032
0000
0000
0000
,
0203
0000
0302
0000
,
1003
0100
1000
0100
,
0010
0001
0010
0001
,
2000
0000
0000
0000
,
3002
0000
0000
0000
,
0003
0000
0000
0000
,
1000
0010
1000
0000
,
0100
0010
0100
0000
1000
0000
0000
0000
,
0001
0000
0100
0010
0100
0000
0000
0000
,
0001
1000
0100
0020
,
0031
1000
0010
0000
,
1000
0001
1000
0000
0100
0000
0000
0000
,
0010
0001
0001
0001
,
1000
0000
0010
0100
0020
0000
0000
0000
,
1030
0001
1000
0000
,
0010
0010
0010
0000
1000
0000
0000
0000
,
0001
0010
0001
0000
,
0001
1000
0010
0000
0100
0000
0002
0000
,
1003
0100
0010
0000
,
0001
1000
0100
0000
1000
0000
0000
0000
,
0001
0001
0100
0100
,
0020
0000
0000
0030
,
1001
0000
0001
1000
,
0100
1000
0010
0100
,
0001
0000
1000
0100
,
0010
0001
0010
0100
,
1000
0000
0001
0100
,
0001
1000
0100
0010
,
0001
0000
1000
1000
,
0020
0000
0000
0030
,
1001
0000
0000
0000
0001
0010
0001
0000
,
1000
0000
0000
0000
0010
0000
0010
1000
,
0010
0000
0000
0000
0100
0001
1000
0000
,
0002
0000
0023
0000
,
0130
0000
0000
0000
1000
0100
1000
0000
,
0001
0000
0000
0000
0001
0000
0001
1000
,
0001
0000
0100
0000
,
0020
0000
2030
0000
,
3001
0010
0000
0010
,
0000
0000
0010
0000
0001
1000
0001
0000
,
0100
0010
0000
0010
,
0000
0010
0010
1000
,
0001
1000
0000
1000
,
0000
0000
1000
0000
0100
0010
0100
0000
,
0010
0001
0000
0001
,
0000
1000
0010
0100
;
