#TITLE:一触即発☆禅ガール;
#SUBTITLE:;
#ARTIST:れるりり feat. 初音ミク&GUMI;
#TITLETRANSLIT:Simmering ZEN Girl;
#SUBTITLETRANSLIT:;
#ARTISTTRANSLIT:rerulili feat. MIKU&GUMI;
#GENRE:VOCALOROCK;
#CREDIT:;
#BANNER:[Round 1] - Simmering ZEN Girl.png;
#BACKGROUND:[Round 1] - Simmering ZEN Girl-bg.png;
#LYRICSPATH:;
#CDTITLE:cdtitle.png;
#MUSIC:[Round 1] - Simmering ZEN Girl.ogg;
#OFFSET:-0.560000;
#SAMPLESTART:46.025909;
#SAMPLELENGTH:15.236839;
#SELECTABLE:YES;
#BPMS:0.000000=190.000000
;
#STOPS:
;
#BGCHANGES:0.000=[Round 1] - Simmering ZEN Girl.avi=1.000=0=0=0=StretchNoLoop==CrossFade_Fastest==,
99999=-nosongbg-=1.000=0=0=0 // don't automatically add -songbackground-
;
#KEYSOUNDS:;
#ATTACKS:;

//---------------dance-single - ----------------
#NOTES:
     dance-single:
     :
     Challenge:
     11:
     0.899264,0.962876,0.233719,0.077907,0.724530,808.000000,778.000000,30.000000,10.000000,0.000000,0.000000,0.899264,0.962876,0.233719,0.077907,0.724530,808.000000,778.000000,30.000000,10.000000,0.000000,0.000000:
0000
0000
0000
0000
,
0000
0000
0000
0000
,
0000
0000
0000
0000
,
0000
0000
0000
0000
,
1000
0000
0001
0100
0001
0000
0010
0000
0100
0000
1000
0010
1000
0000
0100
0000
,
0010
0000
0100
0010
0100
0000
0100
0000
1000
0000
0010
0000
1000
0001
1000
0000
,
0001
0000
1000
0100
1000
0000
0010
0000
0100
0000
0001
0010
0001
0000
0100
0000
,
0010
0000
0100
0010
0100
0000
0100
0000
0001
0000
0010
0000
0100
0000
1000
0000
,
0001
0000
0001
0100
0000
0100
0010
1000
,
0000
1000
0100
0001
0000
0000
0001
0100
,
1000
0010
0100
0010
0001
0010
0100
0010
,
1000
0100
0010
0001
0000
0100
1000
0100
,
0010
0000
0010
1000
0100
0010
0001
0100
,
0000
0100
0010
0001
0000
0001
0010
1000
,
0000
1000
0100
0001
0100
1000
0010
0100
,
0000
0100
0000
1001
0000
0001
0010
0100
,
1000
0000
0010
0100
0010
0000
1000
0000
0001
0000
0010
0100
0010
0000
0001
0000
,
1000
0000
0001
0100
0001
0000
0001
0000
0010
0000
0100
0000
1000
0001
1000
0000
,
0001
0000
0100
0010
0100
0000
0001
0000
1000
0000
0100
0010
0100
0000
1000
0000
,
0001
0000
1000
0010
1000
0000
1000
0000
0100
0000
0010
0000
0001
0000
0100
0000
,
0010
0000
0010
1000
0000
1000
0010
0100
,
1000
0100
0010
1000
0000
0000
0001
0000
,
0010
0100
0001
0100
0010
0001
1000
0001
,
0100
1000
0100
0001
0000
1000
0100
0010
,
0001
0000
0001
0100
0000
0100
0010
1000
,
0100
0010
0100
1000
0000
1000
0010
0001
,
0000
0001
0010
1000
0100
0000
0100
0010
,
0001
0100
0010
1000
0100
0010
0001
0100
,
0001
0010
0100
1000
0000
0010
1000
0100
0010
0001
0000
0100
,
0001
0010
0001
1000
0010
1000
0100
0000
1000
0010
1000
0001
,
1000
0010
0100
0010
0000
1000
0001
0010
0100
1000
0010
0100
,
0001
0000
0010
0100
0010
0100
1000
0010
0100
0010
0000
1000
,
0001
0010
0001
1000
0010
1000
0001
0010
0100
1000
0000
0001
,
1000
0010
1000
0001
0010
0001
1000
0100
0010
0001
0100
0010
,
1000
0000
0100
0000
1000
0010
0000
0100
0000
0001
0000
0010
0100
0000
0010
0000
,
0001
0000
1000
0000
0010
0100
0000
0220
0000
0000
0000
0000
0330
0000
0000
0000
,
0001
1000
0001
1000
0001
1000
0001
1000
0001
0000
0010
0000
1000
0000
0010
0000
,
0100
1000
0001
0100
0001
0010
0100
1000
,
0010
0000
0100
0000
0001
1000
0001
0000
0010
0000
0100
0000
1000
0001
1000
0000
,
0001
0010
1000
0001
0100
1000
0001
0000
,
1000
0001
1000
0001
1000
0001
1000
0001
1000
0000
0010
0000
0001
0000
0010
0000
,
0100
0001
1000
0100
1000
0010
0100
0001
,
0010
0000
0100
1000
0100
1000
0100
0000
1000
0001
1000
0000
0001
0100
0001
0100
,
0001
0010
1000
0001
0100
1000
0001
1000
,
0010
0001
0010
1000
0000
0100
0010
0001
,
0200
0010
1000
0301
,
1100
0101
0011
1010
,
1001
0001
1000
0110
,
0001
0000
1000
0100
1000
0000
0010
0000
1000
0000
0001
0100
0001
0000
0010
0000
,
0001
0000
0100
0010
0100
0000
0001
0000
1000
0100
1000
0100
0010
0000
0001
1000
,
0001
0000
0100
0000
0010
0000
1000
0001
1000
0000
0100
0000
0010
0000
0001
1000
,
0001
0000
0100
0000
0010
0000
0100
0000
0001
0000
1000
0100
1000
0000
0001
0000
,
1000
0000
0010
0100
0010
0000
1000
0000
0001
0000
0010
0100
1000
0000
0000
0000
,
1001
0000
0000
0000
0001
0000
1000
0010
1000
0000
0001
0000
0010
0000
0001
0100
,
0001
0000
1000
0000
0100
0000
0010
0001
0010
0000
0001
0000
0100
0000
0010
0000
,
1010
1000
1000
0011
,
0001
0001
1100
1000
,
1000
0101
0001
0001
,
1001
1000
0010
0100
,
0001
0010
0110
1100
,
0101
0011
1010
1001
,
0110
0010
0010
0100
,
0100
0010
2002
0000
,
0000
3003
0001
0000
,
1000
0000
0000
0000
0000
0000
0001
0100
0001
0100
0010
0100
,
0010
1000
0010
1000
0100
1000
0100
0010
0100
0010
0001
0010
,
0001
1000
0001
1000
0010
1000
0010
0100
0010
0100
0001
0100
,
0001
0010
0001
0010
0100
0010
0100
1000
0100
1000
0001
1000
,
0001
0100
0010
1000
0010
0100
0001
0010
0001
1000
0010
1000
,
0001
0010
0100
1000
0010
0100
0001
0100
0001
1000
0100
1000
,
0001
0000
0000
0000
0100
0000
0000
0000
0010
0000
0000
0000
1000
0000
0000
0000
0100
0000
0000
0000
0010
0000
0000
0000
0001
0000
0000
0000
0000
0000
0100
0000
0000
0000
0000
0000
0001
0000
0000
0010
0000
0000
0000
0000
0000
0100
0000
0000
,
0000
1000
0000
0010
0100
0000
0010
0000
1000
0000
0100
0000
0010
0100
0000
0220
,
0000
0000
0000
0000
0330
0000
0000
0000
0001
1000
0001
1000
0001
0000
0000
0000
,
1000
0001
1000
0001
1000
0001
1000
0001
1000
0000
0010
0000
0100
0000
1000
0000
,
0100
0001
0010
0100
1000
0010
0001
0010
,
1000
0000
0100
0000
1000
0010
1000
0010
0100
0001
0100
0001
0010
0100
0010
0100
,
1000
0010
0001
1000
0100
0001
1000
0000
,
0001
1000
0001
1000
0001
1000
0001
1000
0001
0000
0010
0000
0100
0000
0001
0000
,
0100
1000
0010
0100
0001
0010
1000
0010
,
0001
0000
0100
0000
0010
1000
0010
1000
0100
0000
1000
0000
0001
0100
0001
0000
,
1000
0100
0001
1000
0010
0001
1000
0001
,
0100
1000
0100
0001
0000
0010
0100
1000
,
0002
0100
2003
0100
,
3010
0100
0010
0100
0010
0100
0010
0100
0010
0000
1000
0000
0001
0000
0010
0000
,
0001
0100
1000
0100
0010
1000
0100
0001
,
0100
0000
0010
0000
0001
1000
0001
0000
0100
0000
0010
0000
1000
0001
1000
0000
,
0001
0010
1000
0001
0100
1000
0001
0000
,
0010
0100
0010
0100
0010
0100
0010
0100
0010
0000
0001
0000
1000
0000
0010
0000
,
1000
0100
0001
0100
0010
0001
0100
1000
,
0100
0000
0001
1000
0001
1000
0010
0000
1000
0100
1000
0100
0010
0001
0010
0001
,
1000
0010
0001
1000
0100
0001
1000
0001
,
0010
1000
0010
0001
0000
0100
0010
1000
,
0200
1000
0010
0301
,
1010
0011
0101
1100
,
1001
0001
1000
0110
,
0001
0000
1000
0010
1000
0000
0100
0000
0010
0000
0001
0100
0001
0000
0010
0000
,
0100
0000
1000
0001
1000
0000
1000
0000
0010
0000
0100
0000
0001
1000
0001
0000
,
1000
0000
0100
0010
0100
0000
1000
0000
0001
0000
0100
0010
0100
0000
0001
0000
,
1000
0000
0001
0010
0001
0000
0100
0000
1000
0000
0100
0000
0001
0000
1001
0000
;

//---------------dance-single - ----------------
#NOTES:
     dance-single:
     :
     Hard:
     9:
     0.712288,0.731785,0.171394,0.062325,0.268777,640.000000,618.000000,22.000000,8.000000,0.000000,0.000000,0.712288,0.731785,0.171394,0.062325,0.268777,640.000000,618.000000,22.000000,8.000000,0.000000,0.000000:
0000
0000
0000
0000
,
0000
0000
0000
0000
,
0000
0000
0000
0000
,
0000
0000
0000
0000
,
0000
1000
1000
0010
0000
0010
0010
1000
,
0000
1000
1000
0001
0010
0100
1000
1000
,
0000
0001
0001
0100
0000
0100
0100
0001
,
0000
0001
0001
1000
0100
0010
0001
0100
,
0010
0000
0010
1000
0000
1000
0100
0001
,
0000
0001
0100
1000
0000
0000
1000
0010
,
1000
0100
0010
0001
0100
0010
1000
0001
,
0010
0100
1000
0001
0000
1000
0100
0010
,
0001
0000
0001
0100
1000
0100
0001
1000
,
0000
1000
0100
0010
0000
0010
0100
1000
,
0000
1000
0010
0100
0010
0001
0010
0100
,
0000
0100
0000
1001
0000
0001
1000
0001
,
0000
1000
1000
0100
0000
0100
0100
1000
,
0000
1000
1000
0001
0100
0010
1000
1000
,
0000
0001
0001
0010
0000
0010
0010
0001
,
0000
0001
0001
1000
0010
0100
0001
0010
,
0100
0000
0100
0010
0000
0010
0001
0100
,
0010
1000
0001
0010
0000
0000
0001
0000
,
1000
0100
0001
0100
1000
0010
0100
0001
,
0010
0100
1000
0001
0000
0001
1000
0100
,
0010
0000
0010
0100
1000
0010
0100
0001
,
0000
0001
0010
1000
0000
1000
0010
0001
,
0000
0001
0100
0010
1000
0000
1000
0001
,
1000
0100
0010
0001
0100
0010
1000
0100
,
1000
0010
1000
0010
0000
0010
0100
0000
0100
0001
0000
0001
,
0010
0000
0010
0100
0000
0100
0010
0000
0010
0001
0000
0001
,
0100
0010
0100
0010
0000
0010
1000
0000
1000
0001
0000
0001
,
0010
0000
0010
0100
0000
0100
1000
0000
1000
0010
0000
0010
,
0100
0001
0100
0001
0000
0000
0010
0100
0010
0100
0000
0000
,
1000
0001
1000
0001
0000
0000
0100
0010
0100
0010
0000
0000
,
1000
0000
0100
0000
1000
0010
0000
1000
0000
0001
0000
0010
0100
0000
1000
0000
,
0010
0000
0100
0000
0001
1000
0000
0002
0000
0000
0000
0000
1003
0000
0000
0000
,
1000
1000
0001
0001
1000
0100
0010
0001
,
1000
0010
0100
0010
1000
0100
0001
0100
,
1000
0010
1000
0010
0001
0010
0001
0010
,
1000
0100
0010
0001
1000
0010
0100
0000
,
0001
0001
1000
1000
0001
0010
0100
1000
,
0001
0100
1000
0100
0001
0010
0100
0010
,
0001
0100
0001
0100
1000
0100
1000
0100
,
0001
0010
0100
1000
0001
0100
0010
1000
,
0100
0000
0100
0010
0000
0010
0001
1000
,
0002
0100
0010
1003
,
1010
0011
0101
1100
,
1001
0001
1000
0010
,
0000
1000
1000
0001
0000
0001
0001
0010
,
0000
0010
0010
0100
0100
1000
0000
0001
,
0001
1000
0000
1000
1000
0010
0000
0010
,
0010
1000
0100
0010
0000
0001
0001
0100
,
0000
0100
0100
0001
0000
0001
0100
0000
,
0110
0000
0000
1000
1000
0010
0000
0010
,
0010
1000
0000
1000
1000
0010
0100
0001
,
0011
0001
0001
1010
,
1000
1000
0101
0001
,
0001
1100
1000
1000
,
1001
0001
0010
0100
,
1000
0010
0110
0100
,
0100
0010
0010
0100
,
1001
0001
0001
1001
,
1000
1000
2002
0000
,
0000
3003
1000
0000
,
0010
0000
0000
0000
0000
0000
1000
0000
0100
0000
0010
0001
,
0010
0000
0001
0000
0100
0000
0010
0000
1000
0000
0100
0010
,
0100
0000
1000
0000
0010
0000
0100
0000
0001
0000
0010
0100
,
0010
0000
0001
0000
1000
0000
0001
0000
0100
0000
0010
1000
,
0010
0000
1000
0000
0100
0000
1000
0000
0010
0000
0100
0001
,
0100
0000
0001
0000
0010
0000
0100
0000
1000
0000
0010
0100
,
0010
0000
0000
0000
0000
0000
0000
0000
1000
0000
0000
0000
0000
0000
0000
0000
0001
0000
0000
0000
0010
0000
0000
0000
0001
0000
0000
0000
0000
0000
0100
0000
0000
0000
0000
0000
0001
0000
0000
0010
0000
0000
0000
0000
0000
0001
0000
0000
,
0000
1000
0000
0010
0100
0000
0001
0000
0010
0000
0100
0000
1000
0001
0000
2000
,
0000
0000
3001
0000
1000
0010
0100
0000
,
0001
0001
1000
1000
0001
0010
0100
0001
,
0100
1000
0010
0001
0010
0100
1000
0100
,
0001
0010
0001
0010
1000
0010
1000
0010
,
0001
0100
0010
1000
0001
0010
0100
0000
,
1000
1000
0001
0001
1000
0010
0100
1000
,
0100
0001
0010
1000
0010
0100
0001
0100
,
1000
0010
1000
0010
0001
0010
0001
0010
,
1000
0100
0010
0001
1000
0010
0100
0001
,
0010
0000
0010
0100
0000
0100
1000
0010
,
2000
0100
3002
0100
,
1003
1000
0100
0100
1000
0010
0001
0010
,
0100
0001
1000
0100
0001
1000
0010
0100
,
1000
0010
1000
0010
0001
0010
0001
0010
,
1000
0100
0010
0001
1000
0010
0100
0000
,
0001
0001
0010
0010
0001
0100
1000
0100
,
0010
1000
0001
0010
1000
0001
0100
0010
,
0001
0100
0001
0100
1000
0100
1000
0100
,
0001
0010
0100
1000
0001
0100
0010
1000
,
0100
0000
0100
0010
0000
0010
0001
1000
,
0002
0100
0010
1003
,
1100
0101
0011
1010
,
1001
0001
1000
0100
,
0000
1000
1000
0001
0000
0001
0001
1000
,
0000
0010
0010
1000
0100
0010
0001
0001
,
0000
1000
1000
0001
0000
0001
0001
1000
,
0000
0100
0100
1000
0010
0100
0001
1001
;

//---------------dance-single - ----------------
#NOTES:
     dance-single:
     :
     Medium:
     7:
     0.582073,0.577725,0.241510,0.054535,0.023372,523.000000,492.000000,31.000000,7.000000,0.000000,0.000000,0.582073,0.577725,0.241510,0.054535,0.023372,523.000000,492.000000,31.000000,7.000000,0.000000,0.000000:
0000
0000
0000
0000
,
0000
0000
0000
0000
,
0000
0000
0000
0000
,
0000
0000
0000
0000
,
0000
1000
0100
0010
0000
0010
0100
1000
,
0000
1000
0010
0100
0010
1000
0001
0010
,
0000
0001
0100
0010
0000
0010
0100
0001
,
0000
0001
0010
0100
0010
0001
1000
0010
,
1000
0000
0100
0000
1000
0001
1000
0000
,
0001
0100
0001
0010
0000
0001
1000
0000
,
0001
0000
0100
0000
0001
1000
0001
0000
,
1000
0100
1000
0010
0000
1000
0001
0000
,
1000
0000
0010
0000
0100
0010
0100
0000
,
0001
0010
0001
0010
0000
0100
1000
0000
,
0001
0000
0100
0000
0010
1000
0010
0000
,
1000
0100
0010
0001
0000
1000
0010
1000
,
0000
0001
0010
0100
0000
0100
0010
0001
,
0000
0001
0100
0010
0100
0001
1000
0100
,
0000
1000
0010
0100
0000
0100
0010
1000
,
0000
1000
0100
0010
0100
1000
0001
0100
,
0001
0000
1000
0000
0100
0010
0100
0000
,
1000
0010
1000
0001
0000
0010
0100
0000
,
1000
0000
0001
0000
0100
0010
0100
0000
,
0001
0010
0001
1000
0000
0010
0100
0010
,
1000
0000
0001
0000
1000
0100
1000
0000
,
0010
0100
0010
0100
0000
0001
1000
0000
,
0001
0000
1000
0000
0001
0010
0001
0000
,
1000
1000
0001
0001
,
1000
0000
1010
0000
,
0001
0001
0011
0000
,
1000
0000
1100
0000
,
0001
0001
0101
0100
,
0110
0010
1010
1000
,
1100
0100
0110
0010
,
0001
0000
1000
0000
0001
0000
0000
0100
0000
0010
0000
0000
1000
0000
0001
0000
,
0010
0000
0100
0000
1000
0000
0001
0200
0000
0000
0000
0000
0310
0000
0000
0000
,
1000
0100
0001
0100
1000
0000
0010
0000
,
0100
0001
0010
0100
,
1000
0010
1000
0010
0100
0001
0100
0001
,
0010
0010
0100
0100
,
1000
0010
0001
0010
1000
0000
0100
0000
,
0010
0001
0100
0010
,
1000
0100
1000
0100
0010
0001
0010
0001
,
0100
0100
0010
0010
,
1000
0000
0100
0010
0000
0010
0001
0100
,
0002
1000
1000
1003
,
1001
0010
1001
0100
,
1001
0110
1001
0001
,
0000
1000
0100
0010
0000
0010
0100
1000
,
0000
1000
0010
0100
0010
1000
0000
0001
,
0010
0100
0000
0100
0010
0001
0000
0001
,
0100
0010
0100
0001
0000
1000
0100
0010
,
0000
0010
0100
1000
0000
1000
0001
0000
,
1001
0000
0000
0001
0100
0010
0000
0010
,
0100
0001
0000
0001
0010
0100
0010
0001
,
1000
0100
1000
0001
,
0100
0001
1000
0010
,
1000
0001
0010
0001
,
1000
1000
1000
0001
,
0001
0001
1001
1001
,
1001
0110
0110
0110
,
0001
0100
0010
1000
,
0100
0010
0002
0000
,
0003
0000
1000
0000
,
0001
0000
1000
0010
,
0110
0100
0001
0010
,
0110
0100
1000
0001
,
0101
0100
0010
1000
,
1100
0100
0010
0001
,
0011
0010
0100
1000
,
1100
0000
0000
0000
0100
0000
0000
0000
1000
0000
0001
0000
1000
0000
0000
0010
,
0000
0100
0000
0000
0001
0000
1000
0000
0100
0000
0010
0000
0001
0000
1000
0020
,
0000
0130
0000
0000
,
0001
0100
1000
0100
0001
0000
0010
0000
,
0100
1000
0010
0100
,
0001
0010
0001
0010
0100
1000
0100
1000
,
0010
0010
0100
0100
,
0001
0010
1000
0010
0001
0000
0100
0000
,
0010
1000
0100
0010
,
0001
0100
0001
0100
0010
1000
0010
1000
,
0100
0100
0010
0010
,
0001
0000
0100
0010
0000
0010
1000
0100
,
2000
0001
3002
1000
,
1003
0010
0001
0010
1000
0000
0100
0000
,
0010
0100
1000
0001
,
0100
0010
0100
0010
1000
0001
1000
0001
,
0010
0100
0010
0000
0100
0010
0100
0000
,
1000
0010
0001
0010
1000
0000
0001
0000
,
0010
0100
0010
0001
,
1000
0010
1000
0010
0100
0001
0100
0001
,
0010
0100
0010
0000
0100
0010
0100
0000
,
1000
0000
0010
0100
0000
0100
0001
0010
,
0002
1000
1000
1003
,
1001
0100
1001
0010
,
1001
0110
1001
0001
,
0000
1000
0010
0100
0000
0100
0010
1000
,
0000
1000
0100
0010
0100
1000
0001
0100
,
0000
0001
0010
0100
0000
0100
0010
0001
,
0000
0001
0100
0010
0100
0001
1000
0100
;

//---------------dance-single - ----------------
#NOTES:
     dance-single:
     :
     Easy:
     5:
     0.421808,0.462180,0.093488,0.085697,0.000000,379.000000,367.000000,12.000000,11.000000,0.000000,0.000000,0.421808,0.462180,0.093488,0.085697,0.000000,379.000000,367.000000,12.000000,11.000000,0.000000,0.000000:
0000
0000
0000
0000
,
0000
0000
0000
0000
,
0000
0000
0000
0000
,
0000
0000
0000
0000
,
1000
0001
1000
0001
,
0010
0100
1000
0010
,
1000
0001
1000
0001
,
1000
0100
0010
0001
,
1000
0010
1000
0001
,
0010
0000
0100
1000
0000
0001
1000
0000
,
0001
0100
0001
1000
,
0100
0000
0010
0001
0000
1000
0001
0000
,
1000
0010
0100
0010
,
1000
0000
0001
0010
0000
0001
1000
0000
,
0001
0100
0010
0100
,
0001
0000
0010
0100
0000
1000
0001
1000
,
0001
1000
0001
1000
,
0010
0100
0001
0010
,
0001
1000
0001
1000
,
0001
0100
0010
1000
,
0001
0010
0001
1000
,
0010
0000
0100
0001
0000
1000
0001
0000
,
1000
0100
1000
0001
,
0100
0000
0010
1000
0000
0001
1000
0000
,
0001
0010
0100
0010
,
0001
0000
1000
0010
0000
1000
0001
0000
,
1000
0100
0010
0100
,
1000
1000
0001
0001
,
1000
0000
1010
0000
,
0001
0000
0011
0000
,
1000
0000
1100
0000
,
0001
0000
0101
0000
,
1000
0010
0110
0000
,
0001
0010
0110
0000
,
1000
0000
1000
0000
0010
0100
0010
0000
,
0100
0001
1001
0000
,
1000
0001
1000
0001
1000
0000
0010
0000
,
1000
0001
0010
0001
,
0100
0100
0010
0010
,
1000
1000
0001
0001
,
1000
0001
1000
0001
1000
0000
0100
0000
,
1000
0001
0100
0001
,
0010
0010
0100
0100
,
1000
1000
0001
0001
,
1000
0000
0010
0100
0000
0010
0100
0000
,
0002
0000
0000
0003
,
1001
1000
1001
0001
,
1000
0100
0010
0001
,
1000
0001
1000
0001
,
0010
0100
1000
0001
,
1000
0001
1000
0010
,
0100
0001
1000
0001
,
1000
0001
0010
0100
,
0110
0010
0001
1000
,
0001
1000
0010
0100
,
0002
0000
0003
2000
,
0000
3000
0200
0000
,
0300
0020
0000
0030
,
0002
0000
0000
0000
,
0000
0003
1000
0001
,
1000
0010
0100
0010
,
1000
1000
1000
0001
,
0001
0001
2000
0000
,
3000
0000
0001
0000
,
1000
0000
0001
0010
,
0100
1000
0001
0100
,
0010
1000
0001
0010
,
0100
0010
0001
1000
,
0010
0100
0010
1000
,
0100
0010
0001
1000
,
0010
0100
0001
0001
,
0100
0010
0100
0000
0010
0000
1000
0000
,
0100
0000
0020
0030
,
0001
1000
0001
1000
0001
0000
0010
0000
,
0001
1000
0010
1000
,
0100
0100
0010
0010
,
0001
0001
1000
1000
,
0001
1000
0001
1000
0001
0000
0100
0000
,
0001
1000
0100
1000
,
0010
0010
0100
0100
,
0001
0001
1000
1000
,
0001
0000
0010
0100
0000
0010
0100
0000
,
2000
0000
3002
0000
,
1003
0010
1000
0010
1000
0000
0001
0000
,
0010
0001
0100
0010
,
1000
1000
0100
0100
,
0010
0010
0001
0001
,
0100
0010
0100
0010
0100
0000
0001
0000
,
0010
0100
1000
0010
,
1000
1000
0100
0100
,
0010
0010
0001
0001
,
1000
0000
0001
1000
0000
0001
1000
0000
,
0002
0000
0000
0003
,
1001
1000
1001
0001
,
1000
0100
0010
0001
,
1000
0001
1000
0001
,
0010
0100
1000
0010
,
1000
0001
1000
0001
,
1000
0000
0100
0000
0010
0000
0001
1000
;

//---------------dance-single - ----------------
#NOTES:
     dance-single:
     :
     Beginner:
     3:
     0.224816,0.307731,0.007791,0.077907,0.000000,202.000000,201.000000,1.000000,10.000000,0.000000,0.000000,0.224816,0.307731,0.007791,0.077907,0.000000,202.000000,201.000000,1.000000,10.000000,0.000000,0.000000:
// measure 0
0000
0000
0000
0000
,  // measure 1
0000
0000
0000
0000
,  // measure 2
0000
0000
0000
0000
,  // measure 3
0000
0000
0000
0000
,  // measure 4
1000
0001
0000
1000
,  // measure 5
0000
0001
0000
1000
,  // measure 6
0000
0010
0000
0100
,  // measure 7
0000
0010
0000
0100
,  // measure 8
0001
1000
0000
1000
,  // measure 9
0000
0001
0000
0001
,  // measure 10
0000
0010
0000
0010
,  // measure 11
0000
0100
0000
0100
,  // measure 12
1000
0001
0000
0001
,  // measure 13
0000
1000
0000
1000
,  // measure 14
0000
0010
0000
0010
,  // measure 15
0000
0100
0000
0100
,  // measure 16
0001
1000
0000
0001
,  // measure 17
0000
1000
0000
0001
,  // measure 18
0000
0010
0000
0100
,  // measure 19
0000
0010
0000
0100
,  // measure 20
1000
0001
0000
0001
,  // measure 21
0000
1000
0000
1000
,  // measure 22
0000
0010
0000
0010
,  // measure 23
0000
0100
0000
0100
,  // measure 24
0000
0001
0000
0001
,  // measure 25
0000
1000
0000
1000
,  // measure 26
0000
0100
0000
0100
,  // measure 27
0000
0010
0000
0010
,  // measure 28
0001
0000
0100
0000
,  // measure 29
0010
0000
1000
0000
,  // measure 30
0001
0000
0010
0000
,  // measure 31
0100
0000
1000
0000
,  // measure 32
0001
0000
1000
0000
,  // measure 33
0010
0000
0100
0000
,  // measure 34
0001
0000
0001
0000
,  // measure 35
1000
0000
1000
0000
,  // measure 36
0001
0001
0001
0000
,  // measure 37
0100
0000
0010
0000
,  // measure 38
0100
0000
0001
0000
,  // measure 39
1000
0000
0100
0000
,  // measure 40
1000
1000
1000
0000
,  // measure 41
0010
0000
0100
0000
,  // measure 42
0010
0000
1000
0000
,  // measure 43
0001
0000
0010
0000
,  // measure 44
0001
0000
1000
0000
,  // measure 45
0002
0000
0000
0003
,  // measure 46
1000
1000
0001
0001
,  // measure 47
1000
0000
0000
0000
,  // measure 48
0001
1000
0000
0001
,  // measure 49
0000
1000
0000
0010
,  // measure 50
0100
0000
0010
0000
,  // measure 51
0100
0000
0010
1000
,  // measure 52
0000
0001
0000
1000
,  // measure 53
1001
0001
0010
0000
,  // measure 54
0100
0000
0010
0001
,  // measure 55
2000
0000
3000
0002
,  // measure 56
0000
0003
0200
0000
,  // measure 57
0300
0020
0000
0030
,  // measure 58
2000
0000
0000
0000
,  // measure 59
0000
0000
3001
0000
,  // measure 60
0000
1000
0000
0000
,  // measure 61
0001
0001
0001
1000
,  // measure 62
1000
1000
0002
0000
,  // measure 63
0003
0000
0000
0000
,  // measure 64
0000
0000
1000
0000
,  // measure 65
1000
0000
0010
0000
,  // measure 66
0010
0000
0100
0000
,  // measure 67
0100
0000
0001
0000
,  // measure 68
0001
0000
1000
0000
,  // measure 69
1000
0000
0100
0000
,  // measure 70
0100
0000
1000
0000
,  // measure 71
1000
0000
0001
0000
,  // measure 72
0001
0000
1000
0000
,  // measure 73
0001
0001
0001
0000
,  // measure 74
0010
0000
0100
0000
,  // measure 75
0010
0000
0001
0000
,  // measure 76
1000
0000
0010
0000
,  // measure 77
1000
1000
1000
0000
,  // measure 78
0100
0000
0010
0000
,  // measure 79
0100
0000
1000
0000
,  // measure 80
0001
0000
0100
0000
,  // measure 81
0001
0000
1000
0000
,  // measure 82
0002
0000
2003
0000
,  // measure 83
3001
0001
0001
0000
,  // measure 84
0010
0000
0100
0000
,  // measure 85
1000
0000
0010
0000
,  // measure 86
0100
0000
0001
0000
,  // measure 87
1000
1000
1000
0000
,  // measure 88
0100
0000
0010
0000
,  // measure 89
0001
0000
0100
0000
,  // measure 90
0010
0000
1000
0000
,  // measure 91
0001
0000
1000
0000
,  // measure 92
0002
0000
0000
0003
,  // measure 93
1000
1000
0001
0001
,  // measure 94
1000
0000
0000
0000
,  // measure 95
0001
1000
0000
0001
,  // measure 96
0000
1000
0000
0001
,  // measure 97
0000
0100
0000
0010
,  // measure 98
0000
0100
0000
0010
;
