#TITLE:Shiawase ni Nareru Kakushi Komando ga Arurashii;
#SUBTITLE:;
#ARTIST:Utatap feat. Yuzuki Yukari;
#TITLETRANSLIT:;
#SUBTITLETRANSLIT:;
#ARTISTTRANSLIT:;
#GENRE:;
#CREDIT:;
#BANNER:Shiawase ni Nareru Kakushi Komando ga Arurashii-bn.png;
#BACKGROUND:Shiawase ni Nareru Kakushi Komando ga Arurashii-bg.png;
#LYRICSPATH:;
#CDTITLE:;
#MUSIC:Shiawase ni Nareru Kakushi Komando ga Arurashii.mp3;
#OFFSET:-0.045;
#SAMPLESTART:55.820;
#SAMPLELENGTH:13.520;
#SELECTABLE:YES;
#BPMS:0.000=142.000;
#STOPS:60.000=1.690
,160.000=1.690
;
#TIMESIGNATURES:0.000=4=4
;
#BGCHANGES:;
#KEYSOUNDS:;

//---------------dance-single - ----------------
#NOTES:
     dance-single:
     :
     Challenge:
     9:
     0.620,0.661,0.313,0.016,0.532,513.000,40.000,2.000,0.000,0.000,0.000,0.620,0.661,0.313,0.016,0.532,513.000,40.000,2.000,0.000,0.000,0.000:
0000
0000
0000
0000
,
0000
0000
0000
0000
,
0000
0000
0000
0000
,
0000
0000
0000
0000
,
1000
0001
0000
0000
0100
0000
0000
0010
1000
0000
0000
0000
1000
0010
0000
0000
,
0010
0100
0000
0000
0001
0000
0000
1000
0100
0000
0000
0000
0100
0010
0000
0000
,
0010
0000
0000
0000
0010
0000
0000
0000
0100
0000
0000
0000
0100
0000
0000
0100
,
1000
0000
0000
0000
0001
0000
0000
0001
1000
0000
0000
0000
0001
0000
0000
0000
,
1000
0001
0000
0000
0101
0000
0000
0010
1000
0000
0000
0000
1010
0000
0000
0000
,
0010
0100
0000
0000
1001
0000
0000
1000
0100
0000
0000
0000
0100
0010
0000
0000
,
0010
0000
0000
0000
0110
0000
0000
0000
0100
0000
0000
0000
0110
0000
0000
0100
,
1000
0000
0000
0000
1001
0000
0000
0001
1000
0000
0000
0000
1001
0000
0000
0000
,
1000
0001
0000
0000
0101
0000
0000
0010
1000
0000
0000
0000
1010
0000
0000
0000
,
0010
0100
0000
0000
1001
0000
0000
1000
0100
0000
0000
0000
0100
0010
0000
0000
,
0010
0110
0100
0110
,
0000
0001
0000
0000
0000
0000
0000
0000
0000
0000
0000
0000
0000
0000
0000
0000
0000
0000
0000
0000
0000
0000
0000
0000
0100
0000
0000
0000
0000
0000
0000
0000
0000
0000
0000
0000
0000
0000
0000
0000
0000
0000
0000
0000
0000
0000
0000
0000
0010
0000
0000
0000
0000
0000
0000
0000
0000
0000
0000
0000
0000
0000
0000
0000
0000
0000
0000
0000
0000
0000
0000
0000
1000
0000
0000
0000
0000
0000
0000
0000
0000
0000
0000
0000
0000
0000
0000
0000
0000
0000
0000
0000
0000
0000
0000
0000
0001
0000
0000
0000
0000
0000
0000
0000
0000
0000
0000
0000
0000
0000
0000
0000
0000
0000
0000
0000
0000
0000
0000
0000
0100
0000
0000
0000
0000
0000
0000
0000
0000
0000
0000
0000
0000
0000
0000
0000
0000
0000
0000
0000
0000
0000
0000
0000
0010
0000
0000
0000
0000
0000
0000
0000
0000
0000
0000
0000
0000
0000
0000
0000
0000
0000
0000
0000
0000
0000
0000
0000
1000
0000
0000
0000
0000
0000
0000
0000
0000
0000
0000
0000
0000
0000
0000
0000
0000
0000
0000
0000
0000
0000
0000
0000
,
0001
1000
0000
0000
1010
0000
0000
0100
0001
0000
0000
0000
0101
0000
0000
0000
,
0100
0010
0000
0000
1001
0000
0000
0001
0010
0000
0000
0000
0010
0100
0000
0000
,
0100
0000
0000
0000
0110
0000
0000
0000
0010
0000
0000
0000
0110
0000
0000
0010
,
0001
0000
0000
0000
1001
0000
0000
1000
0001
0000
0000
0000
1001
0000
0000
0000
,
0001
1000
0000
0000
1100
0000
0000
0010
0001
0000
0000
0000
0011
0000
0000
0000
,
0010
0100
0000
0000
1001
0000
0000
0001
0100
0000
0000
0000
0100
0010
0000
0000
,
0010
0110
0100
0110
,
0010
1000
0001
0100
0010
1000
0001
0100
,
0001
0000
0000
1000
0000
0000
0100
0000
0000
1000
0000
0001
0000
0100
0010
0000
,
1000
0000
0000
0001
0000
0000
0100
0000
0000
0001
0000
1000
0000
0100
0010
0000
,
0001
0000
0000
1000
0000
0000
0010
0000
0000
1000
0000
0001
0000
0010
0100
0000
,
1000
0000
0000
0001
0000
0000
0010
0000
0000
0001
0000
1000
0000
0010
0100
0000
,
0001
0000
0000
0010
0000
0000
0100
0000
0000
0010
0000
0001
0000
1000
0010
0000
,
1000
0000
0000
0010
0000
0000
0100
0000
0000
0010
0000
1000
0000
0001
0010
0000
,
0001
0000
0000
0100
0000
0000
0010
0000
0000
0100
0000
0001
0000
1000
0100
0000
,
0010
0001
1000
0100
0010
0001
1000
0100
,
0010
0000
0001
0000
0100
0000
1000
0000
0100
0000
0010
1000
0000
0000
0100
0000
,
0000
0000
0010
0000
0001
0000
0100
0000
0010
0000
1000
0100
0000
0000
0000
0000
,
0000
0000
0010
0000
1000
0000
0010
0000
0001
0000
0100
0001
0000
0000
1000
0000
,
0000
0000
0001
0000
0010
0000
0001
0000
1000
0000
0100
0010
0000
0000
0001
0000
,
0000
0100
0001
0010
1000
0010
0000
0001
,
0000
0000
0100
0000
0001
0000
0010
0000
0100
0000
1000
0010
0000
0000
0000
0000
,
0000
0000
0100
0000
1000
0000
0100
0000
0001
0000
0010
0001
0000
0000
1000
0000
,
0001
0000
0100
0000
0010
0000
1000
0000
0001
0100
0010
1000
0001
0100
0010
1000
,
0000
0001
0000
0000
0000
0000
0000
0000
0000
0000
0000
0000
0000
0000
0000
0000
0000
0000
0000
0000
0000
0000
0000
0000
0010
0000
0000
0000
0000
0000
0000
0000
0000
0000
0000
0000
0000
0000
0000
0000
0000
0000
0000
0000
0000
0000
0000
0000
0100
0000
0000
0000
0000
0000
0000
0000
0000
0000
0000
0000
0000
0000
0000
0000
0000
0000
0000
0000
0000
0000
0000
0000
1000
0000
0000
0000
0000
0000
0000
0000
0000
0000
0000
0000
0000
0000
0000
0000
0000
0000
0000
0000
0000
0000
0000
0000
0001
0000
0000
0000
0000
0000
0000
0000
0000
0000
0000
0000
0000
0000
0000
0000
0000
0000
0000
0000
0000
0000
0000
0000
0010
0000
0000
0000
0000
0000
0000
0000
0000
0000
0000
0000
0000
0000
0000
0000
0000
0000
0000
0000
0000
0000
0000
0000
0100
0000
0000
0000
0000
0000
0000
0000
0000
0000
0000
0000
0000
0000
0000
0000
0000
0000
0000
0000
0000
0000
0000
0000
1000
0000
0000
0000
0000
0000
0000
0000
0000
0000
0000
0000
0000
0000
0000
0000
0000
0000
0000
0000
0000
0000
0000
0000
,
0001
0100
0001
0000
1000
0100
1000
0000
0001
0000
0100
0000
1000
0000
0100
0000
,
0001
0010
0001
0000
1000
0010
1000
0000
0001
0000
0010
0000
0100
1000
0100
0000
,
0010
0001
0010
0000
0100
0000
0010
0000
0001
0100
0001
0000
1000
0010
1000
0000
,
0100
0000
0001
0000
0100
0010
0100
0000
1000
0000
0000
0000
0001
0000
0100
0000
,
0010
0100
0000
0100
0001
0000
0000
0000
1000
0000
0100
0000
0010
0000
0000
0100
,
1000
0000
0000
0000
0000
0000
0001
0000
0000
0000
0000
0000
0010
0000
0000
0000
0001
0000
0000
0000
0000
0000
0000
0000
1000
0000
0000
0000
0000
0000
1000
0000
0000
0000
0000
0000
0010
0000
0000
0100
0000
0000
0000
0000
0000
0100
0000
0000
,
0001
1000
0000
1000
0100
0000
0100
0010
0000
0010
0001
0000
,
1000
0010
0100
0001
1000
0010
0100
0001
,
1000
1000
0001
0001
0100
0100
0010
0010
,
1000
0001
0000
0000
1000
0100
1000
0000
0001
0010
0001
0010
0001
1000
0001
1000
,
0001
0000
0001
0000
0010
0000
0010
0000
0001
0100
0001
0000
1000
0010
1000
0000
,
0001
0000
0001
0000
0010
0000
0010
0000
0001
1000
0001
1000
0100
1000
0100
1000
,
0001
0100
0000
0000
0100
0000
0010
0000
0100
0000
0001
0000
1000
0100
0000
0000
,
0010
0001
0010
0001
1000
0001
1000
0000
0010
0000
0010
0000
0100
0000
0100
0000
,
0001
0000
0000
0000
1000
0000
0000
0000
0100
0010
0000
0000
0010
0001
0000
0000
,
1000
0100
0010
0001
1000
0100
0010
0001
,
0101
0000
0001
0000
0100
0000
0010
0000
1000
0000
0100
1000
0000
0000
1100
0000
,
1100
0000
0100
0000
0010
0000
0001
0000
1000
0000
0000
1000
0001
0000
0101
0000
,
0101
0000
0100
0000
0010
0000
1000
0000
0100
0000
0010
0100
0000
0000
1000
0001
,
1000
0000
0001
0000
0010
0000
0001
0000
1000
0000
0001
0100
0000
0000
0010
0000
,
1000
0000
0100
0000
0010
0000
0001
0000
1000
0000
0001
0000
0010
0000
0100
0010
,
0001
0000
0100
0000
0010
0000
1000
0000
0001
0000
1000
0010
0000
0000
0100
0000
,
0010
0000
1000
0000
0100
0000
1000
0000
0001
0000
0010
0001
0000
0000
0100
0000
,
0001
0000
0010
0000
0100
0000
1000
0000
0001
0010
0100
1000
0001
0010
0100
1000
,
0001
1000
0000
0000
1010
0000
0000
0100
0001
0000
0000
0000
0101
0000
0000
0000
,
0100
0010
0000
0000
1000
0000
0000
0001
0010
0000
0000
0000
0010
0100
0000
0000
,
0100
0000
0000
0000
1001
0000
0000
0000
0010
0000
0000
0000
1001
0000
0000
0001
,
1000
0000
0000
0000
1100
0000
0000
1000
0001
0000
0000
0000
0101
0000
0000
0000
,
0001
1000
0000
0000
1100
0000
0000
0010
0001
0000
0000
0000
0011
0000
0000
0000
,
0010
0100
0000
0000
1000
0000
0000
0001
0100
0000
0000
0000
0100
0010
0000
0000
,
0010
0000
0000
0000
1001
0000
0000
0000
0100
0000
0000
0000
1001
0000
0000
0001
,
1000
0000
0100
0000
0010
0000
0001
0000
1000
0000
0000
0100
0010
0000
0001
0000
,
2002
0000
3003
0000
;

//---------------dance-single - ----------------
#NOTES:
     dance-single:
     :
     Hard:
     8:
     0.564,0.546,0.149,0.047,0.297,480.000,19.000,6.000,0.000,0.000,0.000,0.564,0.546,0.149,0.047,0.297,480.000,19.000,6.000,0.000,0.000,0.000:
0000
0000
0000
0000
,
0000
0000
0000
0000
,
0000
0000
0000
0000
,
0000
0000
0000
0000
,
0001
0100
0000
0000
0100
0000
0000
0001
0010
0000
0000
0000
0001
0010
0000
0000
,
0001
0100
0000
0000
0100
0000
0000
0100
0001
0000
0000
0000
0001
0100
0000
0000
,
0010
0000
0000
0000
0010
0000
0000
0000
0100
0000
0000
0000
0100
0000
0000
0001
,
1000
0000
0000
0000
0001
0000
0000
0001
1000
0000
0000
0000
0001
0000
0000
0000
,
0001
0100
0000
0000
0101
0000
0000
0001
0010
0000
0000
0000
0011
0000
0000
0000
,
0001
0100
0000
0000
0101
0000
0000
0100
0001
0000
0000
0000
0101
0000
0000
0000
,
0010
0000
0000
0000
0110
0000
0000
0000
0100
0000
0000
0000
0110
0000
0000
0001
,
1000
0000
0000
0000
1001
0000
0000
0001
1000
0000
0000
0000
1001
0000
0000
0000
,
0001
1000
0100
1000
0010
0100
0001
0010
,
0001
1000
0100
0010
0001
0100
0001
1000
,
0010
0100
0010
1000
0100
0010
0100
1000
,
0000
0001
0000
0000
0000
0000
0000
0000
0000
0000
0000
0000
0000
0000
0000
0000
0000
0000
0000
0000
0000
0000
0000
0000
1000
0000
0000
0000
0000
0000
0000
0000
0000
0000
0000
0000
0000
0000
0000
0000
0000
0000
0000
0000
0000
0000
0000
0000
0001
0000
0000
0000
0000
0000
0000
0000
0000
0000
0000
0000
0000
0000
0000
0000
0000
0000
0000
0000
0000
0000
0000
0000
1000
0000
0000
0000
0000
0000
0000
0000
0000
0000
0000
0000
0000
0000
0000
0000
0000
0000
0000
0000
0000
0000
0000
0000
0010
0000
0000
0000
0000
0000
0000
0000
0000
0000
0000
0000
0000
0000
0000
0000
0000
0000
0000
0000
0000
0000
0000
0000
0100
0000
0000
0000
0000
0000
0000
0000
0000
0000
0000
0000
0000
0000
0000
0000
0000
0000
0000
0000
0000
0000
0000
0000
0001
0000
0000
0000
0000
0000
0000
0000
0000
0000
0000
0000
0000
0000
0000
0000
0000
0000
0000
0000
0000
0000
0000
0000
1000
0000
0000
0000
0000
0000
0000
0000
0000
0000
0000
0000
0000
0000
0000
0000
0000
0000
0000
0000
0000
0000
0000
0000
,
0001
1000
0000
0000
0100
1000
0000
0000
0010
1000
0000
0000
0001
1000
0000
0000
,
0001
0010
0000
0000
0100
1000
0000
0000
0001
0100
0000
0000
0001
1000
0000
0000
,
0010
0000
0000
0000
0010
0000
0000
0000
0100
0000
0000
0000
0100
0000
0000
0001
,
1000
0000
0000
0000
0001
0000
0000
0001
1000
0000
0000
0000
0001
0000
0000
0000
,
0001
1000
0000
0000
0100
1000
0000
0000
0010
1000
0000
0000
0001
1000
0000
0000
,
0001
0010
0000
0000
0100
1000
0000
0000
0001
0100
0000
0000
0001
1000
0000
0000
,
0010
0010
0100
0100
,
0001
1000
0001
1000
0100
0010
0001
1000
,
0001
0000
0000
1000
0000
0000
0100
0000
0000
0010
0000
0001
0000
1000
0001
0000
,
1000
0000
0000
0001
0000
0000
0100
0000
0000
0010
0000
1000
0000
0001
1000
0000
,
0010
0000
0000
0000
0010
0000
0000
0000
0100
0000
0000
0000
0100
0000
0000
0001
,
1000
0000
0000
0000
0101
0000
0000
0001
1000
0000
0000
0000
1100
0000
0000
0000
,
0001
0010
0100
1000
0010
0100
0001
0010
,
0001
1000
0100
0010
0001
0100
0001
1000
,
0010
0100
0010
1000
0100
0010
0100
1000
,
0010
0100
0010
0100
0001
0100
0010
1000
,
0100
0000
1000
0000
0001
0000
1000
0000
0010
0000
1000
0001
0000
0000
0010
0000
,
0000
0000
0001
0000
1000
0000
0001
0000
0100
0000
0001
0010
0000
0000
0000
0000
,
0000
0000
0100
0000
0010
0000
0100
0000
1000
0000
0100
0010
0000
0000
0100
0000
,
0000
0000
0010
0000
0100
0000
0010
0000
0001
0000
0010
0100
0000
0000
1000
0000
,
0000
0001
0010
0001
0100
0001
0000
1000
,
0000
0000
0010
0000
0100
0000
0010
0000
1000
0000
0010
0100
0000
0000
0000
0000
,
0000
0000
0001
0000
0010
0000
0001
0000
1000
0000
0001
0100
0000
0000
0010
0000
,
1000
0000
0100
0000
1000
0000
0100
0000
1000
0100
1000
0100
1000
0100
1000
0100
,
0000
0010
0000
0000
0000
0000
0000
0000
0000
0000
0000
0000
0000
0000
0000
0000
0000
0000
0000
0000
0000
0000
0000
0000
0100
0000
0000
0000
0000
0000
0000
0000
0000
0000
0000
0000
0000
0000
0000
0000
0000
0000
0000
0000
0000
0000
0000
0000
0010
0000
0000
0000
0000
0000
0000
0000
0000
0000
0000
0000
0000
0000
0000
0000
0000
0000
0000
0000
0000
0000
0000
0000
0100
0000
0000
0000
0000
0000
0000
0000
0000
0000
0000
0000
0000
0000
0000
0000
0000
0000
0000
0000
0000
0000
0000
0000
1000
0000
0000
0000
0000
0000
0000
0000
0000
0000
0000
0000
0000
0000
0000
0000
0000
0000
0000
0000
0000
0000
0000
0000
0100
0000
0000
0000
0000
0000
0000
0000
0000
0000
0000
0000
0000
0000
0000
0000
0000
0000
0000
0000
0000
0000
0000
0000
0010
0000
0000
0000
0000
0000
0000
0000
0000
0000
0000
0000
0000
0000
0000
0000
0000
0000
0000
0000
0000
0000
0000
0000
0001
0000
0000
0000
0000
0000
0000
0000
0000
0000
0000
0000
0000
0000
0000
0000
0000
0000
0000
0000
0000
0000
0000
0000
,
1000
1000
0001
0001
1000
0010
0001
0010
,
1000
1000
0001
0001
1000
0100
0010
0010
,
0100
0100
0010
0100
1000
1000
0001
0001
,
0010
1000
0010
0010
0001
0000
1000
0010
,
1000
0001
0000
1000
0001
0000
0000
0000
0001
0000
0010
0000
0100
0000
0000
0010
,
0001
0000
0000
0000
0000
0000
1000
0000
0000
0000
0000
0000
0100
0000
0000
0000
1000
0000
0000
0000
0000
0000
0000
0000
0001
0000
0000
0000
0000
0000
0001
0000
0000
0000
0000
0000
1000
0000
0000
0001
0000
0000
0000
0000
0000
1000
0000
0000
,
0001
0001
0010
0010
0100
0100
1000
1000
,
0001
0100
0001
0100
0010
1000
0001
0100
,
0001
0001
1000
1000
0001
0001
1000
1000
,
0100
0010
0000
0000
0010
0001
0010
0000
0001
0000
0100
0000
1000
0000
0100
0000
,
0001
0000
0001
0000
0010
0000
0010
0000
0100
0010
0000
0000
0100
1000
0000
0000
,
0001
0001
0100
0100
0001
0010
1000
0010
,
0001
0000
0000
0000
0010
0000
0010
0000
0001
0000
1000
0000
0010
0100
0000
0000
,
0010
0001
0010
1000
0010
0100
0001
0100
,
0010
0000
0000
0000
1000
0000
0000
0000
0100
0010
0000
0000
0100
0000
0000
0000
,
1000
0100
1000
0100
0010
0001
1000
0100
,
0110
0000
0000
0000
0010
0000
0000
0011
,
0011
0000
0000
0000
0000
0000
0001
0000
0100
0000
0000
0010
0100
0000
0001
0000
,
0101
0000
0000
0000
0000
0000
0100
0000
0010
0000
1000
0000
1000
0000
0001
0010
,
0001
0000
0000
0000
1000
0000
0000
0000
0010
0000
1000
0000
0100
1000
0100
1000
,
0100
1000
0001
1000
0010
1000
0100
0010
,
0000
0000
0001
0000
0100
0000
0001
0000
1000
0000
0001
0010
0000
0000
0000
0000
,
0000
0000
0100
0000
0010
0000
0100
0000
1000
0000
0100
0010
0000
0000
0001
0000
,
2002
0000
0000
0000
0000
0000
3003
0000
1001
0000
0000
1000
0001
0000
0100
0000
,
0001
0000
0100
0000
0010
1000
0001
0000
,
0001
0000
0100
0000
0001
1000
0001
0000
,
0010
0000
0000
0000
0010
0000
0000
0000
0100
0000
0000
0000
0100
0000
0000
0100
,
1000
0000
0000
0000
0001
0000
0000
0001
1000
0000
0000
0000
0001
0000
0000
0000
,
0001
1000
0100
1000
0010
1000
0001
0100
,
0001
0010
0100
0010
0001
1000
0001
1000
,
0010
1000
0010
1000
0100
1000
0100
1000
,
2200
0000
0000
0000
0000
0000
3300
0000
1100
0000
0000
1000
0001
0000
0010
0000
,
0022
0000
0033
0000
;

//---------------dance-single - ----------------
#NOTES:
     dance-single:
     :
     Medium:
     6:
     0.395,0.374,0.274,0.039,0.043,314.000,35.000,5.000,0.000,0.000,0.000,0.395,0.374,0.274,0.039,0.043,314.000,35.000,5.000,0.000,0.000,0.000:
0000
0000
0000
0000
,
0000
0000
0000
0000
,
0000
0000
0000
0000
,
0000
0000
0000
0000
,
0001
0100
0010
0001
,
0001
0100
0001
0001
,
0010
0010
0100
0100
,
1000
0001
1000
0001
,
0001
0110
0010
0001
,
0001
0110
0001
0001
,
0010
0110
0100
0100
,
1000
1001
1000
0001
,
0001
0110
0010
1001
,
0001
0110
0001
1001
,
0010
0110
0100
0110
,
1000
0001
1000
0001
,
0001
0000
0100
0000
0010
1000
0001
0000
,
0001
0000
0100
0000
0001
1000
0001
0000
,
0010
0010
0100
0100
,
1000
0001
1000
0001
,
0001
0000
0100
0000
0010
0100
0001
0000
,
0001
0000
0100
0000
0001
0010
0001
0000
,
0010
0010
0100
0100
,
1000
0001
1000
0000
0001
1000
0001
0000
,
0001
0100
0010
1001
,
0001
0100
0001
1001
,
0010
0010
0100
0110
,
1000
0001
1000
1001
,
0001
0100
0010
0101
,
0001
0100
0001
0011
,
0010
0010
0100
1100
,
1000
0001
1000
0000
0001
1000
0001
0000
,
0000
0000
0010
0000
0100
0000
0000
0000
1000
0000
0000
0100
0000
0000
1000
0000
,
0000
0000
0001
0000
0100
0000
0000
0000
0001
0000
0000
0001
0000
0000
0000
0000
,
0000
0000
0100
0000
0010
0000
0000
0000
1000
0000
0000
0010
0000
0000
1000
0000
,
0000
0001
0010
0000
0001
0000
1000
0000
,
0000
0000
0010
0000
0100
0000
0000
0000
0001
0000
0000
0100
0000
0000
0001
0000
,
0000
0000
1000
0000
0100
0000
0000
0000
1000
0000
0000
1000
0000
0000
0000
0000
,
0000
0000
0100
0000
0010
0000
0000
0000
0001
0000
0000
0010
0000
0000
0001
0000
,
1000
0000
0001
0000
1000
0001
1000
0001
,
0000
0100
0000
0000
0000
0000
0000
0000
0000
0000
0000
0000
0000
0000
0000
0000
0000
0000
0000
0000
0000
0000
0000
0000
0010
0000
0000
0000
0000
0000
0000
0000
0000
0000
0000
0000
0000
0000
0000
0000
0000
0000
0000
0000
0000
0000
0000
0000
0100
0000
0000
0000
0000
0000
0000
0000
0000
0000
0000
0000
0000
0000
0000
0000
0000
0000
0000
0000
0000
0000
0000
0000
0000
0000
0000
0000
0000
0000
0000
0000
0000
0000
0000
0000
0000
0000
0000
0000
0000
0000
0000
0000
0000
0000
0000
0000
0010
0000
0000
0000
0000
0000
0000
0000
0000
0000
0000
0000
0000
0000
0000
0000
0000
0000
0000
0000
0000
0000
0000
0000
0100
0000
0000
0000
0000
0000
0000
0000
0000
0000
0000
0000
0000
0000
0000
0000
0000
0000
0000
0000
0000
0000
0000
0000
0010
0000
0000
0000
0000
0000
0000
0000
0000
0000
0000
0000
0000
0000
0000
0000
0000
0000
0000
0000
0000
0000
0000
0000
0000
0000
0000
0000
0000
0000
0000
0000
0000
0000
0000
0000
0000
0000
0000
0000
0000
0000
0000
0000
0000
0000
0000
0000
,
1000
0000
1000
0000
0001
0010
0001
0010
,
0100
1001
0100
1001
,
0001
0100
1000
0100
,
0010
1001
0010
1001
,
1000
0000
0001
0000
0100
0010
0100
0000
,
0001
1000
0001
0000
1000
0100
1000
0000
,
0001
1000
0001
1000
0010
0100
0010
0000
,
1000
0001
1000
0000
0001
1000
0001
0000
,
1000
1100
0001
0101
,
1000
1010
0001
0011
,
1000
1100
0001
0101
,
1000
1010
0001
0011
,
0001
1000
0001
1000
,
0001
0100
0001
0100
,
0010
0010
0100
0100
,
0001
1000
0001
0000
1000
0001
1000
0000
,
1001
0000
0000
0000
0100
0000
0000
0010
,
0010
0000
1000
0100
,
1100
0000
0000
1000
0001
1000
0001
1000
,
0002
0000
0000
0000
0000
0000
0000
0000
1003
0000
0000
0000
0001
1000
0001
1000
,
0001
0000
0010
0000
1000
0000
0010
0100
,
0010
0000
0000
0000
0001
0000
0000
0000
1000
0000
0000
0010
0000
0000
0000
0000
,
0100
0000
0000
0000
0001
0000
0000
0000
0010
0000
0000
0001
0000
0000
0010
0000
,
0100
0000
0010
0000
0001
1000
0001
1000
,
0001
0000
0100
0000
0010
1000
0001
0000
,
0001
0000
0100
0000
0001
1000
0001
0000
,
0010
0010
0100
0100
,
1000
0001
1000
0001
,
0001
0000
0100
0000
0010
0100
0001
0000
,
0001
0000
0100
0000
0001
0010
0001
0000
,
0010
0010
0100
0100
,
2002
0000
0000
3003
0110
0000
1001
0000
,
0220
0000
0330
0000
;

//---------------dance-single - ----------------
#NOTES:
     dance-single:
     :
     Easy:
     4:
     0.317,0.287,0.188,0.016,0.008,258.000,24.000,2.000,0.000,0.000,0.000,0.317,0.287,0.188,0.016,0.008,258.000,24.000,2.000,0.000,0.000,0.000: // measure 1
0000
0000
0000
0000
,  // measure 2
0000
0000
0000
0000
,  // measure 3
0000
0000
0000
0000
,  // measure 4
0000
0000
0000
0000
,  // measure 5
0010
0100
0010
0000
,  // measure 6
0001
0100
0001
0000
,  // measure 7
0010
0010
0100
0000
,  // measure 8
1000
0001
1000
0000
,  // measure 9
1000
0100
0010
0000
,  // measure 10
0001
0100
0001
0000
,  // measure 11
0010
0010
0100
0000
,  // measure 12
1000
0001
1000
0001
,  // measure 13
0001
0100
0010
0000
,  // measure 14
1000
0100
1000
0000
,  // measure 15
0010
0010
0100
0000
,  // measure 16
0000
0001
0000
0000
0000
0000
0000
0000
0000
0000
0000
0000
0000
0000
0000
0000
0000
0000
0000
0000
0000
0000
0000
0000
0000
0000
0000
0000
0000
0000
0000
0000
0000
0000
0000
0000
0000
0000
0000
0000
0000
0000
0000
0000
0000
0000
0000
0000
1000
0000
0000
0000
0000
0000
0000
0000
0000
0000
0000
0000
0000
0000
0000
0000
0000
0000
0000
0000
0000
0000
0000
0000
0000
0000
0000
0000
0000
0000
0000
0000
0000
0000
0000
0000
0000
0000
0000
0000
0000
0000
0000
0000
0000
0000
0000
0000
0001
0000
0000
0000
0000
0000
0000
0000
0000
0000
0000
0000
0000
0000
0000
0000
0000
0000
0000
0000
0000
0000
0000
0000
0000
0000
0000
0000
0000
0000
0000
0000
0000
0000
0000
0000
0000
0000
0000
0000
0000
0000
0000
0000
0000
0000
0000
0000
1000
0000
0000
0000
0000
0000
0000
0000
0000
0000
0000
0000
0000
0000
0000
0000
0000
0000
0000
0000
0000
0000
0000
0000
0000
0000
0000
0000
0000
0000
0000
0000
0000
0000
0000
0000
0000
0000
0000
0000
0000
0000
0000
0000
0000
0000
0000
0000
,  // measure 17
0001
0100
0010
0001
,  // measure 18
1001
0100
0001
1001
,  // measure 19
0010
0010
0100
0110
,  // measure 20
1000
0001
1000
0101
,  // measure 21
0001
0100
0010
1001
,  // measure 22
0001
0100
0001
1001
,  // measure 23
0010
0010
0100
0110
,  // measure 24
1000
0001
1000
0011
,  // measure 25
0001
0100
1000
0100
,  // measure 26
0001
0100
0010
0100
,  // measure 27
0001
0100
1000
0100
,  // measure 28
0001
0010
0100
1001
,  // measure 29
0001
0010
1000
0010
,  // measure 30
0001
0010
0100
0010
,  // measure 31
0001
0010
1000
0010
,  // measure 32
0001
1000
0001
1000
,  // measure 33
0000
0001
0100
0001
,  // measure 34
0000
1000
0100
1000
,  // measure 35
0000
0001
0010
0001
,  // measure 36
0000
1000
0010
1000
,  // measure 37
0000
0001
0010
0001
,  // measure 38
0000
1000
0100
1000
,  // measure 39
0000
0001
0100
0001
,  // measure 40
1000
0000
1000
0000
0001
1000
0001
1000
,  // measure 41
0001
0100
0000
0000
0000
0000
0000
0000
0000
0000
0000
0000
0000
0000
0000
0000
0000
0000
0000
0000
0000
0000
0000
0000
0000
0000
0000
0000
0000
0000
0000
0000
0000
0000
0000
0000
0000
0000
0000
0000
0000
0000
0000
0000
0000
0000
0000
0000
0010
0000
0000
0000
0000
0000
0000
0000
0000
0000
0000
0000
0000
0000
0000
0000
0000
0000
0000
0000
0000
0000
0000
0000
0000
0000
0000
0000
0000
0000
0000
0000
0000
0000
0000
0000
0000
0000
0000
0000
0000
0000
0000
0000
0000
0000
0000
0000
0100
0000
0000
0000
0000
0000
0000
0000
0000
0000
0000
0000
0000
0000
0000
0000
0000
0000
0000
0000
0000
0000
0000
0000
0000
0000
0000
0000
0000
0000
0000
0000
0000
0000
0000
0000
0000
0000
0000
0000
0000
0000
0000
0000
0000
0000
0000
0000
0010
0000
0000
0000
0000
0000
0000
0000
0000
0000
0000
0000
0000
0000
0000
0000
0000
0000
0000
0000
0000
0000
0000
0000
0000
0000
0000
0000
0000
0000
0000
0000
0000
0000
0000
0000
0000
0000
0000
0000
0000
0000
0000
0000
0000
0000
0000
0000
,  // measure 42
1000
1000
0001
0001
,  // measure 43
0100
0010
1000
0001
,  // measure 44
0010
0010
0100
0100
,  // measure 45
1000
0001
0010
0100
,  // measure 46
1000
1000
0001
0001
,  // measure 47
0100
0010
1000
0001
,  // measure 48
0100
0100
0010
0010
,  // measure 49
1000
0001
1000
0001
,  // measure 50
0100
0010
0100
1001
,  // measure 51
0001
1000
0100
1100
,  // measure 52
1000
0001
0010
0011
,  // measure 53
0001
1000
0010
1010
,  // measure 54
1000
0001
0100
0110
,  // measure 55
0010
1000
0100
1100
,  // measure 56
0010
0001
0100
0101
,  // measure 57
0001
1000
0001
1000
,  // measure 58
1001
0000
0010
0000
,  // measure 59
0101
0000
0010
0000
,  // measure 60
0110
0000
1000
0000
,  // measure 61
1001
0000
0001
1000
,  // measure 62
1001
0001
1000
0001
,  // measure 63
0110
0100
0010
0100
,  // measure 64
1001
1000
0001
1000
,  // measure 65
0010
0000
0100
0000
0010
0100
0010
0100
,  // measure 66
0001
0100
0010
0001
,  // measure 67
0001
0100
0001
0001
,  // measure 68
0010
0010
0100
0100
,  // measure 69
1000
0001
1000
0001
,  // measure 70
0001
0100
0010
0001
,  // measure 71
0001
0100
0001
0001
,  // measure 72
0010
0010
0100
0100
,  // measure 73
1000
0001
1000
0001
,  // measure 74
2002
0000
3003
0000
;

//---------------dance-single - ----------------
#NOTES:
     dance-single:
     :
     Beginner:
     1:
     0.117,0.171,0.039,0.000,0.000,100.000,5.000,0.000,0.000,0.000,0.000,0.117,0.171,0.039,0.000,0.000,100.000,5.000,0.000,0.000,0.000,0.000: // measure 1
0000
0000
0000
0000
,  // measure 2
0000
0000
0000
0000
,  // measure 3
0000
0000
0000
0000
,  // measure 4
0000
0000
0000
0000
,  // measure 5
0001
0000
0010
0000
,  // measure 6
0001
0000
0000
0000
,  // measure 7
0010
0000
0100
0000
,  // measure 8
1000
0000
0000
0000
,  // measure 9
0001
0000
0010
0000
,  // measure 10
0001
0000
0000
0000
,  // measure 11
0010
0000
0100
0000
,  // measure 12
1000
0000
0000
0000
,  // measure 13
0001
0000
0010
0000
,  // measure 14
0001
0000
0000
0000
,  // measure 15
0010
0000
0100
0000
,  // measure 16
1000
0000
0000
0000
,  // measure 17
0001
0000
0001
0000
,  // measure 18
0001
0000
0000
0000
,  // measure 19
1000
0000
1000
0000
,  // measure 20
1000
0000
0000
0000
,  // measure 21
0001
0000
0001
0000
,  // measure 22
0001
0000
0000
0000
,  // measure 23
1000
0000
1000
0000
,  // measure 24
1000
0000
0000
0000
,  // measure 25
0010
0000
0010
0000
,  // measure 26
0010
0000
0000
0000
,  // measure 27
0100
0000
0100
0000
,  // measure 28
0100
0000
0000
0000
,  // measure 29
0010
0000
0010
0000
,  // measure 30
0010
0000
0000
0000
,  // measure 31
0100
0000
0100
0000
,  // measure 32
0100
0000
0000
0000
,  // measure 33
0000
0001
0001
0000
,  // measure 34
0000
1000
1000
0000
,  // measure 35
0000
0001
0001
0000
,  // measure 36
0000
1000
1000
0000
,  // measure 37
0000
0100
0100
0000
,  // measure 38
0000
0010
0010
0000
,  // measure 39
0000
0100
0100
0000
,  // measure 40
0000
0010
0010
0000
,  // measure 41
0000
0000
0000
0000
,  // measure 42
1000
0000
0000
0000
,  // measure 43
1000
0000
0000
0000
,  // measure 44
0001
0000
0000
0000
,  // measure 45
0001
0000
0000
0000
,  // measure 46
0100
0000
0000
0000
,  // measure 47
0100
0000
0000
0000
,  // measure 48
0010
0000
0000
0000
,  // measure 49
0010
0000
0000
0000
,  // measure 50
1000
0000
0000
0000
,  // measure 51
1000
0000
0000
0000
,  // measure 52
0001
0000
0000
0000
,  // measure 53
0001
0000
0000
0000
,  // measure 54
0010
0000
0000
0000
,  // measure 55
0010
0000
0000
0000
,  // measure 56
0100
0000
0000
0000
,  // measure 57
0100
0000
0000
0000
,  // measure 58
1001
0000
0000
0000
,  // measure 59
0110
0000
0000
0000
,  // measure 60
1001
0000
0000
0000
,  // measure 61
0110
0000
0000
0000
,  // measure 62
0001
0000
1000
0000
,  // measure 63
0001
0000
0000
0000
,  // measure 64
0100
0000
0010
0000
,  // measure 65
0100
0100
0100
0100
,  // measure 66
0100
0000
0001
0000
,  // measure 67
0100
0000
0000
0000
,  // measure 68
0010
0000
1000
0000
,  // measure 69
0010
0000
0000
0000
,  // measure 70
1000
0000
0100
0000
,  // measure 71
1000
0000
0000
0000
,  // measure 72
0001
0000
0010
0000
,  // measure 73
0001
0000
0000
0000
,  // measure 74
1001
0000
0000
0000
;
