#VERSION:0.83;
#TITLE:Sakura Luminance;
#SUBTITLE:;
#ARTIST:Ryu☆;
#TITLETRANSLIT:;
#SUBTITLETRANSLIT:;
#ARTISTTRANSLIT:;
#GENRE:HAPPY HARDCORE;
#ORIGIN:;
#CREDIT:;
#BANNER:Sakura Luminance.png;
#BACKGROUND:Sakura Luminance-bg.png;
#PREVIEWVID:;
#JACKET:Sakura Luminance-jacket.png;
#CDIMAGE:;
#DISCIMAGE:;
#LYRICSPATH:;
#CDTITLE:;
#MUSIC:Sakura Luminance.ogg;
#OFFSET:-0.554000;
#SAMPLESTART:96.529999;
#SAMPLELENGTH:15.000000;
#SELECTABLE:YES;
#BPMS:0.000=170.000;
#STOPS:;
#DELAYS:;
#WARPS:;
#TIMESIGNATURES:0.000=4=4;
#TICKCOUNTS:0.000=4;
#COMBOS:0.000=1;
#SPEEDS:0.000=1.000=0.000=0;
#SCROLLS:0.000=1.000;
#FAKES:;
#LABELS:0.000=Song Start;
#BGCHANGES:;
#KEYSOUNDS:;
#ATTACKS:
;

//---------------dance-single - ----------------
#NOTEDATA:;
#CHARTNAME:;
#STEPSTYPE:dance-single;
#DESCRIPTION:;
#CHARTSTYLE:;
#DIFFICULTY:Hard;
#METER:8;
#RADARVALUES:0.544481,0.721523,0.255689,0.327602,0.115859,477.000000,445.000000,32.000000,41.000000,0.000000,0.000000,0.000000,0.000000,0.000000,0.544481,0.721523,0.255689,0.327602,0.115859,477.000000,445.000000,32.000000,41.000000,0.000000,0.000000,0.000000,0.000000,0.000000;
#CREDIT:ohaiimian;
#NOTES:
// measure 0
0000
0000
0000
0000
,  // measure 1
0000
0000
0000
0000
,  // measure 2
0000
0000
0000
0000
,  // measure 3
0000
0000
0000
0000
,  // measure 4
0000
0000
0000
0000
,  // measure 5
2000
0000
0000
0000
3020
0000
0000
0000
0130
0000
0000
0001
0000
0000
0010
0000
,  // measure 6
0100
1000
0001
0100
0010
1000
0001
0010
,  // measure 7
0002
0000
0000
0000
0203
0000
0000
0000
0310
0000
0000
1000
0000
0000
0100
0000
,  // measure 8
0010
0001
0100
0010
2000
0000
0000
0000
,  // measure 9
0002
0000
3003
0110
,  // measure 10
1010
0000
0011
0000
0001
0100
0010
0100
,  // measure 11
1000
0100
0010
1000
0100
0010
0001
0100
,  // measure 12
0101
0000
1100
0000
1000
0010
0100
0010
,  // measure 13
0001
0010
0100
0001
0020
0000
0130
0000
,  // measure 14
1100
0000
0101
0000
0001
0010
1000
0010
,  // measure 15
0100
1000
0010
0100
0001
0010
0100
0010
,  // measure 16
0011
0000
1010
0000
1000
0010
0001
0010
,  // measure 17
0100
0010
1000
0001
0200
0000
0310
0000
,  // measure 18
1000
0100
0010
0001
0200
0000
0301
0010
,  // measure 19
0100
1000
0020
0000
0130
0010
0100
0010
,  // measure 20
1000
0100
0010
0001
0100
0010
2000
0000
,  // measure 21
3100
0010
0001
1000
0100
0000
1001
0000
,  // measure 22
0001
0010
0100
1000
0020
0000
1030
0100
,  // measure 23
0010
0001
0200
0000
0310
0100
0010
0100
,  // measure 24
0001
0010
0100
1000
0010
0100
0002
0000
,  // measure 25
0013
0100
1000
0001
0100
0000
1001
0000
,  // measure 26
0100
0000
0100
0000
0010
1000
0100
1000
,  // measure 27
0010
0000
0010
0000
0100
0001
0010
0001
,  // measure 28
0100
0000
0010
0000
1000
0100
0010
0100
,  // measure 29
1000
0010
0010
0010
,  // measure 30
0010
0000
0100
0000
1000
0010
1000
0010
,  // measure 31
0100
0000
0001
0000
0010
0001
0010
0001
,  // measure 32
0100
0000
0010
1000
0100
1000
0010
0000
,  // measure 33
0100
0100
0100
0100
,  // measure 34
0010
0000
0101
0000
0001
0010
0100
1000
,  // measure 35
0010
0000
1010
0000
1000
0010
0100
0001
,  // measure 36
0010
0000
0011
0000
0001
0100
0010
1000
,  // measure 37
0100
0000
1100
0000
1000
0100
0010
0001
,  // measure 38
0100
0000
0010
0000
1000
0010
0100
0010
,  // measure 39
0000
0010
1000
0000
0100
0010
0001
0010
,  // measure 40
0000
0010
0001
0000
0001
0010
0100
1000
,  // measure 41
0010
0010
0010
0010
,  // measure 42
0220
0000
0000
0000
,  // measure 43
0000
0000
0000
0000
,  // measure 44
0000
0000
0000
0000
,  // measure 45
0000
0000
0000
0000
0000
0000
0000
0330
,  // measure 46
2002
0000
0000
0000
,  // measure 47
0000
0000
0000
0000
,  // measure 48
0000
0000
0000
0000
,  // measure 49
0000
0000
0000
3003
,  // measure 50
0002
0000
0000
0000
0023
0000
0000
0000
0130
0000
0000
1000
0000
0000
0010
0000
,  // measure 51
0100
0001
1000
0100
0010
0100
1000
0010
,  // measure 52
2000
0000
0000
0000
3200
0000
0000
0000
0310
0000
0000
0001
0000
0000
0010
0000
,  // measure 53
0100
1000
0010
0100
0020
0000
0000
0030
,  // measure 54
0200
0000
0000
0000
0302
0000
0000
0000
0013
0000
0000
0100
0000
0000
0010
0000
,  // measure 55
0001
0100
0010
0100
0001
0010
0100
1000
,  // measure 56
0020
0000
0000
0000
2030
0000
0000
0000
3100
0000
0000
0010
0000
0000
0100
0000
,  // measure 57
1000
0010
0100
0001
2000
0000
0000
0000
,  // measure 58
3001
0000
0000
0000
1100
0000
0000
0000
1000
0010
0000
0100
0000
0000
0001
0000
,  // measure 59
0010
0100
1000
0010
0001
0010
1000
0100
,  // measure 60
1000
0000
0000
0000
0101
0000
0000
0000
0001
0100
0000
0010
0000
0000
1000
0000
,  // measure 61
0100
0010
0001
0100
2000
0000
3100
0000
,  // measure 62
0001
0000
0000
0000
1010
0000
0000
0000
1000
0100
0000
0010
0000
0000
0001
0000
,  // measure 63
0100
0010
0100
1000
0100
0010
1000
0100
,  // measure 64
1000
0000
0000
0000
0011
0000
0000
0000
0001
0100
0000
0010
0000
0000
1000
0000
,  // measure 65
0100
0010
0100
0001
0200
0000
0000
0000
,  // measure 66
0310
0000
0010
0000
0010
0001
0000
0000
1000
0001
0000
0000
0001
0200
0000
0000
,  // measure 67
0000
0000
0300
0110
,  // measure 68
1010
0000
0000
0000
0011
0000
0000
0000
0001
0100
0000
0100
0010
0000
1000
0000
,  // measure 69
0100
0000
0010
0000
0001
0000
0100
0000
0010
0100
0010
0000
0100
0010
0100
0000
,  // measure 70
0101
0000
0000
0000
1100
0000
0000
0000
1000
0100
0000
0100
0010
0000
0001
0000
,  // measure 71
0100
0010
1000
0100
0020
0000
0031
0000
,  // measure 72
0011
0000
0000
0000
1010
0000
0000
0000
1000
0010
0000
0010
0100
0000
0001
0000
,  // measure 73
0010
0000
0100
0000
1000
0000
0010
0000
0100
0010
0100
0000
0010
0100
0010
0000
,  // measure 74
1100
0000
0000
0000
0101
0000
0000
0000
0001
0100
0000
0100
0010
0000
0100
0000
,  // measure 75
0010
1000
0100
0010
0002
0000
1003
0000
,  // measure 76
0001
1000
0100
0010
0200
0000
0310
0001
,  // measure 77
0010
0100
0020
0000
1030
0010
0001
0010
,  // measure 78
0100
1000
0010
0100
0010
1000
0200
0000
,  // measure 79
0310
0100
1000
0001
1000
0000
1001
0000
,  // measure 80
0010
0100
0001
1000
0020
0000
0130
0001
,  // measure 81
0010
0100
2000
0000
3010
0100
0001
1000
,  // measure 82
0100
0001
0100
1000
0010
0001
0020
0000
,  // measure 83
1030
0100
0001
1000
0010
0001
1000
0000
,  // measure 84
2002
0000
0000
0000
,  // measure 85
0000
0000
0000
0000
,  // measure 86
3003
0000
0000
0000
;

//---------------dance-single - ----------------
#NOTEDATA:;
#CHARTNAME:;
#STEPSTYPE:dance-single;
#DESCRIPTION:;
#CHARTSTYLE:;
#DIFFICULTY:Medium;
#METER:6;
#RADARVALUES:0.358421,0.549732,0.135835,0.239709,0.000000,314.000000,297.000000,17.000000,30.000000,0.000000,0.000000,0.000000,0.000000,0.000000,0.358421,0.549732,0.135835,0.239709,0.000000,314.000000,297.000000,17.000000,30.000000,0.000000,0.000000,0.000000,0.000000,0.000000;
#CREDIT:ohaiimian;
#NOTES:
0000
0000
0000
0000
,
0000
0000
0000
0000
,
0000
0000
0000
0000
,
0000
0000
0000
0000
,
0000
0000
0000
0000
,
2000
0000
3002
0000
,
0103
0010
1000
0001
,
0002
0000
2003
0000
,
3010
0100
1001
0000
,
0200
0000
0000
0310
,
1000
0000
0001
0000
0100
0010
0100
0000
,
0001
0000
0010
0000
0100
1000
0100
0000
,
0010
0000
0100
0000
1000
0001
1000
0000
,
0010
0100
0010
0000
0110
0000
0000
0000
,
1000
0000
0100
0000
0010
0001
0010
0000
,
0010
0000
0100
0000
1000
0001
1000
0000
,
0010
0000
0100
0000
0001
0100
0001
0000
,
1000
0100
1000
0000
1001
0000
0010
0000
,
0100
0100
0010
0100
,
0100
0010
1000
0001
,
0010
0010
0100
0010
,
0000
0010
0010
1001
,
0001
0001
1000
0001
,
0001
1000
0100
0010
,
0001
1000
1000
0001
,
0000
1000
1000
1001
,
0100
0020
0000
0000
,
1000
0000
0100
0000
,
0001
0000
0100
0000
,
0130
0010
0010
0010
,
1000
0200
0000
0000
,
0001
0000
0010
0000
,
1000
0000
0010
0000
,
0310
0100
0100
0100
,
0010
1000
1000
0100
,
0010
0010
0001
0100
,
0010
1000
1000
0100
,
0010
0010
0001
0100
,
0010
0000
1001
0000
0100
0010
0100
0000
,
0010
0000
1001
0000
0100
0010
0100
0000
,
1000
0000
1001
0000
0001
1000
0001
0000
,
0100
0100
0100
0100
,
0020
0000
0000
0000
,
0000
0000
0000
0000
,
0000
0000
0000
0000
,
0000
0000
0000
0000
,
0200
0000
0000
0000
,
0000
0000
0000
0000
,
0030
0000
0000
0000
,
0000
0000
0000
0000
,
0320
0000
2030
0000
,
3002
0000
0013
0010
,
0200
0000
2300
0000
,
3010
0010
0100
0000
,
0002
0000
0203
0000
,
0310
0010
1000
1000
,
0200
0000
0320
0000
,
0031
0001
1000
0000
,
0020
1030
0200
0301
,
0010
1000
0010
0000
0100
0001
0100
0000
,
0002
0013
0200
1300
,
0001
0010
0001
0000
0100
0000
0000
0000
,
2000
3100
0002
0013
,
1000
0100
1000
0000
0001
0010
0001
0000
,
0200
0301
0020
1030
,
0100
0001
0100
0000
0010
0000
0000
0000
,
2002
0000
0000
0000
,
0000
0000
3003
0110
,
0100
0000
1001
0000
0010
0100
0010
0000
,
1000
0001
1000
0000
0001
1000
0001
0000
,
0010
0000
1001
0000
0100
0010
0100
0000
,
0001
1000
0001
1000
0010
0000
0000
0000
,
0100
0000
0110
0000
0010
1000
0010
0000
,
0100
0001
0100
0000
0010
0100
0010
0000
,
0100
0000
0110
0000
0100
0001
0100
0000
,
0010
1000
0010
1000
0100
0000
0110
0000
,
0010
0001
0010
0001
0010
0000
0100
1000
,
0100
1000
0100
0000
0010
1000
0010
1000
,
0001
0100
0001
0100
0010
0100
0010
0000
,
1000
0001
1000
0001
1000
0000
1001
0000
,
0001
0010
0001
0010
0001
0000
0100
1000
,
0100
1000
0100
0000
1000
0100
1000
0100
,
0010
0001
0010
0001
0100
0001
0100
0000
,
0010
0100
0001
1000
0100
0010
0001
0000
,
2002
0000
0000
0000
,
0000
0000
0000
0000
,
3003
0000
0000
0000
;

//---------------dance-single - ----------------
#NOTEDATA:;
#CHARTNAME:;
#STEPSTYPE:dance-single;
#DESCRIPTION:;
#CHARTSTYLE:;
#DIFFICULTY:Easy;
#METER:3;
#RADARVALUES:0.197474,0.309224,0.023971,0.215738,0.000000,173.000000,170.000000,3.000000,27.000000,0.000000,0.000000,0.000000,0.000000,0.000000,0.197474,0.309224,0.023971,0.215738,0.000000,173.000000,170.000000,3.000000,27.000000,0.000000,0.000000,0.000000,0.000000,0.000000;
#CREDIT:ohaiimian;
#NOTES:
0000
0000
0000
0000
,
0000
0000
0000
0000
,
0000
0000
0000
0000
,
0000
0000
0000
0000
,
0000
0000
0000
0000
,
2000
0000
3020
0000
,
0130
0000
0100
0000
,
0002
0000
0203
0000
,
0310
0000
0010
0000
,
0020
0000
0000
0130
,
1000
0000
1000
0000
,
0001
0001
0001
0000
,
0100
0000
0100
0000
,
0010
0010
0010
0000
,
0001
0000
0001
0000
,
0010
0010
0010
0000
,
0100
0000
0100
0000
,
1000
1000
1000
0000
,
0002
0000
0013
0000
,
0020
0000
0130
0000
,
0200
0000
1300
0000
,
2000
0000
3001
0000
,
0200
0000
0310
0000
,
0020
0000
0130
0000
,
0002
0000
1003
0000
,
2000
0000
3001
0000
,
0010
0000
0010
0000
,
0100
0000
0100
0000
,
0001
0000
0001
0000
,
1000
1000
1000
1000
,
0010
0000
0010
0000
,
0100
0000
0100
0000
,
0001
0000
0001
0000
,
1000
1000
1000
1000
,
0001
0000
0001
0000
,
0100
0000
0100
0000
,
0010
0000
0010
0000
,
1000
1000
1000
1000
,
0200
0010
0000
0010
,
0000
0010
0000
0310
,
0001
0000
1000
0000
,
0001
0001
0001
0001
,
0200
0000
0000
0000
,
0000
0000
0000
0000
,
0000
0000
0000
0000
,
0000
0000
0000
0000
,
0010
0000
0000
0000
,
0000
0000
0000
0000
,
0000
0000
0000
0000
,
0000
0000
0000
0000
,
0320
0000
0000
0000
,
2030
0000
0000
0000
,
3002
0000
0000
0000
,
0203
0000
0000
0000
,
0302
0000
1003
0000
,
2000
0000
3001
0000
,
0020
0000
0130
0000
,
0200
0000
0310
0000
,
0001
0000
0001
0000
,
0100
0100
0100
0000
,
1000
0000
1000
0000
,
0010
0010
0010
0000
,
0100
0100
0000
0000
,
0001
0001
0000
0000
,
1000
1000
0000
0000
,
0010
0010
0000
0000
,
0220
0000
0000
0000
,
0000
0000
0330
1001
,
0100
0000
0100
0000
,
0010
0010
0010
0000
,
1000
0000
1000
0000
,
0001
0001
0001
0000
,
0010
0000
0010
0000
,
0100
0100
0100
0000
,
0001
0000
0001
0000
,
1000
1000
1000
0000
,
0010
0010
0100
0010
,
0010
0100
0010
0010
,
0001
0001
1000
0001
,
0000
1000
1000
0000
,
0100
0100
0010
0100
,
0100
0010
0100
0100
,
1000
1000
0001
1000
,
0000
0001
0001
0000
,
2002
0000
0000
0000
,
0000
0000
0000
0000
,
3003
0000
0000
0000
;
