#TITLE:Photo Shoot;
#SUBTITLE:;
#ARTIST:Dj CUTMAN;
#TITLETRANSLIT:;
#SUBTITLETRANSLIT:;
#ARTISTTRANSLIT:;
#GENRE:;
#CREDIT:;
#BANNER:[Round 1] - Photo Shoot.png;
#BACKGROUND:[Round 1] - Photo Shoot-bg.png;
#LYRICSPATH:;
#CDTITLE:cdtitle.png;
#MUSIC:[Round 1] - Photo Shoot.ogg;
#OFFSET:0.000000;
#SAMPLESTART:89.142860;
#SAMPLELENGTH:18.285713;
#SELECTABLE:YES;
#BPMS:0.000000=105.000000
;
#STOPS:
;
#BGCHANGES:;
#KEYSOUNDS:;
#ATTACKS:;

//---------------dance-single - ----------------
#NOTES:
     dance-single:
     C 01 X 01:
     Beginner:
     1:
     0.076137,0.108878,0.000000,0.103409,0.000000,67.000000,67.000000,0.000000,13.000000,0.000000,0.000000,0.076137,0.108878,0.000000,0.103409,0.000000,67.000000,67.000000,0.000000,13.000000,0.000000,0.000000:
0000
0000
0000
0000
,
0000
0000
0000
0000
,
1000
0000
0000
0000
,
1000
0000
0000
0000
,
0001
0000
0000
0000
,
0001
0000
0000
0000
,
0100
0000
0000
0000
,
0100
0000
0000
0000
,
0010
0000
0000
0000
,
0010
0000
0000
0000
,
2000
0000
0000
0000
0000
0000
0000
3000
0000
0000
0000
0000
0000
0000
0000
0000
,
2000
0000
0000
0000
0000
0000
0000
3000
0000
0000
0000
0000
0000
0000
0000
0000
,
0002
0000
0000
0000
0000
0000
0000
0003
0000
0000
0000
0000
0000
0000
0000
0000
,
0002
0000
0000
0000
0000
0000
0000
0003
0000
0000
0000
0000
0000
0000
0000
0000
,
0020
0000
0000
0000
0000
0000
0000
0030
0000
0000
0000
0000
0000
0000
0000
0000
,
0020
0000
0000
0000
0000
0000
0000
0030
0000
0000
0000
0000
0000
0000
0000
0000
,
0200
0000
0000
0000
0000
0000
0000
0300
0000
0000
0000
0000
0000
0000
0000
0000
,
0200
0000
0000
0300
,
1000
0000
0000
0000
,
0010
0000
0000
0000
,
0100
0000
0000
0000
,
0001
0000
0000
0000
,
1000
0000
0000
0000
,
0100
0000
0000
0000
,
0010
0000
0000
0000
,
0001
0000
0000
0000
,
0000
0000
1000
0000
,
0000
0000
1000
0000
,
0000
0000
0010
0000
,
0000
0000
0010
0000
,
0000
0000
0100
0000
,
0000
0000
0100
0000
,
0000
0000
0001
0000
,
0000
0000
0001
0000
,
2000
0000
0000
0000
0000
0000
0000
3000
0000
0000
0000
0000
0000
0000
0000
0000
,
0200
0000
0000
0000
0000
0000
0000
0300
0000
0000
0000
0000
0000
0000
0000
0000
,
0020
0000
0000
0000
0000
0000
0000
0030
0000
0000
0000
0000
0000
0000
0000
0000
,
0002
0000
0000
0000
0000
0000
0000
0003
0000
0000
0000
0000
0000
0000
0000
0000
,
0000
0000
0000
0000
,
1000
0000
1000
0000
,
0010
0000
0010
0000
,
0100
0000
0100
0000
,
0001
0000
0001
0000
,
1000
0000
0100
0000
,
1000
0000
0100
0000
,
0010
0000
0001
0000
,
0010
0000
0001
0000
,
0000
0010
0000
0010
,
0000
0100
0000
0100
,
0000
1000
0000
1000
,
0000
0001
0000
0001
,
0000
0010
0000
0100
,
0000
1000
0000
0001
,
0000
0100
0000
0010
,
0020
0000
0000
0030
;

//---------------dance-single - ----------------
#NOTES:
     dance-single:
     C 03 X 04:
     Easy:
     3:
     0.176137,0.217756,0.071591,0.222728,0.000000,155.000000,146.000000,9.000000,28.000000,0.000000,0.000000,0.176137,0.217756,0.071591,0.222728,0.000000,155.000000,146.000000,9.000000,28.000000,0.000000,0.000000:
0000
0000
0000
0000
,
0000
0000
0000
0000
,
1000
0000
1000
0000
,
0010
0000
0010
0000
,
0100
0000
0100
0000
,
0001
0000
0001
0000
,
1000
0000
0100
0000
,
0010
0000
0001
0000
,
0010
0000
0100
0000
,
1000
1000
0001
0000
,
2000
0000
0000
0000
0000
0000
0000
3000
0000
0000
0000
0000
1000
0000
0000
0000
,
0002
0000
0000
0000
0000
0000
0000
0003
0000
0000
0000
0000
0001
0000
0000
0000
,
0200
0000
0000
0000
0000
0000
0000
0300
0000
0000
0000
0000
0100
0000
0000
0000
,
0020
0000
0000
0000
0000
0000
0000
0030
0000
0000
0000
0000
0010
0000
0000
0000
,
2000
0000
0000
0000
0000
0000
0000
3000
0000
0000
0000
0000
1000
0000
0000
0000
,
0002
0000
0000
0000
0000
0000
0000
0003
0000
0000
0000
0000
0001
0000
0000
0000
,
0020
0000
0000
0000
0000
0000
0000
0030
0000
0000
0000
0000
0010
0000
0000
0000
,
0200
0000
0310
0100
,
1000
0000
0010
0000
,
0100
0000
0010
0000
,
1000
0000
0001
0000
,
0100
0000
0001
0000
,
1000
0000
0100
0000
,
0010
0000
0100
0000
,
1000
0000
0001
0000
,
0010
0010
0002
0003
,
1001
1000
0100
1000
,
0000
0100
1000
0100
,
0000
1000
0010
1000
,
0000
0010
1000
0010
,
0000
0100
0001
0100
,
0000
0001
0100
0001
,
0000
0010
0001
0010
,
0000
0001
0010
0001
,
2000
0000
0000
0000
0100
0000
0000
3000
0000
0000
0000
0000
1000
0000
0000
0000
,
0002
0000
0000
0000
0010
0000
0000
0003
0000
0000
0000
0000
0001
0000
0000
0000
,
0200
0000
0000
0000
0010
0000
0000
0300
0000
0000
0000
0000
0100
0000
0000
0000
,
0002
0000
0000
0000
1000
0000
0000
0003
0000
0000
0000
0000
0001
0000
0000
0000
,
0000
1000
0000
0001
,
1001
1000
0001
1000
,
0010
0010
0100
0100
,
0001
1000
0001
1000
,
0100
0100
0010
0010
,
0001
0100
0001
0100
,
0010
0010
1000
1000
,
0001
0010
0001
0010
,
0100
0100
1000
1000
,
0100
0010
0220
0330
,
0010
0100
0220
0330
,
1000
0001
2002
3003
,
0001
1000
2002
3003
,
0001
0010
0022
0033
,
0100
1000
2200
3300
,
1000
0010
2020
3030
,
0001
0100
0002
0003
;

//---------------dance-single - ----------------
#NOTES:
     dance-single:
     C 05 X 07:
     Medium:
     5:
     0.301137,0.348410,0.143182,0.167046,0.079546,265.000000,247.000000,18.000000,21.000000,0.000000,0.000000,0.301137,0.348410,0.143182,0.167046,0.079546,265.000000,247.000000,18.000000,21.000000,0.000000,0.000000:
0000
0000
0000
0000
,
0000
0000
0000
0000
,
1000
0001
1000
0001
,
0100
0010
0100
0010
,
1000
0100
0010
0001
,
1000
0010
0100
0001
,
1000
0010
0100
0010
,
1000
0001
0010
0001
,
1000
0100
0010
0100
,
1000
0000
1000
0000
0000
0001
0000
0000
0100
0000
0000
0000
0001
0000
0000
0000
,
2000
0000
0000
0000
0000
0000
0000
3020
0000
0000
0000
0000
1000
0000
0000
0000
,
0230
0000
0000
0000
0000
0000
0000
0302
0000
0000
0000
0000
0100
0000
0000
0000
,
2003
0000
0000
0000
0000
0000
0000
3200
0000
0000
0000
0000
1000
0000
0000
0000
,
0320
0000
0000
0000
0000
0000
0000
0032
0000
0000
0000
0000
0010
0000
0000
0000
,
0203
0000
0000
0000
0000
0000
0000
0320
0000
0000
0000
0000
0100
0000
0000
0000
,
2030
0000
0000
0000
0000
0000
0000
3002
0000
0000
0000
0000
1000
0000
0000
0000
,
0023
0000
0000
0000
0000
0000
0000
0230
0000
0000
0000
0000
0010
0000
0000
0000
,
0300
0000
1000
0000
0000
0001
0000
0000
0200
0000
0000
0000
0310
0000
0000
0000
,
0110
0000
1000
0100
0010
0000
0001
0020
,
0030
0000
0001
0100
0010
0000
1000
0000
,
0001
0000
0010
0001
0100
0000
0001
2000
,
3000
0000
0010
0100
0010
0000
1000
0000
,
0001
0000
0100
0001
1000
0000
0010
2000
,
3000
0000
0100
0010
0001
0000
1000
0000
,
0010
0000
0100
0001
0010
0000
0100
1000
,
0100
0000
0100
0000
0000
0010
0000
0000
0100
0000
0000
0000
1000
0000
0000
0000
,
0001
1000
0001
0000
1001
0000
1000
0000
,
0010
0100
0010
0000
0110
0000
0100
0000
,
0001
0010
0001
0000
0011
0000
0010
0000
,
0001
0100
0001
0000
0101
0000
0100
0000
,
0010
1000
0010
0000
1010
0000
1000
0000
,
0100
1000
0100
0000
1100
0000
1000
0000
,
0001
0010
1000
0000
0110
0000
0001
0000
,
1000
0010
0001
0000
0110
0000
1000
0000
,
0001
0000
0000
0100
0000
0100
0000
0000
0010
0000
0000
0000
1000
0000
0002
0000
,
0003
0000
0000
0010
0000
0010
0000
0000
0100
0000
0000
0000
1000
0000
0000
0000
,
0001
0000
0000
0100
0000
0100
0000
0000
1000
0000
0000
0000
0100
0000
0002
0000
,
0003
0000
0000
1000
0000
1000
0000
0000
0200
0000
0000
0000
1000
0000
0000
0000
,
0010
0001
0010
1300
,
1001
0000
0001
0000
1000
1000
0001
0000
,
0100
0000
0010
0000
0100
0100
0010
0000
,
1000
0000
0010
0000
1000
1000
0010
0000
,
0100
0000
0001
0000
0100
0100
0001
0000
,
1000
0000
0100
0000
1000
0010
0100
0000
,
0001
0000
0010
0000
0001
1000
0010
0000
,
1000
0000
0001
0000
1000
0100
0001
0000
,
0100
0000
0010
0000
0000
0010
0000
0000
0010
0000
0100
0000
1000
0000
0000
0000
,
0001
0010
0100
0000
0110
0000
1000
0000
,
0010
1000
0100
0000
1100
0000
0001
0000
,
0100
0010
1000
0000
1010
0000
0001
0000
,
0010
0001
0100
0000
0101
0000
1000
0000
,
0010
1000
0001
0100
0001
0000
1001
0000
,
1000
0010
0100
0001
0010
0000
0011
0000
,
0001
0010
0100
0000
0110
0000
1001
0000
,
1000
0000
0100
0000
0000
0100
0000
0000
0100
0000
1000
0000
0001
0000
0000
0000
;

//---------------dance-single - ----------------
#NOTES:
     dance-single:
     C 08 X 12:
     Hard:
     8:
     0.503410,0.500839,0.071591,0.135228,0.735797,443.000000,434.000000,9.000000,17.000000,0.000000,0.000000,0.503410,0.500839,0.071591,0.135228,0.735797,443.000000,434.000000,9.000000,17.000000,0.000000,0.000000:
// measure 0
0000
0000
0000
0000
,  // measure 1
0000
0000
0000
0000
,  // measure 2
1000
0100
1000
0000
0001
0010
0001
0000
,  // measure 3
1000
0010
1000
0000
0001
0100
0001
0000
,  // measure 4
0100
0010
0100
0000
0001
1000
0001
0000
,  // measure 5
1000
0010
0100
0001
0010
0100
1000
0000
,  // measure 6
0001
0000
0100
0000
0001
0000
0000
0001
0010
0000
0100
0000
0010
0000
0000
0000
,  // measure 7
0100
0000
1000
0000
0100
0000
0000
0100
1000
0000
0001
0000
1000
0000
0000
0000
,  // measure 8
0001
0000
0010
0000
0001
0000
0000
0001
1000
0000
0010
0000
1000
0000
0000
0000
,  // measure 9
0001
0000
0001
0000
0000
1000
0000
0000
1010
0000
0000
0000
0100
0000
0000
0000
,  // measure 10
0001
0000
1000
0001
0000
1000
0000
0002
0000
0000
0000
0000
0103
0000
0000
0000
,  // measure 11
0010
0000
0100
0010
0000
0100
0000
0020
0000
0000
0000
0000
1030
0000
0000
0000
,  // measure 12
0001
0000
0010
0100
0000
0010
0000
0002
0000
0000
0000
0000
0103
0000
0000
0000
,  // measure 13
0010
0000
1000
0100
0000
1000
0000
0001
0000
0000
0010
0000
0100
0000
0000
0000
,  // measure 14
1000
0000
0010
0001
0000
0010
0000
2000
0000
0000
0100
0000
3001
0000
0000
0000
,  // measure 15
1000
0000
0100
0001
0000
0100
0000
2000
0000
0000
0010
0000
3001
0000
0000
0000
,  // measure 16
1000
0000
0010
0100
0000
0010
0000
0001
0000
0000
0010
0000
1000
0000
0000
0000
,  // measure 17
0001
0000
0010
0000
0001
0100
0000
0000
0010
0000
0010
0000
1001
0000
0000
0000
,  // measure 18
1010
0000
1000
0000
0001
1000
0000
0010
0000
0000
0100
0000
0010
0000
2000
0000
,  // measure 19
3000
0000
0001
0000
0010
0100
0000
1000
0000
0000
0001
0000
1000
0000
0010
0000
,  // measure 20
0100
0000
0001
0000
0010
0001
0000
0100
0000
0000
1000
0000
0100
0000
0002
0000
,  // measure 21
0003
0000
0010
0000
0100
0010
0000
0001
0000
0000
1000
0000
0100
0000
1000
0000
,  // measure 22
0001
0000
0100
0000
0001
0010
0000
1000
0000
0010
0000
0001
0000
0000
2000
0000
,  // measure 23
3000
0000
0100
0000
1000
0010
0000
0001
0000
0010
0000
1000
0000
0000
0001
0000
,  // measure 24
1000
0000
0100
0000
0010
0100
0000
1000
0000
0010
0000
1000
0000
0000
0002
0000
,  // measure 25
0103
0000
0100
0000
0010
1000
0000
0000
0001
0000
1000
0000
0010
0000
0100
0000
,  // measure 26
0101
0001
0010
0100
0110
0010
0001
0000
,  // measure 27
0010
0000
0001
0000
1000
0000
0010
0000
1010
0000
1000
0100
0010
0000
0000
0000
,  // measure 28
0100
1000
0001
0100
0101
0001
0010
0000
,  // measure 29
0100
0010
0001
1000
1001
0001
0100
0010
,  // measure 30
0100
0000
0001
0000
1000
0010
0000
0100
0001
0000
0010
0000
0100
0000
0010
0000
,  // measure 31
0002
0000
0003
0001
0000
0000
1000
0000
0010
0000
1000
0100
0010
0000
0000
0000
,  // measure 32
0001
0000
0010
0000
1000
0010
0000
0100
0010
0000
0001
0000
1000
0000
0100
0000
,  // measure 33
1000
0000
0010
0001
0000
0010
0000
1000
0001
0000
0010
0000
0100
0000
1000
0000
,  // measure 34
0010
0000
1000
0100
0000
1000
0000
0010
0000
0100
0001
0100
0000
0001
0020
0000
,  // measure 35
0130
0000
1000
0010
0000
0001
0000
0010
0000
1000
0001
0010
0000
0100
1000
0000
,  // measure 36
0001
0000
0100
0010
0000
0100
0000
0001
0000
1000
0010
1000
0000
0001
0200
0000
,  // measure 37
1300
0000
0001
0010
0000
1000
0000
0001
0000
0100
0010
1000
0000
0100
0000
0010
,  // measure 38
0001
0000
0100
0000
0000
0010
0000
0000
1000
0000
0000
0001
0000
0010
0100
0000
,  // measure 39
1000
0001
0000
0010
0000
1000
0000
0001
0000
1000
0000
0010
0000
0001
0100
0001
,  // measure 40
0000
1000
0010
0001
0010
0000
1000
0000
0001
0010
0100
1000
0000
0010
0000
0100
,  // measure 41
0000
0001
0000
0100
0000
1000
0000
0001
0000
1000
0000
0100
0000
0001
0010
0001
,  // measure 42
0000
1000
0100
0001
0100
0000
1000
0000
0001
0100
0010
1000
0000
0100
0000
0010
,  // measure 43
0000
0001
0000
0100
0000
1000
0000
0010
0000
0001
0000
1000
0000
0010
0100
0001
,  // measure 44
0000
0100
0001
1000
0010
0000
1000
0000
0100
0001
0100
1000
0000
0001
0000
0100
,  // measure 45
0000
0001
0000
0010
0000
1000
0000
0100
0000
0001
0000
1000
0000
0100
0010
0001
,  // measure 46
0000
0010
0001
1000
0100
0000
1000
0000
0010
0001
0010
1000
0000
0001
0100
0000
,  // measure 47
1010
0000
0100
0000
0001
0010
0000
0001
0000
0000
2000
0000
0000
3001
0010
0100
,  // measure 48
1000
0000
0010
0000
0100
0000
0010
1000
0000
0100
0000
1000
0000
0010
0100
0010
,  // measure 49
0001
0000
0010
0000
1000
0001
0000
0001
0000
0010
0000
1000
0000
0010
0100
0010
,  // measure 50
0001
0000
0001
0100
0000
0100
0000
0010
0000
1000
0100
1000
0001
0010
0001
0010
,  // measure 51
0200
0000
0000
1300
0000
0010
0000
0100
0000
0001
0010
0100
0000
1000
0100
0010
,  // measure 52
0002
0000
0000
1003
0000
0010
0000
0001
0000
1000
0000
0100
0000
0100
0001
0010
,  // measure 53
0002
0000
0000
0103
0000
0010
0000
1000
0000
0002
0000
0013
0000
0100
1000
0000
,  // measure 54
1000
0000
0000
0000
0000
0000
0000
0000
0100
0000
0000
0000
0000
0000
0000
0000
1000
0000
0000
0000
0010
0000
0000
0000
0000
0000
0000
0000
1000
0000
0000
0000
0001
0000
0000
0000
0000
0010
0000
0000
0001
0000
0000
0000
0000
0000
0000
0000
1000
0000
0000
0000
0000
0000
0000
0000
0000
0000
0000
0000
0000
0000
0000
0000
;
