#TITLE:Oshama Scramble!;
#SUBTITLE:;
#ARTIST:t+pazolite;
#TITLETRANSLIT:;
#SUBTITLETRANSLIT:;
#ARTISTTRANSLIT:;
#GENRE:;
#CREDIT:;
#BANNER:[Round 1] - Oshama Scramble!-bn.png;
#BACKGROUND:[Round 1] - Oshama Scramble!-bg.png;
#LYRICSPATH:;
#CDTITLE:;
#MUSIC:[Round 1] - Oshama Scramble!.mp3;
#OFFSET:1.187000;
#SAMPLESTART:42.904999;
#SAMPLELENGTH:12.000000;
#LASTBEATHINT:0.609830;
#SELECTABLE:YES;
#BPMS:0.000000=190.000000
;
#STOPS:
;
#BGCHANGES:2.750=[Round 1] - Oshama Scramble!.avi=1.000=0=0=0=StretchNoLoop====,
99999=-nosongbg-=1.000=0=0=0 // don't automatically add -songbackground-
;
#KEYSOUNDS:;
#ATTACKS:;

//---------------dance-single - ----------------
#NOTES:
     dance-single:
     :
     Challenge:
     10:
     0.892430,1.302045,0.898317,0.074173,0.370865,758.000000,649.000000,109.000000,9.000000,144.000000,0.000000,0.892430,1.302045,0.898317,0.074173,0.370865,758.000000,649.000000,109.000000,9.000000,144.000000,0.000000:
0000
0000
0000
0000
,
0000
0000
0000
0000
,
0000
0000
0000
0000
,
0000
0000
0000
0000
,
0000
0000
0000
0000
,
0001
0010
0001
0100
0010
1000
0100
1000
,
0001
1000
0100
1000
0010
0100
0010
1000
,
0001
0010
0001
0010
0100
1000
0100
1000
0010
0100
0010
0100
0001
1000
0001
1000
,
0004
0000
0000
1003
,
1000
0000
1000
0010
0400
0000
0010
0000
0000
0000
0010
0000
0010
0000
0310
0000
,
1000
0100
0010
0100
1000
0000
1100
0000
0010
0000
0101
0000
1000
0000
0110
0000
,
0001
0000
1000
0100
0040
0000
0100
0000
0000
0000
0100
0000
0100
0000
0130
0000
,
0010
0100
1000
0100
0010
0000
0011
0000
0100
0000
1010
0000
0001
0000
0110
0000
,
1000
0000
1000
0010
0400
0000
0010
0000
0000
0000
0010
0000
0010
0000
0310
0000
,
1000
0010
0100
0010
1000
0000
0101
0000
0010
0000
1100
0000
0010
0000
0101
0000
,
1000
0100
1000
0100
0010
0001
0010
0001
,
1000
0100
0010
0001
1000
0010
0100
0001
1000
0000
0100
0000
0012
0000
0000
0000
,
1003
0010
0100
0000
0000
0001
0000
0100
,
0000
0001
0010
0000
0100
0000
1000
0100
,
0010
0000
0001
0010
0100
0000
1000
0100
,
0010
0100
1000
0001
0010
0000
0001
0010
,
0100
0010
0100
0100
0000
1000
0000
0010
,
0000
0100
0010
1000
0001
0000
1000
0100
,
1000
0100
1000
1000
0000
0001
0010
0001
,
0000
0101
0000
1010
0000
0010
1000
0100
,
0010
0000
0100
0010
0100
0000
1000
0000
0001
0000
0010
0000
0100
0000
1000
0000
,
0001
0000
0100
0010
1000
0000
0100
0000
0010
0000
0100
0000
1000
0000
0010
0000
,
1010
0100
0001
0010
1100
0010
0100
0001
,
0101
0000
0000
0010
1000
0010
1000
0000
0000
0004
0000
0000
0103
0000
0000
0010
1000
0010
1000
0000
0000
1010
0000
0000
,
0100
0000
0010
0100
0001
0000
1000
0000
0010
0000
1100
0000
0010
0000
0101
0000
,
1010
0000
0100
0000
0001
0000
0010
0000
1100
0000
0000
0011
0000
0000
1000
0000
,
0110
0010
1000
0001
1001
0100
0010
1000
,
1010
0000
0000
0010
0000
0000
0110
0000
0000
0100
0000
0000
0010
1000
0010
1000
0000
0000
0001
0100
0001
0100
0000
0000
,
0004
0000
0000
0100
1000
0000
1003
0000
,
0011
MMMM
0110
MMMM
1100
MMMM
0110
MMMM
,
0011
MMMM
0110
MMMM
1000
0100
0010
0001
,
1001
MMMM
0110
MMMM
1001
MMMM
0110
MMMM
,
1001
0000
0100
1000
0100
0010
0100
1000
,
1100
MMMM
0110
MMMM
0011
MMMM
0110
MMMM
,
1100
MMMM
0110
MMMM
0001
0010
0100
1000
,
1001
MMMM
0110
MMMM
1001
MMMM
0110
MMMM
,
4001
0000
0000
0010
0001
0000
3001
0000
,
0011
MMMM
1010
MMMM
1100
MMMM
0101
MMMM
,
0011
MMMM
1001
MMMM
0001
0100
0010
1000
,
1010
MMMM
0101
MMMM
1010
MMMM
0101
MMMM
,
1010
0000
1000
0100
0010
0100
1000
0100
,
1100
MMMM
0101
MMMM
0011
MMMM
1010
MMMM
,
1100
MMMM
1001
MMMM
1000
0010
0100
0001
,
0100
0100
0010
0010
1000
1000
0001
0001
,
0101
1004
0000
1003
,
1001
0000
1000
0100
1000
0000
0100
0000
,
0020
0000
1000
1000
0031
0000
0011
0000
,
1100
0000
0001
0010
0001
0000
1000
0000
,
0020
0100
0130
1001
,
1000
0000
0010
0100
0010
1000
0100
0000
,
0110
0101
1010
0101
,
1000
0000
0100
0000
0010
0000
0001
0000
1000
0100
1000
0100
0010
0001
0010
0001
,
1000
0010
0010
0001
0010
0010
1000
0010
,
1010
0000
1000
0010
4000
0000
0010
0000
0000
0000
0010
0000
0000
0000
3010
0000
,
0100
0000
0001
0010
0000
0001
0100
0000
0110
0000
1000
0000
0110
0000
0001
0000
,
1001
0000
1000
0100
4000
0000
0100
0000
0000
0000
0100
0000
0000
0000
3100
0000
,
0010
0000
0001
0010
0100
0010
0100
0010
0001
0000
0100
0000
0010
0000
1000
0100
,
1000
0000
0010
0100
0040
0000
1000
0000
0000
0000
1030
0000
0001
0000
0100
0010
,
0100
0000
0001
1000
0004
0000
0010
0000
0000
0000
0013
0000
0011
0000
0100
0000
,
1000
0000
1000
0010
1000
0000
0001
0010
0004
0000
0000
0000
1003
0010
0100
0010
,
1000
0010
0100
0001
1000
0100
0010
0001
,
0100
0000
0001
2000
0000
0000
3010
0000
0000
0000
0101
0000
0000
0000
0001
0000
,
1001
0000
1000
0002
0000
0000
0103
0000
0000
0000
1010
0000
0000
0000
0010
0000
,
0110
0000
0001
2000
0000
0000
3100
0000
1000
0000
0001
2000
0000
0000
3100
0000
,
1100
0000
0001
0020
0000
0000
0130
0000
1100
0000
1000
0000
0000
0000
0001
0000
,
0101
0001
1000
0001
1010
0100
0010
0100
,
0110
0100
0001
0100
0101
0001
0010
0100
,
1001
0010
1001
0100
0101
1001
1010
0110
,
0001
0000
0000
0010
0000
0000
0001
0000
0000
0010
0000
0000
0100
0000
0000
0010
0000
0000
0100
0000
0000
0010
0000
0000
0100
0000
0000
1000
0000
0000
0100
0000
1000
0000
0100
0000
1000
0000
0000
0001
0000
0000
0010
0000
0001
0000
0010
0000
,
0200
0000
0000
0000
,
0040
0000
0000
0000
0030
0000
0310
0100
,
1000
0000
0001
0010
0001
0000
0010
0000
0100
0000
1000
0100
1000
0000
0010
0000
,
0100
0010
0001
0010
1000
0000
0001
0010
,
1000
0000
0010
0100
0010
0000
0100
0000
1000
0000
0001
0100
0001
0000
1000
0000
,
0010
0000
0100
0010
0100
0000
0010
0000
1000
0000
0000
0000
1000
0000
0100
0000
,
0001
0000
0100
0010
0100
0000
0010
0000
0001
0000
1000
0100
1000
0000
0010
0000
,
0100
0000
0000
0001
0100
0001
0100
0000
0000
0010
0000
0000
1000
0000
0000
0000
0000
0000
0001
0000
0000
0100
0000
0000
,
1000
0100
0001
0001
1000
0010
0001
0010
,
0000
0110
0000
1010
0000
0101
0001
0010
,
1000
0000
0100
1000
0100
0000
1000
0000
0010
0000
0100
0010
0100
0000
0001
0000
,
1000
0100
0001
0100
0010
0000
0100
1000
,
0010
0000
0100
0010
0100
0000
0001
0000
0010
0000
0100
0010
0100
0000
1000
0000
,
0001
0000
1000
0010
1000
0000
0001
0000
0100
0000
0000
0000
0001
0000
0010
0000
,
0100
0000
1000
0010
1000
0000
0110
0000
0010
0000
0110
0000
0100
0000
0101
0000
,
0001
1001
1010
0100
0110
0010
1010
1000
,
1001
0000
1000
0000
1100
0000
1000
0000
1000
0010
1000
0010
0100
0001
0100
0001
,
1000
0100
1000
0100
0000
0000
0010
0001
0010
0001
0000
0000
0011
0000
0000
0000
0000
0000
1001
0000
0000
0000
0000
0000
,
0004
0000
0000
0000
,
0000
0000
0000
0000
,
0000
0000
0000
0000
,
0000
0000
0000
1003
;

//---------------dance-single - ----------------
#NOTES:
     dance-single:
     :
     Easy:
     5:
     0.386170,0.530749,0.741730,0.115380,0.000000,328.000000,238.000000,90.000000,14.000000,0.000000,0.000000,0.386170,0.530749,0.741730,0.115380,0.000000,328.000000,238.000000,90.000000,14.000000,0.000000,0.000000:
0000
0000
0000
0000
,
0000
0000
0000
0000
,
0000
0000
0000
0000
,
0000
0000
0000
0000
,
0000
0000
0000
0000
,
1001
0000
0100
0000
,
0010
0000
0001
0000
,
0010
0000
0100
0000
,
2000
0000
0000
3001
,
0101
0000
0101
0000
,
1000
1000
1000
0000
,
0110
0000
0110
0000
,
0001
0001
0001
0000
,
1010
0000
1010
0000
,
0100
0100
0100
0000
,
0001
0001
1000
1000
,
0010
0010
1010
0000
,
0002
0000
0000
0003
,
2000
0000
0000
3000
,
0010
0000
0010
0000
,
1000
0000
1000
0000
,
0002
0000
0000
0003
,
2000
0000
0000
3000
,
0010
0000
0010
0000
,
0100
0000
0100
0000
,
0110
0000
0010
0000
,
0010
0000
0010
0000
,
1010
0000
1100
0000
,
0010
0010
0010
0000
,
0101
0000
0001
0000
,
1010
0000
0101
0000
,
1010
0000
0110
0000
,
1001
0000
0110
0000
,
1001
0000
0000
0000
,
1001
1000
1000
1000
,
1000
1000
1001
0000
,
0110
0100
0100
0100
,
0110
0100
0110
0000
,
1001
0001
0001
0001
,
0001
0001
1001
0000
,
0110
0010
0010
0010
,
2000
3000
0002
0003
,
1010
1000
0010
0010
,
1000
1000
1010
1010
,
0101
0001
0100
0100
,
0101
0001
0101
0101
,
0110
0100
0010
0010
,
0100
0100
0110
0110
,
0010
0010
1000
1000
,
0001
2000
0000
3000
,
0010
0000
1000
0000
,
0010
0000
1010
0000
,
0100
0000
0001
0000
,
0100
0000
0101
0000
,
0010
0000
1000
0000
,
0010
0000
0100
0000
,
0001
0001
1000
1000
,
0200
0000
0000
0300
,
0011
0000
0011
0000
,
0001
0001
0001
0000
,
1001
0000
1001
0000
,
1000
1000
1000
0000
,
0101
0000
0001
0000
,
1010
0000
1000
0000
,
1001
0001
1000
1000
,
0001
0001
1001
1001
,
1010
0000
1010
0000
,
0101
0000
0101
0000
,
1010
0000
1010
0000
,
0101
0000
0101
0000
,
1000
1000
0001
0001
,
1000
1000
0001
0001
,
0100
0100
0100
0100
,
0220
0000
0000
0330
,
2002
0000
0000
3003
,
0002
0000
0000
1003
,
1010
1000
1010
1000
,
0101
0001
0101
0000
,
1010
1000
1010
0010
,
0011
0001
1001
0000
,
0011
0001
0011
0001
,
1001
0001
1001
0000
,
1010
1000
1010
1000
,
0000
0101
0000
0101
0000
0101
0000
0000
,
0011
0010
0011
0010
,
1001
1000
1001
0000
,
1100
0100
1100
0100
,
1001
0001
1001
0000
,
0101
0100
0100
0100
,
1010
0010
0010
0010
,
0101
0001
1010
0001
,
1000
1001
0110
0000
,
1001
0000
0000
0000
;

//---------------dance-single - ----------------
#NOTES:
     dance-single:
     :
     Hard:
     10:
     0.784114,0.986397,0.923041,0.074173,0.135984,666.000000,554.000000,112.000000,9.000000,0.000000,0.000000,0.784114,0.986397,0.923041,0.074173,0.135984,666.000000,554.000000,112.000000,9.000000,0.000000,0.000000:
// measure 0
0000
0000
0000
0000
,  // measure 1
0000
0000
0000
0000
,  // measure 2
0000
0000
0000
0000
,  // measure 3
0000
0000
0000
0000
,  // measure 4
0000
0000
0000
0000
,  // measure 5
0001
0000
0000
0010
0000
0000
0010
0000
0000
0000
0100
0000
0000
0000
0100
0000
,  // measure 6
0000
1000
0100
1000
0010
0100
0001
1000
,  // measure 7
0001
0000
0000
0100
0000
0000
0100
0000
0000
0000
0010
0000
0000
0000
0010
0000
,  // measure 8
2000
0000
0000
3001
,  // measure 9
1000
0000
1000
0100
0000
0000
0110
0000
0000
0000
0011
0000
0000
0000
0101
0000
,  // measure 10
0010
0010
1000
0100
0001
1000
0010
0001
,  // measure 11
1000
0000
1000
0010
0000
0000
0110
0000
0000
0000
1010
0000
0000
0000
0101
0000
,  // measure 12
0010
1000
0010
0001
1000
0100
0001
0100
,  // measure 13
1000
0000
0010
0100
0000
0000
0101
0000
0000
0000
0110
0000
0000
0000
1010
0000
,  // measure 14
0100
0100
0001
0100
1000
0001
0010
0100
,  // measure 15
1000
0100
1000
0100
0010
0001
0010
0001
,  // measure 16
1000
0100
1000
0000
0001
0010
0001
0000
1000
0000
0100
0000
0012
0000
0000
0000
,  // measure 17
1003
0000
1000
0010
0000
0010
0000
0100
,  // measure 18
0000
0001
0010
0000
0100
0000
1000
0000
,  // measure 19
0010
0000
0010
1000
0000
1000
0000
0001
,  // measure 20
0000
0001
0100
0000
0010
0000
1000
0010
,  // measure 21
0100
0000
0100
0001
0000
0001
0000
1000
,  // measure 22
0000
0010
0100
0001
1000
0000
1000
0000
,  // measure 23
0001
0000
0001
0010
0000
0010
0000
0100
,  // measure 24
0000
0100
0010
0100
1000
0000
0010
0100
,  // measure 25
0001
0100
0010
1000
0001
0100
0010
1000
,  // measure 26
0001
1000
0100
0010
0001
0010
0100
1000
,  // measure 27
1010
0100
0001
0010
1100
0010
0100
0001
,  // measure 28
0101
0000
0001
0100
0001
0000
1000
0100
1000
0000
0010
0100
0010
0000
1000
0000
,  // measure 29
1010
0010
0100
0010
1000
1010
0100
0001
,  // measure 30
0011
0000
0010
0000
0100
0000
1000
0000
1100
0000
0000
0010
0000
0000
0100
0000
,  // measure 31
0110
0010
1000
0001
1001
0100
0010
1000
,  // measure 32
1010
0000
0010
0000
0110
0000
0100
0000
0010
1000
0010
0000
0001
0100
0001
0000
,  // measure 33
2000
0000
0000
0010
0001
0000
3001
0000
,  // measure 34
1100
0110
0011
0110
,  // measure 35
1100
0000
0110
0000
0001
0010
0100
1000
,  // measure 36
1001
0110
1001
0110
,  // measure 37
1001
0000
0010
0001
0010
1000
0010
0001
,  // measure 38
0011
0110
1100
0110
,  // measure 39
0011
0000
0110
0000
1000
0100
0010
0001
,  // measure 40
1001
0110
1001
0110
,  // measure 41
1002
0000
0000
0100
1000
0000
1003
0000
,  // measure 42
1100
0101
0011
1010
,  // measure 43
1100
0000
1001
0000
1000
0010
0100
0001
,  // measure 44
0101
1010
0101
1010
,  // measure 45
0101
0000
0001
0010
1000
0010
0001
0010
,  // measure 46
0011
1010
1100
0101
,  // measure 47
0011
0000
1001
0000
0001
0100
0010
1000
,  // measure 48
0010
0010
0100
0100
0001
0001
1000
1000
,  // measure 49
1010
0000
0000
0001
0100
0010
1000
0010
0100
0001
0000
0000
,  // measure 50
1001
0000
0001
0010
0001
0000
0010
0000
,  // measure 51
0200
0000
0310
0100
1000
0000
0100
0000
,  // measure 52
0011
0000
1000
0100
1000
0000
0001
0000
,  // measure 53
0200
0310
0110
1001
,  // measure 54
0001
0000
0100
0010
0100
0001
0010
0000
,  // measure 55
0010
0100
1000
0000
1010
0000
0101
0000
,  // measure 56
0001
0010
0100
1000
0001
0001
0100
0100
,  // measure 57
0001
0010
0010
1000
0010
0010
0001
0000
,  // measure 58
0101
0000
0001
0100
0000
0000
1010
0000
0000
0000
0110
0000
0000
0000
0101
0000
,  // measure 59
0001
0000
0000
1000
0000
0000
0010
0000
0110
0000
0000
0000
0110
0000
0000
0000
,  // measure 60
1001
0000
0001
0010
0000
0000
0101
0000
0000
0000
0110
0000
0000
0000
1010
0000
,  // measure 61
0010
1000
0010
0010
1000
0010
0101
0000
,  // measure 62
0001
0000
1000
0100
0000
0000
0110
0000
0000
0000
0011
0000
1000
0000
1000
0000
,  // measure 63
0010
0000
1000
0100
0000
0000
1010
0000
0000
0000
0101
0000
0010
0000
1000
0000
,  // measure 64
0001
0100
0101
0000
0010
1000
1010
0000
,  // measure 65
0001
0010
1000
0010
0100
0010
1001
0000
,  // measure 66
0010
0000
1000
0001
0000
0000
0110
0000
0000
0000
1010
0000
0000
0000
0101
0000
,  // measure 67
0010
0000
1000
0001
0000
0000
0110
0000
0000
0000
0101
0000
0000
0000
1010
0000
,  // measure 68
0100
0000
0001
1000
0000
0000
0010
0000
0100
0000
0001
1000
0000
0000
0001
0000
,  // measure 69
1000
0000
0010
0100
0000
0000
0001
0000
1001
0000
1000
0000
0000
0000
0010
0000
,  // measure 70
0110
0100
0001
0100
0101
0010
0100
0010
,  // measure 71
0110
0010
1000
0010
1010
1000
0100
0010
,  // measure 72
1001
0100
1001
0010
0101
0010
1010
0100
,  // measure 73
0001
0010
0001
0000
1000
0100
1000
0000
0001
0100
0001
0000
1000
0001
1000
0000
,  // measure 74
0020
0000
0000
0000
,  // measure 75
0200
0000
0000
0000
0300
0000
0130
0010
,  // measure 76
1000
0100
0010
0001
1000
0010
0100
0001
,  // measure 77
0010
0100
1000
0100
0001
0000
0001
0100
,  // measure 78
1000
0100
0001
0100
1000
0010
0001
0010
,  // measure 79
1000
0001
0010
0100
1000
0000
0001
1000
,  // measure 80
0010
0100
0001
1000
0010
1000
0001
0100
,  // measure 81
0010
0100
1000
0100
0001
0000
0001
0100
,  // measure 82
1000
0100
0001
1000
0001
0010
1000
0010
,  // measure 83
0000
0011
0000
0101
0000
1010
0000
0000
,  // measure 84
1000
0100
0010
0001
1000
0010
0100
0001
,  // measure 85
1000
0010
0001
0010
1000
0000
0001
0010
,  // measure 86
1000
0010
0001
0010
1000
0100
0001
0100
,  // measure 87
1000
0001
0010
0100
1000
0000
1000
0100
,  // measure 88
0011
0000
0001
0100
0000
0110
0000
1010
,  // measure 89
0000
0001
0010
0100
1000
0000
0001
0010
,  // measure 90
1001
1000
0101
0001
1010
1000
0101
0001
,  // measure 91
1000
0100
1000
0000
0001
0100
0001
0000
0101
0000
0000
0000
1001
0000
0000
0000
,  // measure 92
2000
0000
0000
0000
,  // measure 93
0000
0000
0000
0000
,  // measure 94
0000
0000
0000
0000
,  // measure 95
0000
0000
0000
3001
;

//---------------dance-single - ----------------
#NOTES:
     dance-single:
     :
     Medium:
     7:
     0.555709,0.670750,0.956007,0.115380,0.016483,472.000000,356.000000,116.000000,14.000000,0.000000,0.000000,0.555709,0.670750,0.956007,0.115380,0.016483,472.000000,356.000000,116.000000,14.000000,0.000000,0.000000:
0000
0000
0000
0000
,
0000
0000
0000
0000
,
0000
0000
0000
0000
,
0000
0000
0000
0000
,
0000
0000
0000
0000
,
1001
1000
0010
0010
,
0100
0000
0100
0000
0001
0010
0001
0000
,
1000
0100
0010
0001
,
2000
0000
0000
3001
,
0101
0001
1010
1000
,
0001
1000
0001
0000
1001
0000
0010
0000
,
1100
0100
0011
0010
,
0001
0010
0001
0000
0011
0000
1000
0000
,
0101
0001
1010
1000
,
0001
0100
0001
0000
0101
0000
0100
0000
,
0010
0100
0010
0000
1000
0100
1000
0000
,
1000
0010
1000
0010
1000
0000
1010
0000
,
0002
0000
1003
0000
,
2000
0000
3001
0000
,
0010
0000
0010
0000
,
1000
1000
1000
0000
,
0002
0000
1003
0000
,
2000
0000
3001
0000
,
0010
0000
0010
0000
,
0100
0000
0100
1010
,
1000
1000
0100
0100
,
0010
0010
0001
0001
,
1001
0010
1001
0010
,
1010
1001
1010
0100
,
0101
0001
0100
0001
,
1010
1000
0101
0001
,
1010
1000
0110
0010
,
1001
0010
0110
0110
,
1001
0000
0000
0000
,
0011
0011
0011
0011
,
0011
0000
0011
0000
0001
0100
0001
0000
,
0110
0110
0110
0110
,
0110
0000
0100
0000
0010
0100
0010
0000
,
1010
1010
1010
1010
,
1010
0000
1010
0000
1000
0001
1000
0000
,
1100
1100
1100
1100
,
0020
0001
0031
0011
,
1010
0011
1010
0011
,
1010
0000
0011
0000
0001
1000
0001
0000
,
0101
1010
0101
1010
,
0101
0000
0001
0000
0001
0100
0001
0000
,
1100
0011
1100
0011
,
1100
0000
0011
0000
1000
0100
1000
0000
,
1000
0100
0010
0000
0100
0010
0001
0000
,
0001
2000
0000
3001
,
0010
0000
1000
0000
,
0010
0000
0001
0011
,
0001
0000
0100
0000
,
1000
0000
0100
0110
,
0010
0000
1000
0000
,
0010
0010
0100
0100
,
0010
0100
0010
0000
0100
1000
0100
0000
,
2000
0000
0000
3001
,
0011
0000
0000
0001
0000
0100
0000
0001
,
0200
0001
0001
0301
,
1010
0000
0000
1000
0000
0001
0000
1000
,
0002
1000
1000
1003
,
0101
0000
0000
0001
0000
0001
0010
0000
,
1100
0000
0000
1000
0000
1000
0100
0000
,
0110
0010
1001
0001
,
1010
1010
0101
0101
,
1010
0000
0000
0001
0000
1000
0000
0001
,
1000
0000
0000
1000
0000
0001
0000
1000
,
0001
0000
0000
0001
0000
0000
0001
0000
0100
0000
0000
0100
0000
0000
0100
0000
,
0010
0000
0000
0010
0000
0000
0010
0000
1000
0000
0000
1000
0000
0000
1000
0000
,
1100
0110
0011
0101
,
1001
1010
0110
0101
,
1000
0001
1000
0000
0001
1000
0001
0000
,
0100
0010
0100
0010
0100
0010
0100
0000
,
2002
0000
0000
3003
,
2000
0000
0000
3001
,
0101
0001
1010
1000
,
1100
0000
0101
0000
1010
0000
1000
0010
,
1000
0000
1000
0100
0010
0000
0010
0100
,
1000
0011
1100
0001
,
0110
0100
1001
0001
,
1001
0000
1010
0000
1001
0000
0001
0100
,
0010
0100
0001
0000
0101
0000
0001
1000
,
0000
1010
0000
0110
0000
1010
0000
0000
,
1010
1000
0101
0001
,
0011
0000
1100
0000
0110
0000
1000
0100
,
1000
0000
0100
0010
0001
0000
0001
0010
,
0100
0000
0110
0000
1001
0000
1000
0010
,
1000
0000
0010
0100
0000
0110
0000
1001
,
0000
0001
0100
0000
0101
0000
1001
0000
,
0001
1000
0001
0000
1000
0001
1000
0000
,
0010
0100
0010
0100
0010
0000
0110
0000
,
1002
0000
0000
0000
,
0000
0000
0000
0000
,
0000
0000
0000
0000
,
0000
0000
0000
1003
;
