#TITLE:Ocean Avenue;
#SUBTITLE:;
#ARTIST:Yellowcard;
#TITLETRANSLIT:;
#SUBTITLETRANSLIT:;
#ARTISTTRANSLIT:;
#GENRE:;
#CREDIT:;
#BANNER:[Round 1] - Ocean Avenue.png;
#BACKGROUND:[Round 1] - Ocean Avenue-bg.png;
#LYRICSPATH:;
#CDTITLE:cdtitle.png;
#MUSIC:[Round 1] - Ocean Avenue.ogg;
#OFFSET:0.130000;
#SAMPLESTART:48.490002;
#SAMPLELENGTH:11.150000;
#LASTBEATHINT:373.954742;
#SELECTABLE:YES;
#BPMS:0.000000=173.794006
,358.000000=163.794998
;
#STOPS:289.500000=0.691000
;
#BGCHANGES:;
#KEYSOUNDS:;
#ATTACKS:;

//---------------dance-single - ----------------
#NOTES:
     dance-single:
     :
     Beginner:
     2:
     0.166363,0.244283,0.053985,0.107971,0.000000,151.000000,144.000000,7.000000,14.000000,0.000000,0.000000,0.166363,0.244283,0.053985,0.107971,0.000000,151.000000,144.000000,7.000000,14.000000,0.000000,0.000000:
0000
0000
0000
0000
,
0000
0000
0000
0000
,
0000
0000
0000
0000
,
0000
0000
0000
0000
,
0000
0000
1000
0000
,
1000
0000
1000
0000
,
0000
0000
0001
0000
,
0001
0000
0001
0000
,
0000
0000
0100
0000
,
0100
0000
0100
0000
,
0000
0000
0010
0000
,
0010
0000
0010
0000
,
0000
0000
2000
0000
,
3002
0000
0000
0000
,
0003
0000
0100
0000
,
0100
0000
0100
0000
,
0000
0000
0002
0000
,
2003
0000
0000
0000
,
3000
0000
0010
0000
,
0010
0000
0010
0000
,
0000
0000
0100
0000
,
0100
0000
0100
0000
,
0000
0000
0001
0000
,
0001
0000
0001
0000
,
0000
0000
1000
0000
,
1000
0000
1000
0000
,
0000
0000
0010
0000
,
0010
0000
0010
0000
,
0000
0000
2000
0000
,
3200
0000
0000
0000
,
0300
0000
0010
0000
,
0010
0000
0010
0000
,
0000
0000
0002
0000
,
0023
0000
0000
0000
,
0030
0000
0100
0000
,
0100
0000
1001
0000
,
1000
0000
0010
0000
,
0001
0000
0010
0000
,
0100
0000
0200
0000
,
0300
0000
0100
0000
,
0001
0000
0010
0000
,
1000
0000
0010
0000
,
0100
0000
0200
0000
,
0300
0000
0110
0000
,
1000
0000
0100
0000
,
0001
0000
0100
0000
,
0010
0000
0020
0000
,
0030
0000
0010
0000
,
0001
0000
0100
0000
,
1000
0000
0100
0000
,
0010
0000
1000
0000
,
0001
0000
0100
0000
,
0001
0000
0001
0000
,
1000
0000
0100
0000
,
1000
0000
1000
0000
,
0001
0000
0010
0000
,
0100
0000
0100
0000
,
1000
0000
0001
0000
,
0010
0000
0010
0000
,
0001
0000
1000
0000
,
1100
0000
0010
0000
,
0001
0000
1000
0000
,
0101
0000
0010
0000
,
1000
0000
0001
0000
,
0110
0000
0001
0000
,
1000
0000
0010
0000
,
0200
0000
0000
0000
,
0320
0000
0000
0000
,
1030
0000
0100
0000
,
0010
0000
0001
0000
,
0100
0000
0200
0000
,
0300
0000
0100
0000
,
0110
0000
0000
0000
,
0100
0000
0010
0000
,
1000
0000
0100
0000
,
0010
0000
0001
0000
,
0010
0000
1000
0000
,
0010
0000
0001
0000
,
0100
0000
1000
0000
,
0100
0000
0001
0000
,
0001
0000
1000
0000
,
1000
0000
0010
0000
,
0010
0000
0100
0000
,
0100
0000
0000
0000
,
0001
0000
0001
0000
,
0001
0000
0000
0000
,
1000
0000
1000
0000
,
1000
0000
0000
0000
,
0100
0000
1000
0000
,
0001
0000
0010
0000
,
0100
0000
1001
0000
;

//---------------dance-single - ----------------
#NOTES:
     dance-single:
     :
     Easy:
     4:
     0.332726,0.418771,0.185092,0.069410,0.000000,302.000000,278.000000,24.000000,9.000000,0.000000,0.000000,0.332726,0.418771,0.185092,0.069410,0.000000,302.000000,278.000000,24.000000,9.000000,0.000000,0.000000:
0000
0000
0000
0000
,
0000
0000
0000
0000
,
0000
0000
0000
0000
,
0000
0000
0000
0000
,
0000
1000
0100
1000
,
0010
0100
0001
0001
,
0000
0001
0100
0001
,
0010
0100
1000
1000
,
0000
0001
1000
0001
,
0010
0100
1000
0001
,
1000
1000
0100
0100
,
0010
0010
0001
0001
,
0000
0000
2000
0000
,
0100
0000
0010
0000
,
3002
0000
0100
0000
,
1003
1000
0100
0100
,
0010
0000
0002
0000
,
0010
0000
0100
0000
,
2003
0000
0010
0000
,
3001
0100
0010
1000
,
0000
0010
1000
0100
,
0010
0001
0010
0100
,
0000
0010
0001
0100
,
0010
1000
0010
0100
,
0000
0100
0001
1000
,
0100
0010
0001
1000
,
0010
0000
1000
1000
,
0001
0001
0010
0010
,
0000
0000
0200
0000
,
1000
0000
0001
0000
,
0320
0000
0031
0000
,
1000
1000
0001
0001
,
0100
0000
0020
0000
,
1000
0000
0001
0000
,
0130
0100
0010
0010
,
1000
0001
1000
0001
,
0010
0000
0001
0000
,
0010
0100
1000
0001
,
0100
0000
0010
0000
,
0100
0001
1000
0100
,
1000
0000
0010
0000
,
1000
0100
0010
0001
,
0100
0000
0010
0000
,
0100
0001
0010
0100
,
1100
0000
0011
0000
,
0001
0010
0100
1000
,
1010
0000
0101
0000
,
1000
0010
0100
0001
,
1000
0000
1000
0000
,
0001
0010
0100
1000
,
0001
0000
0001
0000
,
1000
0100
0010
0001
,
0000
0100
0010
0100
,
0001
0010
0001
0000
,
1001
0100
0010
0100
,
1000
0010
1000
0000
,
0110
1000
0001
1000
,
0010
0100
1000
0001
,
0010
0010
0100
0100
,
0001
0001
1000
1000
,
0000
0100
0010
0100
,
1000
0010
1000
0000
,
1001
0100
0010
0100
,
1000
0010
0100
0001
,
0110
0001
1000
0001
,
0010
0100
0001
1000
,
0010
0010
0100
0100
,
1000
1000
0001
0001
,
1001
0000
0110
0000
,
1000
0010
0100
0001
,
0101
0000
1010
0000
,
1100
0000
0011
0001
,
1000
0001
0000
0100
,
0010
0100
0101
0000
,
1010
0000
0011
0000
,
1100
1000
0001
1000
,
0010
0100
0001
1000
,
0100
0010
0001
0010
,
0100
0010
1000
0010
,
0100
0110
1001
1000
,
0001
0010
0100
1000
,
0001
0100
0010
1000
,
0010
0100
0010
0110
,
1010
0011
0000
0001
,
0100
0001
0000
1000
,
0100
1000
0000
0010
,
1000
0010
0000
0100
,
0001
0100
0000
0001
,
0010
0100
0000
1000
,
0010
0100
0020
0000
,
0230
0300
1001
0000
;

//---------------dance-single - ----------------
#NOTES:
     dance-single:
     :
     Medium:
     6:
     0.473748,0.523464,0.347048,0.200517,0.000000,430.000000,385.000000,45.000000,26.000000,0.000000,0.000000,0.473748,0.523464,0.347048,0.200517,0.000000,430.000000,385.000000,45.000000,26.000000,0.000000,0.000000:
0000
0000
0000
0000
,
0000
0000
0000
0000
,
0000
0000
0000
0000
,
0000
0000
0000
0000
,
0000
0000
1000
0100
1000
0000
0001
0000
,
0001
0100
0000
0001
0000
0010
0000
0100
,
0000
0000
0010
0001
0010
0000
0100
1000
,
0000
0100
0000
1000
0000
0010
0000
0100
,
0000
0000
0010
0001
0010
0000
0110
0000
,
1001
0000
1000
0100
0000
0010
0000
0001
,
0000
0000
0000
0000
1000
0100
1000
0000
,
1000
0000
0001
0100
0001
0100
0001
0000
,
2000
0000
0100
0000
3020
0000
0000
0230
,
0000
0302
0013
0110
,
0001
1000
0100
0010
,
0001
0000
1000
0001
1000
0001
0000
0000
,
0002
0000
0100
0000
0023
0000
0000
0230
,
0000
2300
3010
0110
,
1000
0001
0000
0001
1000
0000
0110
0000
,
0000
1000
0000
1000
0001
0000
1001
0000
,
0000
0000
1000
0100
1000
0000
1000
0001
,
0000
0001
0000
1000
0000
0100
0000
0010
,
0000
0000
0001
1000
0001
0100
0000
0001
,
0000
0000
1000
0100
1000
0001
0000
1000
,
0000
0000
0100
1000
0100
0000
0010
0000
,
0001
0010
0001
0010
0000
0100
0000
1000
,
0000
0000
0001
1000
0010
0000
1000
0001
,
0000
0000
0001
0010
0100
0000
1001
0000
,
0020
0000
0100
0000
0032
0000
0000
2003
,
0000
3200
1300
1001
,
1000
0000
0010
0100
0010
0000
1000
0000
,
0001
0000
0010
0100
0010
0100
0010
0000
,
0200
0000
0010
0000
2300
0000
0000
3002
,
0000
0023
0130
1001
,
1000
0100
1000
0000
0001
0100
0001
0000
,
0010
0011
1010
1001
,
1000
0000
1000
0100
0000
0100
0010
0000
,
0000
0011
0101
0011
,
0001
0000
0001
0000
1000
0001
1000
0000
,
0010
0000
0010
0000
0100
0010
0100
0000
,
0001
0000
0001
0100
0000
0100
0010
0000
,
0000
1010
1100
1010
,
0010
0000
0010
0000
0100
0010
0100
0000
,
0001
0000
0001
0000
1000
0001
1000
0000
,
0100
0000
0100
1000
0000
1000
0010
0000
,
0000
0110
1001
0110
,
0100
0000
0100
0000
0001
1000
0001
0000
,
0010
0000
0010
0000
0001
1000
0001
0000
,
0100
0000
0100
0001
0000
0001
0010
0000
,
0000
0110
1001
0110
,
1010
0000
0000
0011
0000
0000
1001
0000
,
1000
0000
0001
1000
0000
1000
0001
0000
,
0100
0000
0001
0000
0010
0000
0100
0010
,
0000
0100
0000
1000
0000
0000
1001
0000
,
0100
0000
1000
0000
0010
0000
0100
0010
,
0000
0100
0000
0001
0000
0001
1000
0000
,
0001
0000
0100
0000
0010
0000
1000
0010
,
0000
0000
1000
0100
0000
0100
0000
1000
,
0000
0000
1000
0000
0100
0010
0100
0000
,
0001
0000
0100
0000
0010
0100
0010
0000
,
0001
0100
0020
1030
,
0020
0130
0002
0013
,
0100
1000
0100
0000
0020
0000
0031
0000
,
0020
0130
2000
3010
,
1000
0001
1000
0000
0020
0000
0031
0000
,
2000
3100
0002
0013
,
0100
0100
0010
0010
,
0001
1000
0001
1000
0001
0000
1001
0000
,
0010
0000
1000
0001
0000
0001
0010
0000
,
0000
0110
1100
0101
,
0001
0000
0001
0000
1000
0100
1000
0000
,
0010
0000
0010
0000
0100
0001
0100
0000
,
0020
0000
0000
0130
0000
0000
0110
0000
,
1010
0011
1000
1000
,
0010
1000
0100
0000
0001
0000
0001
0000
,
0100
1000
0010
0000
1000
0000
1000
0001
,
0000
0001
0100
0000
0000
0000
0110
0000
,
1010
0101
0001
0001
,
1000
0010
1000
0000
0100
0000
0100
0000
,
0010
0001
0010
0000
0001
0000
0001
1000
,
0000
1000
0100
0000
0000
0000
0110
0000
,
1100
0000
0011
0000
0010
0000
0010
0001
,
0000
0001
1000
0000
0100
0000
0100
1000
,
0000
1000
0001
0000
1000
0100
0000
0100
,
1000
0000
1000
0000
0001
0100
0000
0100
,
0001
0000
0001
0000
1000
0010
0000
0010
,
1000
0000
1000
0000
0001
0010
0000
0010
,
0001
0000
0001
0000
1000
0001
0000
0001
,
1000
0000
1000
0000
0010
0100
0000
0100
,
0010
0000
0010
0000
1010
0000
0000
0101
,
0000
0110
1001
0000
;

//---------------dance-single - ----------------
#NOTES:
     dance-single:
     :
     Hard:
     9:
     0.685282,0.891721,0.516716,0.246790,0.123395,622.000000,555.000000,67.000000,32.000000,0.000000,0.000000,0.685282,0.891721,0.516716,0.246790,0.123395,622.000000,555.000000,67.000000,32.000000,0.000000,0.000000:
// measure 0
0000
0000
0000
0000
,  // measure 1
0000
0000
0000
0000
,  // measure 2
0000
0000
0000
0000
,  // measure 3
0000
0000
0000
0000
,  // measure 4
0000
0000
1000
0100
1000
0000
0001
0100
,  // measure 5
0001
0010
0100
1000
0000
1100
0000
0011
,  // measure 6
0000
0000
0001
0100
0001
0000
1000
0100
,  // measure 7
1000
0010
0100
0001
0000
1010
0000
0101
,  // measure 8
0000
0000
1000
0001
0011
0000
1100
0000
,  // measure 9
0011
0001
0100
0010
0000
1010
0000
0101
,  // measure 10
0000
0000
0000
0000
0100
0010
0100
0000
,  // measure 11
1001
0000
0000
0000
0100
0000
0010
0000
0100
0000
0010
0001
0010
0001
0010
0001
,  // measure 12
0010
0001
0100
0001
2000
0000
3100
0002
,  // measure 13
0000
0103
1000
0010
0100
0000
1001
0000
,  // measure 14
1000
0010
0100
0001
0010
0000
0110
0000
,  // measure 15
0000
0100
0010
0001
1000
0010
0100
0000
,  // measure 16
0010
1000
0100
1000
0002
0000
0103
2000
,  // measure 17
0000
3100
0001
0010
0100
0000
0110
0000
,  // measure 18
0001
0100
0010
1000
0100
0000
1001
0000
,  // measure 19
0000
0000
0100
0000
0010
0000
0001
0000
1000
0000
0010
1000
0010
1000
0010
1000
,  // measure 20
0000
0100
0010
0100
1000
0000
1100
0100
,  // measure 21
0000
0010
0100
0010
0000
0011
0000
1001
,  // measure 22
0000
0100
1000
0010
0100
0001
0000
1001
,  // measure 23
0000
0001
0100
0010
1000
0100
0000
0110
,  // measure 24
0000
0010
0001
1000
1010
0000
0101
0000
,  // measure 25
0011
0010
0100
1000
0000
1100
0000
1001
,  // measure 26
0000
0000
0001
1000
0010
0000
0100
0001
,  // measure 27
0000
0000
0000
0000
1000
0000
0001
0000
1000
0000
0100
1000
0100
1000
0100
1000
,  // measure 28
0100
0010
0001
2000
0000
0000
3010
0002
,  // measure 29
0000
0013
0100
0000
0001
0010
0100
0000
,  // measure 30
1000
0001
0100
0010
1000
0000
1100
0000
,  // measure 31
0000
0100
0010
0100
1000
0000
0110
0000
,  // measure 32
0100
0010
1000
0002
0000
0000
0013
2000
,  // measure 33
0000
3010
0100
0000
1000
0010
0100
0000
,  // measure 34
0001
0100
0001
0100
1000
0100
1000
0100
,  // measure 35
0001
0010
0001
0010
0100
0010
0100
0010
0100
1000
0100
1000
0001
1000
0001
1000
,  // measure 36
0010
1000
0001
0010
0000
0100
1001
0000
,  // measure 37
0001
0010
1100
0000
1000
0010
0101
0000
,  // measure 38
0001
0010
0100
1000
0010
0100
0001
1000
,  // measure 39
0100
0010
0001
0000
0101
0000
1010
0000
,  // measure 40
0100
1000
0001
0100
0000
0010
1001
0000
,  // measure 41
0001
0100
1010
0000
1000
0100
0011
0000
,  // measure 42
0001
0010
0100
1000
0010
0100
0001
1000
,  // measure 43
0100
0000
0010
0000
0001
0000
1000
0000
0010
0100
0010
0100
0001
1000
0001
1000
,  // measure 44
0010
1000
0001
0010
0000
0100
1001
0000
,  // measure 45
0010
0100
1001
0000
0001
1000
0110
0000
,  // measure 46
1000
0010
0001
0010
1000
0100
0001
0100
,  // measure 47
0010
0001
1000
0000
1010
0000
0101
0000
,  // measure 48
0001
1000
0100
0001
0000
0100
1001
0000
,  // measure 49
1000
0010
0110
0000
0100
0001
1001
0000
,  // measure 50
1000
0100
0010
0001
0000
0001
1000
0000
,  // measure 51
0001
0000
1100
0100
0000
0010
0021
0000
,  // measure 52
0130
0000
0010
0001
0100
0001
0010
0100
,  // measure 53
0000
1000
0100
0001
0000
0100
0010
0000
,  // measure 54
1001
0000
0010
1000
0100
1000
0010
0100
,  // measure 55
0000
1000
0001
0010
0000
0100
0010
0000
,  // measure 56
1001
0000
1000
0100
0010
0001
0100
2000
,  // measure 57
0000
0000
3100
0002
0000
0013
0000
0100
,  // measure 58
1000
0000
1000
0000
0010
0100
0010
0100
,  // measure 59
0001
0000
0000
0000
0001
0000
0000
0000
0010
0000
0100
0010
0100
0010
0100
0010
,  // measure 60
0001
0000
1000
0010
0001
0010
2000
0000
,  // measure 61
3100
0010
0002
0000
0013
0100
2000
0000
,  // measure 62
3000
0000
0001
0100
1000
0100
0002
0000
,  // measure 63
0013
0100
2000
0000
3100
0010
0002
0000
,  // measure 64
0103
0000
0010
1000
0100
0010
2000
0000
,  // measure 65
3001
0100
0020
0000
0031
0100
0002
0000
,  // measure 66
0013
0100
0010
0100
1000
0001
1000
0001
,  // measure 67
0010
0000
0001
0010
0001
0010
0100
0000
1000
0010
1000
0010
0100
0000
0000
0000
,  // measure 68
0001
0010
0100
0001
0000
0100
0110
0000
,  // measure 69
0010
0001
1001
0000
1000
0010
0110
0000
,  // measure 70
1000
0100
0010
0001
0010
0100
1000
0001
,  // measure 71
0100
0010
1000
0010
0100
0001
1000
0000
,  // measure 72
0100
0100
0100
0200
0300
0000
0110
0000
,  // measure 73
1001
0000
0110
0000
1000
0010
0100
0001
,  // measure 74
0100
0000
0010
0000
1000
0000
0001
0000
0010
0000
0100
0000
1000
0100
1000
0100
,  // measure 75
0010
0001
0010
0001
1000
0000
0000
0000
1000
0000
0100
0000
0001
0000
0100
0000
,  // measure 76
0000
1000
1100
0000
0010
0001
0011
0000
,  // measure 77
0001
1000
1001
0000
1000
0010
0100
0001
,  // measure 78
1000
0100
0010
0001
0100
0010
1000
0000
,  // measure 79
1001
0000
0110
0000
0010
0100
0001
1000
,  // measure 80
0000
0100
0110
0000
0010
0001
0101
0000
,  // measure 81
0010
1000
1100
0000
1000
0100
1000
0001
,  // measure 82
0100
0001
0010
0000
0001
0010
0001
1000
,  // measure 83
0010
1000
0100
0000
0010
0001
0010
0001
,  // measure 84
0001
0000
1020
0000
0000
1030
0010
1000
,  // measure 85
1000
0001
1000
0001
0000
0001
0100
0001
,  // measure 86
0001
0000
1200
0000
0000
1300
0100
1000
,  // measure 87
1000
0001
0010
0001
0000
1000
0010
0001
,  // measure 88
0010
0000
0210
0000
0000
0301
0100
1000
,  // measure 89
0100
0010
1000
0000
2002
0000
3003
2200
,  // measure 90
0000
3300
0022
0033
0220
0000
0000
0000
,  // measure 91
0000
0000
0000
0000
,  // measure 92
0000
0000
0330
0000
;

//---------------dance-single - ----------------
#NOTES:
     dance-single:
     :
     Challenge:
     9:
     0.594940,0.642039,0.509004,0.339336,0.038561,540.000000,474.000000,66.000000,44.000000,29.000000,0.000000,0.594940,0.642039,0.509004,0.339336,0.038561,540.000000,474.000000,66.000000,44.000000,29.000000,0.000000:
0000
0000
0000
0000
,
0000
0000
0000
0000
,
0000
0000
0000
0000
,
0000
0000
0000
0000
,
0000
0000
1000
0100
0110
0000
1001
0000
,
0001
0200
0000
0320
0000
0230
0000
0301
,
0000
0000
0001
0100
0110
0000
0001
1000
,
0000
0020
0000
0230
0000
0320
0000
1030
,
0000
0000
0100
0010
0011
0000
1010
0000
,
1000
0100
01M0
0001
0000
0010
0000
0020
,
0000
0000
0030
0000
0010
0001
0100
0000
,
0010
0000
0000
0000
0100
0000
0010
0000
1000
0000
0004
4000
0000
0000
0000
0000
,
3003
0010
0100
1000
0002
0000
0000
2003
,
0000
3010
0100
0010
0110
0000
1001
0000
,
0001
0100
0010
1000
1010
0000
0101
0000
,
0000
0001
0010
0100
1000
0001
1000
0001
,
1000
0010
0100
0001
2000
0000
0000
3002
,
0000
0013
0100
0010
0110
0000
1001
0000
,
1000
0100
0010
0001
0011
0000
1100
0000
,
0000
0000
1000
0000
0010
0000
0100
0000
0001
0000
4000
0004
0000
0000
3000
0003
,
0000
0010
0100
1000
1100
0000
0011
0001
,
0000
0001
0100
1000
0100
0001
0010
0100
,
0000
0100
1000
0010
0100
0101
0000
1010
,
0000
1000
0010
0100
0001
1001
0000
0110
,
0000
0000
0100
0010
1010
0000
1001
0000
,
0001
0010
0M10
1000
0000
0100
0000
0010
,
0000
0000
0001
0010
1000
0000
0001
0100
,
0000
0000
0000
0000
1000
0000
0001
0000
1000
0000
0040
0400
0000
0000
0000
0000
,
0330
1000
0001
0200
0000
0000
0000
0302
,
0000
1003
0100
0010
0011
0000
1100
0000
,
1000
0100
0010
0001
0101
0000
1010
0000
,
0000
1000
0010
0001
0010
1000
0001
0100
,
0100
0001
1000
0020
0000
0000
0000
2030
,
0000
3100
0010
0001
0011
0000
1100
0000
,
0004
0000
0000
0003
4000
0000
0000
3000
,
0400
0040
0000
0000
0000
0000
0000
0000
0000
0000
0000
0000
0330
0000
0000
0000
,
4000
0000
0000
3000
0000
0100
0110
0000
,
0010
0001
1002
0000
1003
0010
0120
0000
,
1030
0100
01M0
0001
1000
0010
0M10
0001
,
1000
0100
0010
0000
0011
0000
0101
0000
,
0004
0000
0000
0003
0000
1000
1001
0000
,
0001
0010
0120
0000
0130
1000
2001
0000
,
3100
1000
0001
0010
0M10
1000
0001
0100
,
01M0
0000
0010
0000
0001
0000
0000
0000
4000
0400
0000
0000
3300
0000
0010
0000
,
0400
0000
0000
0300
0000
0010
0110
0000
,
0100
0001
1002
0000
1003
0010
0210
0000
,
0301
0010
0100
M100
0001
0010
0100
M100
,
0010
1000
0001
0000
0101
0000
1100
0000
,
0040
0000
0000
0030
0000
0100
0110
0000
,
0010
1000
2001
0000
3001
0010
0210
0000
,
0310
0001
1000
0100
01M0
0001
1000
0010
,
0100
0010
0100
0010
1000
0001
1001
0000
,
1000
0100
1000
0010
1000
0100
01M0
0001
,
0000
0010
0100
0010
0000
0001
1000
0000
,
0001
0010
0001
0100
0001
0010
0M10
1000
,
0000
1000
0100
1000
0000
0001
0010
0000
,
0001
0100
1000
0100
0001
0010
0100
2000
,
0000
0000
3100
0001
0000
0100
0010
0000
,
0004
0003
4000
3000
,
0040
0000
0000
0000
0030
0000
0000
0000
0100
0000
0040
0400
0000
0000
0000
0000
,
0330
1000
0100
0010
0001
0001
0010
0100
,
1000
1000
0100
0010
0001
1000
0001
0000
,
0010
0001
0100
0010
1000
1000
0010
0100
,
0001
0001
0010
0100
1000
0001
1000
0000
,
0100
1000
0001
0100
0010
001M
0100
1000
,
0100
M100
0001
0010
0100
0010
0100
0000
,
4000
0000
0000
3000
0004
0000
0000
0003
,
0400
0040
0000
0000
0000
0000
0000
0000
0000
0000
0000
0000
0330
0000
0000
0000
,
0004
0000
0000
0003
0000
0100
0110
0000
,
1000
0010
1020
0000
0130
0001
0201
0000
,
0310
1000
0100
01M0
0001
0010
0100
01M0
,
1000
0100
0110
0000
0001
0010
0110
0000
,
4004
0000
0000
3003
MMMM
0000
1100
0000
,
0010
0001
0101
0000
0001
0100
0010
001M
,
0100
1000
0010
M010
0100
0001
1000
0000
,
0040
0400
0000
0000
0330
0000
0001
0000
4000
0000
0000
0000
0000
0000
3000
0000
,
0000
0100
0110
0000
0001
0100
1020
0000
,
1030
0100
0021
0000
0031
0010
0100
M100
,
0001
0000
0010
0000
0100
0000
M100
0000
0001
0000
4000
0040
0000
0000
3030
0000
,
0004
0040
0000
0000
0033
0000
0000
0000
4000
0000
0000
0000
0000
0000
3000
0000
,
0000
0100
0110
0000
0001
0010
1200
0000
,
1300
0010
0201
0000
0301
0010
0100
1000
,
0010
0100
0001
1000
0100
0010
0100
0010
,
0001
1000
1001
0000
0000
0001
0100
01M0
,
1000
0000
0220
0000
0330
1000
0010
0M10
,
0001
1000
0001
1000
0000
1000
0100
01M0
,
0001
0000
2002
0000
3003
0001
0010
0M10
,
1000
0100
0010
0100
0000
0010
0001
0M01
,
0010
0000
2020
0000
3030
0010
1000
1M00
,
0010
0001
0010
0000
0220
0000
0330
2200
,
0000
3300
2002
3003
0202
0000
0000
0000
,
0000
0000
0000
0000
,
0000
0000
0303
0000
;
