#TITLE:蟲の棲む処;
#SUBTITLE:;
#ARTIST:かめりあ feat. Nana Takahashi;
#TITLETRANSLIT:Mushi no sumu sho;
#SUBTITLETRANSLIT:;
#ARTISTTRANSLIT:Camellia feat. Nana Takahashi;
#GENRE:;
#CREDIT:;
#BANNER:[Round 1] - Mushi no sumu sho.png;
#BACKGROUND:[Round 1] - Mushi no sumu sho-bg.png;
#LYRICSPATH:;
#CDTITLE:;
#MUSIC:[Round 1] - Mushi no sumu sho.ogg;
#OFFSET:-5.545999;
#SAMPLESTART:46.734108;
#SAMPLELENGTH:15.000004;
#SELECTABLE:YES;
#BPMS:0.000000=161.500000
,32.000000=80.750000
,35.500000=161.500000
,67.500000=80.750000
,87.500000=161.500000
,127.500000=80.750000
,131.500000=161.500000
,147.500000=80.750000
,155.500000=161.500000
;
#STOPS:35.500000=0.186000,
60.000000=0.186000,
179.500000=0.186000
;
#BGCHANGES:;
#KEYSOUNDS:;
#ATTACKS:;

//---------------dance-single - ----------------
#NOTES:
     dance-single:
     :
     Hard:
     9:
     0.628419,0.742096,0.483793,0.394202,0.492752,393.000000,54.000000,44.000000,0.000000,0.000000,0.000000,0.628419,0.742096,0.483793,0.394202,0.492752,393.000000,54.000000,44.000000,0.000000,0.000000,0.000000:
// measure 0
0000
0000
0000
0000
,  // measure 1
0000
0000
0000
0000
,  // measure 2
0000
0000
0000
0000
,  // measure 3
0000
0000
0000
0000
,  // measure 4
2002
3003
0000
0000
,  // measure 5
0000
0000
0000
0000
,  // measure 6
0220
0000
0000
0000
0330
0000
0000
0000
0000
0000
0000
0000
0000
1010
0000
0000
,  // measure 7
0101
0000
0000
1100
0000
0000
1000
0010
0100
0001
0010
0100
,  // measure 8
2000
3020
0230
0302
0023
2030
3020
0031
,  // measure 9
2001
0000
0000
0000
0000
0000
0000
0000
0000
0000
0000
0000
3010
0000
0000
0000
0100
0000
0000
0000
0010
0000
0000
0000
1000
0000
0000
0100
0000
0000
1000
0000
0000
0100
0000
0000
0010
0000
0000
0000
0000
0000
0000
0000
0000
0010
0000
0000
,  // measure 10
0001
0000
0001
0010
0000
0000
0100
0000
1000
0000
0001
0000
1000
0000
0000
1000
,  // measure 11
0020
0000
0000
0000
0000
0000
0000
0000
0000
0000
0000
0000
1030
0000
0000
0000
0100
0000
0000
0000
1000
0000
0000
0000
0001
0000
0000
0100
0000
0000
0010
0000
0000
1000
0000
0000
0200
0000
0000
0000
0000
0000
0000
0000
0000
0000
0000
0000
,  // measure 12
1300
0000
1000
0000
0010
0000
0100
0000
0001
0000
0010
0001
0000
0001
0100
0000
,  // measure 13
0120
0000
0000
0000
0000
0000
0000
0000
0000
0000
0000
0000
1030
0000
0000
0000
0001
0000
0000
0000
1000
0000
0000
0000
0100
0000
0000
0010
0000
0000
0100
0000
0000
1000
0000
0000
0001
0000
0000
0000
0000
0000
0000
0000
0000
0001
0000
0000
,  // measure 14
0100
0000
0100
0010
0000
0000
1000
0000
0100
0000
0010
0000
0001
0000
0000
0001
,  // measure 15
1000
0000
1001
0000
0000
0000
0001
0010
0100
1000
0002
0000
0000
0000
0103
0000
,  // measure 16
0100
0000
0010
0000
1000
0000
0100
0000
1000
0100
0000
0100
0010
0000
0110
0000
,  // measure 17
0000
1000
0100
0100
0010
0010
0001
0000
0000
1000
0010
0010
0100
0100
0002
0000
,  // measure 18
0000
1003
2000
0000
0000
0000
3000
0000
0000
0000
0001
0000
2000
3020
0130
0000
,  // measure 19
0000
0001
0100
0010
0100
0010
1000
0000
0000
0001
0010
0100
0010
0100
2000
0000
,  // measure 20
0000
3001
0002
0000
0000
0103
0200
0000
0000
0310
0020
0000
0030
0000
0220
0000
,  // measure 21
0300
0000
2000
0000
0030
0000
0200
0000
0000
0000
3300
0000
1000
0001
1002
0000
,  // measure 22
0000
0000
0013
0000
0100
0010
0100
0000
1000
0000
0010
0000
0000
0000
1000
0000
,  // measure 23
0001
0010
0001
0100
0010
2000
0000
3001
,  // measure 24
1000
0000
0100
0000
0010
0100
0010
0000
0001
0000
0100
0000
0000
0000
0001
0000
,  // measure 25
0000
0000
0011
0000
0000
0000
1010
0000
0000
0000
1000
0000
0001
0010
0200
0000
,  // measure 26
0000
0000
0310
0000
0001
0100
0001
0000
1000
0000
0010
0000
0000
0000
1000
0000
,  // measure 27
0001
0000
0010
0000
0100
0000
0010
0001
0000
0001
1000
0010
1000
0010
0100
0000
,  // measure 28
0000
0000
0101
0000
0001
0010
0000
0000
0100
0000
1100
0000
1000
0010
0100
0000
,  // measure 29
0000
0100
0001
0000
1000
0000
0001
0010
0100
0000
1000
0010
0100
0001
0010
0000
,  // measure 30
0100
0010
0001
0100
0010
0001
0010
0100
,  // measure 31
0001
1000
0100
0001
0100
1000
0010
0200
,  // measure 32
0301
0000
0010
0000
0001
0000
1000
0010
2000
0000
0000
0000
3100
0000
0100
0000
0010
0000
0100
0000
1000
0000
0001
0100
0000
0001
0100
0000
0010
0000
0000
0000
,  // measure 33
1000
0100
0001
0100
1000
0010
0100
0001
,  // measure 34
0010
0000
1000
0000
0010
0000
0001
0000
0100
0010
0000
0010
0100
0000
0101
0000
,  // measure 35
0000
0011
0000
0000
1001
0000
1010
0000
0000
1100
0000
0000
1001
0000
0101
0000
,  // measure 36
0000
0011
0000
0000
0110
0000
0200
0000
0000
0000
0310
0000
0000
0000
2100
0000
,  // measure 37
0010
0001
3010
0102
0010
1000
0013
1200
,  // measure 38
0010
0000
0000
0000
0001
0000
0000
0000
0010
0000
0000
0000
1000
0000
0000
0000
0010
0000
0000
0000
1300
0000
1000
0100
0010
0000
0000
0000
1001
0000
0000
0000
,  // measure 39
1000
0000
0010
0000
0100
0000
0001
0010
0001
0010
0001
0000
0100
0000
0010
0000
,  // measure 40
1000
0100
1000
0000
0001
0000
0100
0000
0010
0000
1000
0000
0001
0000
1001
0000
,  // measure 41
1000
0000
0100
0000
0001
0000
0100
0010
0100
0010
0100
0000
1000
0000
0001
0100
,  // measure 42
0010
0100
0001
0000
1000
0000
0100
0010
0001
0010
0100
0000
0010
0000
0011
0000
,  // measure 43
0001
0000
1000
0000
0010
0000
0100
0001
0100
0001
0100
0000
0010
0000
1000
0000
,  // measure 44
0100
0010
0100
0000
1000
0000
0010
0000
0001
0000
0010
0000
1000
0000
0100
0000
,  // measure 45
0110
0000
0010
0000
0001
0100
0001
0100
0001
0000
1000
0000
0010
0100
0001
0010
,  // measure 46
0100
0000
1000
0000
0010
1000
0100
1000
0001
0100
0010
0000
1010
0000
0000
0011
,  // measure 47
0000
0000
1100
0000
0000
0101
0000
0000
2002
0000
3003
0000
1100
0000
0000
0101
,  // measure 48
0000
0000
1010
0000
1000
0000
0001
0010
0000
0100
1000
0000
0101
0000
0000
1010
,  // measure 49
0000
0000
1100
0000
0000
0011
0000
0000
0220
0000
0330
0000
1100
0000
0000
1010
,  // measure 50
0000
0000
0101
0000
0001
1000
0001
0000
0011
0000
0000
0101
0000
0000
1010
0000
,  // measure 51
1000
0001
1000
0000
1100
0000
0000
0101
0000
0000
0011
0000
0001
1000
0000
0220
,  // measure 52
0000
0000
0000
0000
0000
0000
0000
0000
0000
0000
0000
0000
0000
0030
0000
0000
,  // measure 53
0000
0002
0000
0000
0000
0000
0000
0000
,  // measure 54
0000
0000
0000
0000
,  // measure 55
0000
0000
0000
0000
,  // measure 56
0000
0000
0000
0000
,  // measure 57
0000
0303
0000
0000
0000
0000
0000
0000
;

//---------------dance-single - ----------------
#NOTES:
     dance-single:
     :
     Beginner:
     1:
     0.143346,0.232657,0.188142,0.098550,0.004480,80.000000,21.000000,11.000000,0.000000,0.000000,0.000000,0.143346,0.232657,0.188142,0.098550,0.004480,80.000000,21.000000,11.000000,0.000000,0.000000,0.000000:
0000
0000
0000
0000
,
0000
0000
0000
0000
,
0000
0000
0000
0000
,
0000
0000
0000
0000
,
2002
3003
0000
0000
,
0000
0000
0000
0000
,
2002
3003
0000
0000
,
1001
0000
1000
1000
,
2000
0000
0000
0000
0000
0000
0000
3000
,
1000
0000
0000
0000
,
0001
0000
0000
0000
,
0100
0000
0000
0000
,
0010
0000
0010
0000
,
0100
0000
0000
0000
,
0001
0000
0000
0000
,
1000
0000
0000
0000
0000
0000
0000
0100
,
0000
0000
0000
0100
0000
0000
0000
0100
,
0000
0000
0000
0000
,
0000
0000
0000
0000
0000
0000
0020
0030
,
0000
0000
0000
0000
,
0000
0000
0000
0000
0000
0000
0000
1001
,
0000
0000
0000
0000
0000
0000
0000
1000
,
0000
0000
0000
1000
0000
0000
0000
0100
,
0000
0000
0000
0100
0000
0000
0000
0010
,
0000
0000
0000
0010
0000
0000
0000
0001
,
0000
0001
0000
0001
0000
0000
0000
1000
,
0000
0000
0000
0010
0000
0000
0000
0100
,
0000
0000
0000
0001
0000
0000
0000
1001
,
0000
0000
0000
0110
0000
0000
0000
1001
,
0000
0000
0000
1000
0000
1000
0000
1000
,
0000
0000
0000
0010
0000
0000
0000
0100
,
0000
0000
0000
0010
0000
0000
0000
1000
,
0000
0000
0000
0001
0000
0000
0000
1000
,
0000
0000
0000
0010
0000
0000
0000
0100
,
0000
0000
0000
0001
0000
0000
0000
1001
,
0000
0000
0000
0110
0000
0000
0000
1001
,
0000
0000
0000
0110
0000
0000
0000
1001
,
0000
0000
0000
1001
0000
0000
0000
1001
,
0000
0000
0000
0000
0000
0000
0000
2000
,
0000
3000
0000
1000
0000
0000
0000
0020
,
0000
0030
0000
0010
0000
0000
0000
0200
,
0000
0300
0000
0100
0000
0000
0000
0001
,
0000
0001
0000
0001
0000
0001
0000
0002
,
0000
0003
0000
0001
0000
0000
0000
0200
,
0000
0300
0000
0100
0000
0000
0000
0010
,
0000
0010
0000
1000
,
1000
1000
0000
1001
,
0000
0000
0000
0110
,
0000
0000
0000
1001
,
0000
0000
0000
1001
,
0000
0000
0110
0000
,
0000
0000
0000
0000
1001
0000
0000
0000
0000
0000
0000
0000
0000
0000
0000
1001
;

//---------------dance-single - ----------------
#NOTES:
     dance-single:
     :
     Easy:
     3:
     0.317409,0.435022,0.331488,0.304610,0.004480,177.000000,37.000000,34.000000,0.000000,0.000000,0.000000,0.317409,0.435022,0.331488,0.304610,0.004480,177.000000,37.000000,34.000000,0.000000,0.000000,0.000000:
// measure 0
0000
0000
0000
0000
,  // measure 1
0000
0000
0000
0000
,  // measure 2
0000
0000
0000
0000
,  // measure 3
0000
0000
0000
0000
,  // measure 4
2002
3003
0000
0000
,  // measure 5
0000
0000
0000
0000
,  // measure 6
0220
0330
0000
0000
,  // measure 7
1100
1100
0011
0011
,  // measure 8
2002
0000
0000
0000
0000
0000
0000
3003
,  // measure 9
2001
3010
0100
0100
,  // measure 10
0001
0001
0010
0100
,  // measure 11
1002
0013
0100
0100
,  // measure 12
1000
1000
0010
0100
,  // measure 13
0210
0301
1000
1000
,  // measure 14
0100
0010
0001
0001
,  // measure 15
1000
1001
0000
0100
0000
0010
0000
1000
,  // measure 16
0000
1000
0000
0100
0000
0010
0000
1001
,  // measure 17
0000
1000
0100
1000
0000
0001
0100
0002
,  // measure 18
0000
0023
0000
0030
0000
0001
2000
3001
,  // measure 19
0000
1000
0010
1000
0000
0001
0010
0002
,  // measure 20
0000
2003
0000
3020
0000
0130
0000
2001
,  // measure 21
0000
0010
0000
0200
0000
3300
0001
2001
,  // measure 22
0000
3010
0000
0100
0000
0010
0000
1000
,  // measure 23
0000
1000
0000
0100
0000
0010
0000
0001
,  // measure 24
0000
0100
0000
0010
0000
0100
0000
0001
,  // measure 25
0000
0011
0000
1010
0000
1000
0000
1002
,  // measure 26
0000
0013
0000
0100
0000
0010
0000
0001
,  // measure 27
0000
0001
0000
1000
0000
0001
0000
0100
,  // measure 28
0000
0000
0010
0000
0000
0100
0000
0001
,  // measure 29
0000
1000
0000
0001
0000
1000
0000
0010
,  // measure 30
0000
0100
0000
0001
0000
0010
0000
0100
,  // measure 31
0000
1000
0000
0001
0000
1000
0000
0020
,  // measure 32
0000
1030
0000
0200
0000
0301
0001
1000
,  // measure 33
0000
0010
0000
0100
0000
0001
0000
0010
,  // measure 34
0000
0100
0000
1000
0000
0001
0000
1001
,  // measure 35
0000
0000
0000
0110
0000
0000
0000
1001
,  // measure 36
0000
0000
0000
2000
0000
3001
0000
0220
,  // measure 37
0000
0330
0000
2002
0000
3003
0000
0220
,  // measure 38
0000
0000
0000
0000
0000
0000
0330
2001
,  // measure 39
0000
3010
0000
0100
0000
0100
0000
0001
,  // measure 40
0000
0100
0000
0010
1000
0010
0000
1000
,  // measure 41
0000
0100
0000
0010
0000
0010
0000
0001
,  // measure 42
0100
0001
0000
1000
0100
1000
0000
0001
,  // measure 43
0000
1000
0000
0010
0000
0100
0000
0001
,  // measure 44
0000
0010
0000
0100
1000
0100
0000
0001
,  // measure 45
1001
0000
1000
0000
0010
0000
0100
0001
,  // measure 46
0100
0000
0010
1000
0010
0000
1010
0000
,  // measure 47
0000
0011
0000
0000
1001
0000
1100
0000
,  // measure 48
0000
0202
0000
0000
0303
0000
0011
0000
,  // measure 49
0000
1100
0000
0000
1001
0000
0110
0000
,  // measure 50
0000
1000
1001
0000
,  // measure 51
0010
0000
0000
0000
0110
0000
0000
0000
0000
0000
0000
0000
1000
0000
0000
2002
,  // measure 52
0000
0000
0000
0000
0000
0000
0000
0000
0000
0000
0000
0000
0000
0003
0000
0000
,  // measure 53
0000
0020
0000
0000
0000
0000
0000
0000
,  // measure 54
0000
0000
0000
0000
,  // measure 55
0000
0000
0000
0000
,  // measure 56
0000
0000
0000
0000
,  // measure 57
0000
3030
0000
0000
0000
0000
0000
0000
;

//---------------dance-single - ----------------
#NOTES:
     dance-single:
     :
     Medium:
     6:
     0.453076,0.639738,0.250856,0.331488,0.170223,289.000000,28.000000,37.000000,0.000000,0.000000,0.000000,0.453076,0.639738,0.250856,0.331488,0.170223,289.000000,28.000000,37.000000,0.000000,0.000000,0.000000:
// measure 0
0000
0000
0000
0000
,  // measure 1
0000
0000
0000
0000
,  // measure 2
0000
0000
0000
0000
,  // measure 3
0000
0000
0000
0000
,  // measure 4
2002
3003
0000
0000
,  // measure 5
0000
0000
0000
0000
,  // measure 6
0220
0000
0000
0000
0330
0000
0000
0000
0000
0000
0000
0000
0000
1000
0000
0000
,  // measure 7
1001
0011
1010
1001
,  // measure 8
0220
0000
0000
0000
0000
0000
0000
0330
,  // measure 9
2100
0000
3010
0100
0001
0100
0010
0000
,  // measure 10
1000
0000
0000
1000
0000
0000
0100
0000
0010
0000
0001
0000
0010
0000
0000
0010
,  // measure 11
0002
0000
1003
0010
0100
0010
1000
0000
,  // measure 12
0001
0010
0001
0010
0100
0010
0100
1000
,  // measure 13
0002
0000
0103
0010
0100
0001
0100
0000
,  // measure 14
0001
0000
0000
0001
0000
0000
0100
0000
0010
0000
1000
0000
0010
0000
0000
0010
,  // measure 15
0100
0110
0000
1000
0100
2000
0000
3001
,  // measure 16
0010
0001
0100
0010
1000
0100
0010
0110
,  // measure 17
0000
1000
0100
0000
0100
0000
0010
0000
0000
0001
0100
0000
0100
0000
0020
0000
,  // measure 18
0000
0130
0200
0000
0000
0000
0300
0000
0000
0000
0001
0000
2000
3002
0103
0000
,  // measure 19
0000
0100
0001
0000
0001
0000
1000
0000
0000
0100
1000
0000
1000
0000
0002
0000
,  // measure 20
0000
0013
0020
0000
0000
0130
0200
0000
0000
1300
2000
0000
3000
0000
2002
0000
,  // measure 21
3000
0000
0020
0000
0030
0000
0200
0000
0000
0000
0303
0000
0001
1000
1002
0000
,  // measure 22
0000
0013
0100
0010
0100
1000
0000
1010
,  // measure 23
0000
0101
0000
1000
0000
0002
0000
0013
,  // measure 24
0000
0001
0100
0010
0100
0001
0000
0010
,  // measure 25
0000
0011
0000
1010
0000
1000
0010
0200
,  // measure 26
0000
0310
1000
0100
0010
0001
0000
0011
,  // measure 27
0000
1100
0000
0001
0000
0001
0010
0100
,  // measure 28
0000
0000
1000
0000
0010
0100
0000
0000
0010
0000
1000
0000
0000
0000
0100
0000
,  // measure 29
0000
0100
1000
0000
0000
1000
0001
0000
0010
0000
0100
0000
1000
0000
0001
0000
,  // measure 30
0100
0001
0010
0100
1000
0100
0010
0001
,  // measure 31
0100
0010
1000
0100
1000
0010
0100
0002
,  // measure 32
1003
0100
1000
0100
2000
0000
3002
0000
0103
0010
0100
0010
0100
0001
1000
0000
,  // measure 33
0100
1000
0010
0100
0001
0100
0010
1000
,  // measure 34
0100
0000
0010
0000
0001
0000
1000
0000
0000
1000
0000
0000
0001
0000
0100
0000
,  // measure 35
0000
0100
0000
0000
0010
0000
1000
0000
0000
1000
0000
0000
0100
0000
0010
0000
,  // measure 36
0000
0010
0000
0000
0001
0000
2000
0000
0000
0000
3010
0000
0000
0000
0022
0000
,  // measure 37
0000
0000
0033
2020
0000
0000
3030
2001
,  // measure 38
0001
0000
0001
0000
0001
0000
0001
0000
0001
0000
3001
1000
0010
0000
0110
0000
,  // measure 39
0000
1000
0100
0010
0100
1000
0000
0001
,  // measure 40
0100
0001
0000
1000
0010
1000
0000
1001
,  // measure 41
0000
0001
0100
0010
0100
0001
0000
1000
,  // measure 42
0100
1000
0010
0100
0001
0010
0000
1001
,  // measure 43
0000
0100
0010
0001
0010
0100
0000
1000
,  // measure 44
0010
1000
0000
0001
0010
0001
0000
1000
,  // measure 45
1001
0000
0001
0100
0001
0000
1000
0100
,  // measure 46
0010
0000
0001
0000
0100
0000
0010
0000
1000
0000
0001
0000
1000
0000
0000
0100
,  // measure 47
0000
0000
0010
0000
0000
0001
0000
0000
1001
0000
0000
0000
0001
0000
0000
0100
,  // measure 48
0000
0000
0010
0000
1000
0000
0000
1000
0000
0000
1000
0000
0001
0000
0000
0100
,  // measure 49
0000
0000
0010
0000
0000
1000
0000
0000
1001
0000
0000
0000
1000
0000
0000
0010
,  // measure 50
0000
0000
0100
0000
0010
0000
0010
0000
1000
0000
0000
0100
0000
0000
0010
0000
,  // measure 51
0100
0000
0100
0000
1000
0000
0000
0001
0000
0000
0010
0000
0001
0000
0000
2002
,  // measure 52
0000
0000
0000
0000
0000
0000
0000
0000
0000
0000
0000
0000
0000
0003
0000
0000
,  // measure 53
0000
0020
0000
0000
0000
0000
0000
0000
,  // measure 54
0000
0000
0000
0000
,  // measure 55
0000
0000
0000
0000
,  // measure 56
0000
0000
0000
0000
,  // measure 57
0000
3030
0000
0000
0000
0000
0000
0000
;
