#TITLE:Misery Business;
#SUBTITLE:;
#ARTIST:Paramore;
#TITLETRANSLIT:;
#SUBTITLETRANSLIT:;
#ARTISTTRANSLIT:;
#GENRE:;
#CREDIT:mf32892;
#BANNER:[Round 1] - Misery Business-bn.png;
#BACKGROUND:[Round 1] - Misery Business-bg.png;
#LYRICSPATH:;
#CDTITLE:cdtitle.png;
#MUSIC:Misery Business.ogg;
#OFFSET:0.890909;
#SAMPLESTART:89.250000;
#SAMPLELENGTH:12.000000;
#SELECTABLE:YES;
#BPMS:0.000000=172.951004
;
#STOPS:106.000000=0.347000,
169.000000=0.347000,
184.000000=0.347000,
255.000000=0.347000,
318.000000=0.347000,
334.000000=0.173000
;
#BGCHANGES:;
#KEYSOUNDS:;
#ATTACKS:;

//---------------dance-single - ----------------
#NOTES:
     dance-single:
     :
     Hard:
     9:
     0.671994,0.599583,0.234793,0.040482,0.089059,547.000000,29.000000,5.000000,0.000000,0.000000,0.000000,0.671994,0.599583,0.234793,0.040482,0.089059,547.000000,29.000000,5.000000,0.000000,0.000000,0.000000:
0000
0000
0000
0000
,
0000
0000
0000
0000
,
0000
0000
0000
0000
,
0000
0000
0000
0000
,
0000
0000
0000
0000
,
1000
0100
0000
0100
1000
0010
0100
0010
,
1000
0100
0000
0100
0010
0100
0000
0010
,
0001
0100
0000
0100
0010
0100
0001
0010
,
0001
0100
0010
1000
0100
0010
0001
0000
,
1000
0001
0100
0001
1000
0100
0010
0002
,
0000
1003
0100
1000
0001
0100
0010
1000
,
0001
0010
0100
0010
0001
1000
0001
0100
,
0010
0100
0010
0100
1000
0100
0001
0100
,
0010
0000
0000
0000
1000
0000
0001
0100
0001
0000
0010
0000
0100
0000
1000
0000
,
0000
0000
0001
0000
0100
0000
0001
0000
1000
0000
0000
0100
0000
0000
0010
0000
,
0000
0000
0001
0000
0000
0000
1000
0001
1000
0000
0100
0000
0001
0000
0100
0000
,
0000
0010
0001
0100
1000
0100
0001
0000
,
1000
0010
0100
0010
1000
0001
0000
0001
,
0010
0001
0100
0010
1000
0001
0000
0010
,
0100
1000
0001
1000
0010
0100
0000
0100
,
1000
0100
0001
0100
0010
0100
0010
0100
,
0010
0010
1000
0001
1000
0100
0000
0100
,
0010
0001
1000
0001
0100
0010
0000
0010
,
0001
0010
1000
0010
0100
0001
0000
1000
,
0100
0010
0001
1000
0010
0100
0001
0000
,
1000
0100
1000
0100
1000
0100
1000
0100
,
0010
0000
0001
0000
1000
0001
1000
0001
0100
0000
0000
0000
0010
0000
0000
0000
,
1002
0000
0103
0010
1000
0001
1000
0100
,
0010
0100
0000
0100
0010
0001
0100
0000
,
1100
0000
0010
0001
1000
0010
0001
0010
,
1000
0001
0100
1000
0000
0100
0010
0000
,
2001
0000
3100
0010
0001
1000
0001
0100
,
0010
0100
0001
0100
1000
0100
0000
0001
,
0100
0000
0010
1000
0001
0010
1000
0010
,
0001
1000
0100
0001
0100
1000
0001
0000
,
0001
0011
0011
1000
,
1000
0000
0010
1000
0010
1000
0100
0000
,
0100
1100
1100
0010
,
0010
0000
0001
0010
1000
0010
0001
0000
,
0011
1000
1010
0001
,
0101
0000
0001
0100
1000
0100
0001
0000
,
0101
0000
1000
0000
1100
0000
0001
0010
,
0100
0000
1001
0000
0001
0100
0000
0100
,
0010
0100
0001
0010
0001
0100
0000
0100
,
0010
0100
0000
0010
1000
0100
0000
0100
,
0010
0000
0100
0000
1000
0000
0010
0000
1000
0000
0000
0100
0000
0000
0010
0000
,
1001
0000
0110
0000
0001
0100
0010
0100
,
0001
1000
0100
0010
0100
0010
0001
0100
,
0010
0100
0001
0000
1000
0010
0100
0010
,
0100
0010
1000
0100
0010
0001
1000
0100
,
0001
0000
0100
0000
1000
0000
0000
0000
0001
0000
1000
0001
1000
0000
0100
0000
,
0010
0000
0001
0000
0000
0000
1000
0000
0001
0000
0000
0100
0001
0000
0000
0010
,
0100
1000
0001
0000
1000
0100
0010
0001
,
0100
0000
0010
0000
1000
0000
0000
0100
0000
0000
0100
0000
0010
0000
0000
0001
,
0000
0000
1000
0000
0000
0000
0010
0000
0100
0000
0010
1000
0001
0000
0001
0000
,
1000
0000
1000
0000
0001
0000
0010
0000
0100
0000
1000
0000
0001
0000
0000
0100
,
0000
1000
0000
0100
0010
0100
0001
0001
,
1000
0000
1000
0000
0100
0000
0000
0010
0100
0000
0010
0000
0001
0000
0000
0000
,
1000
0010
0000
0100
0001
0100
0010
1000
,
0100
0010
0001
0010
0100
0010
0001
0010
,
1000
0000
0000
0000
0010
0000
0001
0000
1000
0000
0001
0000
0100
0000
0000
0010
,
0000
0000
1000
0000
0100
0000
0000
0010
0000
0000
0001
0000
1002
0000
0000
0000
,
0103
0000
0010
1000
0010
1000
0100
1000
,
0100
0000
0010
0000
0001
0000
1000
0000
0001
0010
0100
1000
0001
0000
0000
0000
,
0010
0000
1002
0000
0103
0010
1000
0001
,
1000
0100
0010
0100
0000
0100
0010
0001
,
0100
0000
1100
0000
0010
0001
1000
0010
,
0001
0010
1000
0001
0100
1000
0000
0100
,
0010
0000
2001
0000
3100
0010
0001
1000
,
0001
0100
0010
0100
0001
0100
1000
0100
,
0000
0001
0100
0000
0010
1000
0001
0010
,
1000
0010
0001
1000
0100
0001
0100
1000
,
0001
0001
0011
0011
,
1000
0000
1000
0000
0010
1000
0010
1000
,
0100
0100
1100
1100
,
0010
0000
0010
0000
0001
0010
1000
0010
,
0001
0011
1000
1010
,
0001
0000
0101
0000
0001
0100
1000
0100
,
0001
0101
1000
1100
,
0001
0010
0100
0000
1001
0000
1000
0100
,
0000
0100
0001
0100
1000
0100
0010
0001
,
0000
0001
1000
0010
0000
0100
0001
0100
,
0000
0100
1000
0100
0001
0100
0010
1000
,
0100
0000
0010
0000
0001
1000
0001
1000
0001
0000
1000
0000
0100
0000
0000
0000
,
0100
0001
0100
1000
0100
0010
0001
0000
,
0001
0100
0010
0000
0100
0001
0100
0000
,
0100
0000
1000
0000
0100
0000
0001
0000
0100
0000
0010
0000
0000
1000
0000
0000
,
0100
1000
0001
0000
0000
0000
0000
0000
0000
0000
0000
0000
0000
0000
0000
0000
;

//---------------dance-single - ----------------
#NOTES:
     dance-single:
     :
     Medium:
     7:
     0.550549,0.493774,0.275275,0.048578,0.008096,436.000000,34.000000,6.000000,0.000000,0.000000,0.000000,0.550549,0.493774,0.275275,0.048578,0.008096,436.000000,34.000000,6.000000,0.000000,0.000000,0.000000:
// measure 0
0000
0000
0000
0000
,  // measure 1
0000
0000
0000
0000
,  // measure 2
0000
0000
0000
0000
,  // measure 3
0000
0000
0000
0000
,  // measure 4
0000
0000
0000
0000
,  // measure 5
0001
0100
0000
0001
0010
0000
0100
0000
,  // measure 6
1000
0100
0000
0100
0010
0001
0000
0000
,  // measure 7
1000
0010
0000
0100
0010
0000
1000
0000
,  // measure 8
0001
0000
0010
0000
0100
1000
0100
0000
,  // measure 9
1000
0000
1000
0000
0001
0100
0010
0000
,  // measure 10
0100
0000
0100
0000
0010
1000
0100
0010
,  // measure 11
0001
0000
0001
0000
0100
0010
1000
0000
,  // measure 12
0100
0000
0100
0000
0010
0001
0100
0010
,  // measure 13
1000
0000
1000
0000
0001
1000
0100
0000
,  // measure 14
0010
0000
0010
0000
0200
0010
0000
1300
,  // measure 15
0010
0000
0010
0000
0100
0010
1000
0000
,  // measure 16
0001
0000
0001
0000
0010
0001
0100
0000
,  // measure 17
0010
0000
0110
0000
1000
0001
0000
1000
,  // measure 18
0100
0000
0110
0000
0001
1000
0000
0001
,  // measure 19
0100
0000
0110
0000
1000
0001
0000
0100
,  // measure 20
0010
0000
1010
0000
0001
1000
0001
1000
,  // measure 21
0001
0000
0011
0000
1000
0001
0000
0100
,  // measure 22
0010
0000
1010
0000
0001
1000
0000
0100
,  // measure 23
0010
0000
0011
0000
0001
1000
0000
0001
,  // measure 24
0100
0010
0100
0000
0010
1000
0001
0000
,  // measure 25
1000
0001
1000
0001
1000
0001
1000
0000
,  // measure 26
0100
0010
0100
0010
0001
0000
1000
0000
,  // measure 27
2001
0000
3010
0100
0001
0000
0010
0100
,  // measure 28
0010
0100
0100
1000
,  // measure 29
1001
0000
0010
0100
1000
0000
0010
0100
,  // measure 30
0010
0000
1000
0010
0000
1000
0100
0000
,  // measure 31
0120
0000
0031
1000
0100
0000
0010
0100
,  // measure 32
0010
0000
0001
0100
0010
0000
0100
0000
,  // measure 33
0110
0000
0010
1000
0001
0000
0010
0100
,  // measure 34
0010
0000
0100
1000
0100
1000
0001
0000
,  // measure 35
0001
0100
0100
0010
,  // measure 36
0010
0000
1000
0001
1000
0001
0100
0000
,  // measure 37
0100
0010
0010
1000
,  // measure 38
1000
0000
0100
0010
0100
0010
0001
0000
,  // measure 39
0011
0001
0011
1000
,  // measure 40
1010
0000
1000
0010
1000
0010
0100
0000
,  // measure 41
0101
0100
0101
0010
,  // measure 42
1000
0000
1001
0000
1000
0010
0000
1000
,  // measure 43
0100
0000
0010
0000
0001
0010
0000
0010
,  // measure 44
0100
1000
0000
0000
0001
0100
0000
0010
,  // measure 45
0100
0000
0000
0000
0001
0000
0000
0000
1000
0000
0000
0100
0000
0000
0010
0000
,  // measure 46
0001
0000
1000
0000
1000
0000
0001
0010
,  // measure 47
0100
0000
0010
0000
0010
0000
0100
1000
,  // measure 48
0010
0100
0001
0000
0001
0000
0010
0100
,  // measure 49
1000
0000
0010
0000
0010
0000
0100
0001
,  // measure 50
0010
0100
1000
0000
1000
0000
0001
1000
,  // measure 51
0010
0000
0100
0000
0100
0000
0020
0100
,  // measure 52
0000
1030
0100
0000
0100
0000
0010
0100
,  // measure 53
1000
0000
0001
0000
0001
0000
0100
0001
,  // measure 54
0010
0000
0100
0000
0110
0000
1000
0001
,  // measure 55
0000
1000
0010
0000
0110
0000
0001
1000
,  // measure 56
0000
0001
0010
0000
0110
0000
1000
0001
,  // measure 57
0000
0010
0100
0000
1100
0000
0001
1000
,  // measure 58
0001
0100
0000
0000
0101
0000
1000
0001
,  // measure 59
0000
0010
0100
0000
1100
0000
0001
1000
,  // measure 60
0000
0010
0100
0000
0101
0000
0001
1000
,  // measure 61
0000
0001
0010
0100
0010
0000
0100
1000
,  // measure 62
0001
0000
1000
0001
1000
0001
1000
0001
,  // measure 63
1000
0000
0100
0010
0001
0010
0100
0000
,  // measure 64
0001
0000
1002
0000
0103
0010
1000
0000
,  // measure 65
0100
0010
0100
0000
0010
0000
0010
0000
,  // measure 66
0001
0000
1001
0000
0100
0010
0001
0000
,  // measure 67
0100
0010
0100
0000
0001
0100
0000
0001
,  // measure 68
0010
0000
0210
0000
1300
0001
0010
0000
,  // measure 69
0100
0010
0100
0000
1000
0010
0100
0000
,  // measure 70
0010
0000
0110
0000
0100
0001
1000
0000
,  // measure 71
0100
0010
0100
0000
0010
0001
0010
0001
,  // measure 72
1000
1000
0010
0010
,  // measure 73
0100
0000
0100
0000
0001
1000
0001
1000
,  // measure 74
0100
0100
0010
0010
,  // measure 75
0001
0000
0001
0000
0100
0010
0100
0010
,  // measure 76
1000
1100
1000
1100
,  // measure 77
0001
0000
0101
0000
0001
0010
0001
0010
,  // measure 78
0100
1100
0100
1100
,  // measure 79
0010
0000
0001
0000
1001
0000
1000
0100
,  // measure 80
0000
1000
0001
1000
0001
0000
0100
0010
,  // measure 81
0000
0010
1000
0001
0000
0000
1000
0100
,  // measure 82
0000
0010
0001
0010
0001
0000
0100
0010
,  // measure 83
0000
0100
0001
1000
0001
1000
0100
0000
,  // measure 84
0010
0001
0010
0001
0000
1000
0010
0000
,  // measure 85
0010
0100
0001
0000
0000
1000
0100
0000
,  // measure 86
0010
0000
0001
0000
1000
0000
0001
0000
0000
0000
0100
0000
0000
0010
0000
0000
,  // measure 87
1000
0100
0000
0000
0000
0000
0000
0000
;

//---------------dance-single - ----------------
#NOTES:
     dance-single:
     :
     Easy:
     5:
     0.299564,0.317426,0.040482,0.016193,0.000000,252.000000,5.000000,2.000000,0.000000,0.000000,0.000000,0.299564,0.317426,0.040482,0.016193,0.000000,252.000000,5.000000,2.000000,0.000000,0.000000,0.000000:
// measure 0
0000
0000
0000
0000
,  // measure 1
0000
0000
0000
0000
,  // measure 2
0000
0000
0000
0000
,  // measure 3
0000
0000
0000
0000
,  // measure 4
0000
0000
0000
0000
,  // measure 5
0001
0000
0010
0100
,  // measure 6
1000
0000
1000
0000
,  // measure 7
0010
0000
0010
0100
,  // measure 8
0001
1000
0001
1000
,  // measure 9
0001
0000
1000
0000
,  // measure 10
0001
0010
0100
0000
,  // measure 11
1000
0000
0010
0000
,  // measure 12
1000
0100
0010
0001
,  // measure 13
1000
0000
0001
0000
,  // measure 14
0100
0000
0001
0010
,  // measure 15
1000
0000
0010
0000
,  // measure 16
0001
1000
0001
0000
,  // measure 17
0100
0100
0010
0000
,  // measure 18
1000
0100
0010
0000
,  // measure 19
0001
0001
1000
0000
,  // measure 20
0001
1000
0010
0000
,  // measure 21
0100
0000
0010
0000
,  // measure 22
1000
0100
0010
0000
,  // measure 23
0001
0001
1000
0000
,  // measure 24
1001
0000
0110
0000
,  // measure 25
0001
0010
0001
0010
,  // measure 26
0100
1000
0001
1000
,  // measure 27
0010
0000
0010
0100
,  // measure 28
0000
0100
0010
1000
,  // measure 29
0000
0001
0000
1000
,  // measure 30
0100
0010
0001
1000
,  // measure 31
0010
0000
0010
0100
,  // measure 32
0010
1000
0001
0020
,  // measure 33
0000
0130
0000
1000
,  // measure 34
0100
0010
0001
0100
,  // measure 35
0100
0100
0000
0001
,  // measure 36
0001
0001
1000
0100
,  // measure 37
0100
0100
0000
0010
,  // measure 38
0010
0010
0000
0001
,  // measure 39
0100
0001
0100
0010
,  // measure 40
1000
0010
1000
0001
,  // measure 41
0010
0001
0010
0100
,  // measure 42
1000
0001
0010
0000
,  // measure 43
0010
0001
0100
0000
,  // measure 44
0100
0000
0010
0000
,  // measure 45
0010
1000
0100
0000
,  // measure 46
1001
0001
0000
0010
,  // measure 47
0000
0100
0000
1000
,  // measure 48
0001
0100
0000
0010
,  // measure 49
0000
1000
0000
0001
,  // measure 50
1000
0100
0000
0010
,  // measure 51
0000
0001
0000
1000
,  // measure 52
0001
0100
0000
0001
,  // measure 53
0000
0010
0100
1000
,  // measure 54
0010
1000
0001
0100
,  // measure 55
0000
0100
0010
1000
,  // measure 56
0000
1000
0100
0010
,  // measure 57
0000
0001
0100
0010
,  // measure 58
0100
0001
1000
0100
,  // measure 59
0000
0100
0010
0100
,  // measure 60
0000
1000
0001
0100
,  // measure 61
0000
0010
1000
0001
,  // measure 62
0000
1000
0010
1000
,  // measure 63
0010
0100
0001
1000
,  // measure 64
0001
0010
0000
0010
,  // measure 65
0100
0000
0100
0010
,  // measure 66
0001
0000
1000
0000
,  // measure 67
0001
0100
0010
1000
,  // measure 68
0001
0010
0000
0010
,  // measure 69
0100
0010
0001
1000
,  // measure 70
0020
0000
0130
0000
,  // measure 71
0001
0100
1000
0100
,  // measure 72
0001
0001
0001
0000
,  // measure 73
1000
1000
1000
0100
,  // measure 74
0010
0010
0010
0000
,  // measure 75
0001
0001
0001
0000
,  // measure 76
1000
0010
1000
0010
,  // measure 77
1000
0001
1000
0001
,  // measure 78
0010
0001
0010
0100
,  // measure 79
1000
0001
1001
0001
,  // measure 80
0000
0100
0010
1000
,  // measure 81
0000
0100
0000
0010
,  // measure 82
0000
0001
1000
0010
,  // measure 83
0000
0000
0100
0000
0000
0001
0000
0000
,  // measure 84
0000
1000
0000
0100
0000
1000
0000
0000
,  // measure 85
0000
0010
0000
0000
0000
0100
0000
0000
,  // measure 86
0000
0001
0000
1000
0000
0001
0000
0010
,  // measure 87
0000
0110
0000
0000
0000
0000
0000
0000
;
