#VERSION:0.83;
#TITLE:Kuusou Mesorogiwi;
#SUBTITLE:;
#ARTIST:Yousei Teikoku;
#TITLETRANSLIT:;
#SUBTITLETRANSLIT:;
#ARTISTTRANSLIT:;
#GENRE:;
#ORIGIN:;
#CREDIT:;
#BANNER:Kuusou Mesorogiwi.png;
#BACKGROUND:Kuusou Mesorogiwi-bg.png;
#PREVIEWVID:;
#JACKET:;
#CDIMAGE:;
#DISCIMAGE:;
#LYRICSPATH:;
#CDTITLE:;
#MUSIC:Küsö Mesorogiwi.ogg;
#OFFSET:-0.120000;
#SAMPLESTART:51.695999;
#SAMPLELENGTH:12.000000;
#SELECTABLE:YES;
#BPMS:0.000=232.501,
16.000=200.000,
16.500=160.000,
17.000=120.001,
17.500=110.001,
18.000=100.001,
18.500=90.001,
19.000=100.001,
19.500=105.001,
20.000=115.001,
24.000=230.001,
92.000=115.000,
96.000=230.001,
104.000=115.000,
108.000=230.001,
178.000=115.010,
179.000=57.500,
180.000=230.000,
306.500=115.000;
#STOPS:240.000=0.260,
240.500=0.260;
#DELAYS:;
#WARPS:;
#TIMESIGNATURES:0.000=4=4;
#TICKCOUNTS:0.000=4;
#COMBOS:0.000=1;
#SPEEDS:0.000=1.000=0.000=0;
#SCROLLS:0.000=1.000;
#FAKES:;
#LABELS:0.000=Song Start;
#BGCHANGES:0.000=[Round 1] - Kuusou Mesorogiwi.avi=1.000=1=0=0=StretchNoLoop==CrossFade==,
99999=-nosongbg-=1.000=0=0=0 // don't automatically add -songbackground-
;
#KEYSOUNDS:;
#ATTACKS:
;

//---------------dance-single - ----------------
#NOTEDATA:;
#CHARTNAME:;
#STEPSTYPE:dance-single;
#DESCRIPTION:;
#CHARTSTYLE:;
#DIFFICULTY:Hard;
#METER:9;
#RADARVALUES:0.699624,0.858992,0.535475,0.256582,0.050201,439.000000,391.000000,48.000000,23.000000,1.000000,1.000000,1.000000,0.000000,0.000000,0.699624,0.858992,0.535475,0.256582,0.050201,439.000000,391.000000,48.000000,23.000000,1.000000,1.000000,1.000000,0.000000,0.000000;
#CREDIT:;
#NOTES:
0000
0000
0000
0000
,
0000
0000
0000
0000
,
0000
0000
0000
0000
,
0000
0000
0000
0000
,
4000
0000
0000
3000
,
1001
0000
1000
0010
0200
0302
0023
0230
,
1300
0000
0010
0000
0010
0100
0000
0001
,
0000
0001
0000
1000
0000
0100
0010
0000
,
0001
0100
0010
0000
1000
0010
0000
0010
,
0100
0000
0100
0001
0000
0001
0010
0000
,
0110
0000
0100
0000
1000
0010
0000
0100
,
0000
0001
0000
0010
0000
0100
1000
0000
,
1000
0010
1000
0000
0100
0010
0000
0010
,
0001
0000
0001
1000
0000
1000
0100
0000
,
2100
3001
0102
1003
,
1000
0010
0100
0001
0000
0001
0010
0000
,
0012
1003
2010
3001
,
2002
0000
0000
0000
0000
0000
0000
0000
0000
0000
0000
0000
0000
0000
0000
0000
0000
0000
0000
0000
0000
0000
0000
0000
0000
0000
0000
0000
0000
0000
0000
3003
1001
0000
0000
0000
0000
0000
0000
0000
0000
0000
0000
0000
0000
0000
0000
0000
0000
0000
0000
0000
0000
0000
0000
0000
0000
0000
0000
0000
0000
0000
0000
0000
,
2010
3100
0012
0103
,
0001
0100
0010
1000
0000
1000
0100
0000
,
0010
0001
0100
0000
0010
1000
0100
0000
,
0220
0000
0000
0000
0000
0000
0000
0000
0000
0000
0000
0330
0110
0000
0000
0000
0000
0000
0000
0000
0000
0000
0000
0000
,
0010
0000
0000
0000
0010
0000
0000
0000
0001
1000
0001
1000
0001
1000
0001
1000
,
0002
0000
0010
0000
1003
0001
0100
0001
,
0010
0100
1000
0010
0100
0000
0100
0001
,
0100
0010
1000
0000
0010
1000
0100
0010
,
0200
0000
0001
0000
0310
0100
1000
0100
,
0001
0100
1000
0010
0100
0000
0001
1000
,
0010
1000
0100
0000
0010
0001
1000
0001
,
0100
0010
1000
0100
0001
0100
1000
0010
,
0100
0001
0010
0100
1000
0010
0100
0000
,
0100
0001
0010
0001
0100
1000
0100
0001
,
0010
0100
1000
0001
1001
0000
0000
0000
,
1000
0010
0100
0001
0010
1000
0010
0001
,
0100
0010
1000
0000
1010
0000
0011
0000
,
0000
0001
0100
0010
0000
1000
0100
0010
,
0000
0100
0000
0000
1000
0001
0010
0100
,
1000
0000
0010
1000
0010
0000
0100
0000
,
0001
0010
0100
1000
,
1001
0000
1000
0001
0100
0000
0010
0000
,
0001
0010
1000
0100
,
0010
0000
0001
0100
0010
0000
1000
0000
,
1000
0000
0000
0100
0000
0000
0010
0000
,
0002
0000
0010
0000
1000
0000
0103
0010
,
0100
0000
0000
0000
0220
0000
1001
0330
,
1001
0000
1000
0100
0000
0010
0001
0000
,
0000
0000
1000
0000
0010
0100
0001
0000
,
0011
0000
0001
0100
0000
0010
1000
0000
,
0000
0000
2001
3001
,
1001
0000
0100
0010
0000
1000
0001
0000
,
0100
0000
0001
0010
0100
0000
1010
0000
,
1000
0000
0100
0010
0000
0001
1000
0000
,
0000
0000
1000
0000
0010
0100
0001
0000
,
0011
0000
0001
0010
0000
0100
1000
0000
,
0010
0000
0100
0000
0001
0100
0010
0000
,
1010
0000
1000
0001
0000
0001
0100
0000
,
0010
0000
1000
0000
0100
0010
0100
0010
,
0001
0100
0010
1000
0000
0000
1000
0010
,
0200
0000
0000
0302
0000
0000
0013
0000
,
0200
0000
0010
0000
0001
0000
0010
0300
,
1100
0110
0011
0000
1001
0000
1001
0000
,
1000
0100
0010
0001
0101
0000
0101
0000
,
1100
1100
1001
1001
,
1000
0010
0100
0001
0011
0000
0011
0000
,
1010
1010
1001
1001
,
1000
0010
0100
0001
0011
0000
0101
0000
,
1010
1100
1001
1001
,
1000
0000
0000
0010
0000
0000
0100
0000
0000
0001
0000
0000
0010
0000
0000
0000
0100
0000
0000
0000
1000
0000
0000
0000
,
0010
0000
0000
0000
0100
0000
0000
0000
0001
0000
0000
0000
0010
0000
0000
0100
0000
0000
1000
0000
0000
0010
0000
0000
,
M000
0010
0001
0100
0000
0100
0010
1000
,
0001
0100
0000
0000
0000
0010
1000
0100
,
0010
0001
0100
0010
1000
0010
0100
0010
,
0001
0010
1000
0000
0000
1000
0100
0010
,
0001
0100
0010
0100
0001
0010
1000
0010
,
0001
0100
0000
0000
0000
0100
0001
0100
,
1000
0100
0001
0010
0100
1000
0010
0100
,
0001
0000
0000
0010
0000
0000
0100
0000
0000
1000
0000
0000
0001
0000
0000
1000
0000
0000
1000
0000
0010
0000
0000
0000
,
0010
0000
0000
0000
;

//---------------dance-single - ----------------
#NOTEDATA:;
#CHARTNAME:;
#STEPSTYPE:dance-single;
#DESCRIPTION:;
#CHARTSTYLE:;
#DIFFICULTY:Medium;
#METER:7;
#RADARVALUES:0.509976,0.687193,0.345828,0.245426,0.027889,320.000000,289.000000,31.000000,22.000000,0.000000,0.000000,1.000000,0.000000,0.000000,0.509976,0.687193,0.345828,0.245426,0.027889,320.000000,289.000000,31.000000,22.000000,0.000000,0.000000,1.000000,0.000000,0.000000;
#CREDIT:;
#NOTES:
0000
0000
0000
0000
,
0000
0000
0000
0000
,
0000
0000
0000
0000
,
0000
0000
0000
0000
,
4000
0000
0000
3000
,
0001
0000
1000
0010
0200
0302
0023
0230
,
1300
0000
0010
0000
0000
0100
0000
0001
,
0000
0010
0000
0100
0000
1000
0100
0000
,
0000
0000
0010
0000
0000
0001
0000
0000
,
0100
0000
0000
0010
0000
0000
1000
0000
,
0100
0000
1000
0000
0000
0010
0000
0100
,
0000
0001
0000
0010
0000
0100
1000
0000
,
0010
0000
0100
0000
0000
0001
0000
0000
,
0010
0000
0000
0100
0000
0000
1000
0000
,
0010
0010
0100
0100
,
0001
1000
0000
0001
0000
0000
1000
0000
,
0100
0100
0010
0010
,
0100
0010
0000
0000
0100
0010
0000
0000
,
0001
0001
1000
1000
,
0001
1000
0000
0001
0000
0000
1000
0000
,
0001
0001
1000
1000
,
0001
1000
0000
0000
0001
1000
0000
0000
,
1000
0000
0001
0000
1000
0001
1000
0001
,
2000
0000
3100
0000
1000
0100
1000
0001
,
1000
0010
1000
0001
,
0100
0010
1000
0100
,
2100
0000
3001
0000
1000
0010
1000
0001
,
1000
0100
0010
0100
,
1000
0010
0100
0001
,
0011
0011
1001
1001
,
1000
0100
1000
0100
1000
0000
0010
0000
,
1010
1010
1001
1001
,
0001
0100
0000
0000
0001
0000
0000
0000
,
0101
0101
1100
1100
,
1000
0010
1000
0010
1000
0000
0010
0000
,
1010
1010
0011
0011
,
0000
1001
0000
0000
0110
0000
0000
0000
,
1000
0100
0010
0001
,
1000
0100
0010
0001
,
1000
0001
0100
0010
,
1000
0001
0100
0010
,
1000
0100
0001
0100
,
1000
0010
0001
0010
,
2000
0000
0000
0000
0000
0000
3100
0010
,
0200
0000
0000
0000
0000
0000
0000
0000
0320
0000
0000
0000
0032
0000
2000
3003
,
1001
0000
1000
0001
0000
1000
0001
0000
,
0000
1000
0100
0010
,
0001
0000
0000
0001
0000
0000
0001
0000
,
0000
0000
1001
0000
,
0110
0000
0100
0010
0000
0100
0010
0000
,
0000
0010
1000
0100
,
0020
0000
0000
0032
0000
0000
2003
0000
,
3000
0010
1000
0001
,
0010
0000
0000
0020
0000
0000
0000
0000
,
0030
0000
0001
1000
,
0010
0000
0000
0020
0000
0000
0000
0000
,
0000
0000
0030
0000
,
1000
0010
0100
0001
0000
0000
0001
1000
,
0001
0000
0000
0100
0000
0000
0010
0000
,
1000
0100
0010
0001
,
1001
0110
1001
0000
1000
0000
1000
0000
,
0001
0100
0210
0301
,
0120
1030
0010
0010
,
1000
0100
0120
0031
,
0012
0103
0010
0010
,
1000
0100
0120
0031
,
0102
0013
0001
0001
,
0100
0000
0000
0010
0000
0000
1000
0000
0010
0000
0100
0000
,
0001
0000
0000
0000
1000
0000
0000
0000
0010
0000
0000
0000
0000
0000
0000
0100
0000
0000
0000
0000
0000
0100
0000
0000
,
0000
0001
0000
0001
0000
0010
0000
0010
,
0000
0100
0000
0000
0000
1000
0100
1000
,
0100
1000
0000
0000
0001
0000
0100
0001
,
0000
0100
0001
0000
0000
0010
0000
0001
,
0010
0001
0000
0100
0000
0010
0100
0010
,
0100
0010
0000
0000
0000
1000
0001
1000
,
0001
1000
0000
0100
0010
0100
0010
0100
,
0000
0000
0000
0010
0000
0000
0000
0000
0000
0000
0000
0000
0000
0000
0000
0001
0000
0000
1000
0000
0010
0000
0000
0000
,
0010
0000
0000
0000
;

//---------------dance-single - ----------------
#NOTEDATA:;
#CHARTNAME:;
#STEPSTYPE:dance-single;
#DESCRIPTION:;
#CHARTSTYLE:;
#DIFFICULTY:Beginner;
#METER:3;
#RADARVALUES:0.173711,0.298695,0.022311,0.000000,0.000000,109.000000,107.000000,2.000000,0.000000,0.000000,0.000000,0.000000,0.000000,0.000000,0.173711,0.298695,0.022311,0.000000,0.000000,109.000000,107.000000,2.000000,0.000000,0.000000,0.000000,0.000000,0.000000,0.000000;
#CREDIT:;
#NOTES:
0000
0000
0000
0000
,
0000
0000
0000
0000
,
0000
0000
0000
0000
,
0000
0000
0000
0000
,
1000
0000
0000
0000
,
0001
0000
0001
0000
,
1000
0000
0000
0000
,
0000
0000
0000
0000
,
1000
0000
0000
0000
,
0000
0000
0000
0001
,
0001
0000
0000
0000
,
0000
0000
0000
0000
,
0001
0000
0000
0000
,
0001
0000
0000
0000
,
0100
0000
0100
0000
,
0100
0000
0000
0000
,
0010
0000
0010
0000
,
0010
0000
0010
0000
,
1000
0000
1000
0000
,
1000
0000
0000
0000
,
0001
0000
0001
0000
,
0001
0000
0001
0000
,
0001
0000
0000
0000
,
1001
0000
0000
0000
,
1000
0000
1000
0000
,
0000
0000
0000
0000
,
1001
0000
0000
0000
,
0001
0000
0001
0000
,
0000
0000
0000
0000
,
0100
0000
0000
0000
,
0000
0000
0000
0000
,
0010
0000
0000
0000
,
0000
0000
0000
0000
,
1000
0000
0000
0000
,
1000
0000
0000
0000
,
0001
0000
0000
0000
,
0001
0000
0000
0000
,
1000
0000
1000
0000
,
1000
0000
0000
0000
,
0001
0000
0001
0000
,
0001
0000
0000
0000
,
0100
0000
0100
0000
,
0100
0000
0000
0000
,
0010
0000
0010
0000
,
0010
0000
0010
0010
,
1000
0000
0000
0000
,
0000
0000
0000
0000
,
0001
0000
0000
0001
,
0000
0000
0000
0000
,
0100
0000
0000
0100
,
0000
0000
0000
0000
,
0010
0000
0000
0010
,
0000
0000
0000
0000
,
0100
0000
0000
0000
,
0000
0000
0000
0000
,
0001
0000
0000
0000
,
0000
0000
0000
0000
,
0001
0000
0001
0000
,
1000
0000
1000
0000
,
1000
0000
0000
0000
,
1000
1000
1000
0000
,
1000
0000
1000
0000
,
1000
0000
0100
0000
,
0100
0000
0100
0000
,
0100
0000
0010
0000
,
0010
0000
0010
0000
,
0010
0000
0001
0000
,
0001
0000
0001
0000
,
0001
0000
0001
0001
,
0001
0001
0001
0000
,
0100
0000
0100
0100
,
0100
0100
0100
0000
,
0100
0000
0010
0010
,
0010
0010
0010
0000
,
0010
0000
1000
1000
,
1000
1000
1000
0000
,
0010
0000
0010
0000
;

//---------------dance-double - ----------------
#NOTEDATA:;
#CHARTNAME:;
#STEPSTYPE:dance-double;
#DESCRIPTION:;
#CHARTSTYLE:;
#DIFFICULTY:Easy;
#METER:6;
#RADARVALUES:0.406387,0.515395,0.189647,0.200803,0.027889,255.000000,238.000000,17.000000,18.000000,0.000000,0.000000,0.000000,0.000000,0.000000,0.406387,0.515395,0.189647,0.200803,0.027889,255.000000,238.000000,17.000000,18.000000,0.000000,0.000000,0.000000,0.000000,0.000000;
#CREDIT:;
#NOTES:
00000000
00000000
00000000
00000000
,
00000000
00000000
00000000
00000000
,
00000000
00000000
00000000
00000000
,
00000000
00000000
00000000
00000000
,
20000000
00000000
00000000
00000000
,
31000000
00000000
00010000
00000000
00001000
00010000
00001000
00010000
,
00001000
00000000
00010000
00000000
00000000
00001000
00000000
00000100
,
00000000
00001000
00000000
00010000
00000000
00000000
00001000
00000000
,
00000000
00000000
00010000
00000000
00000000
00010000
00000000
00000000
,
00100000
00000000
00000000
00100000
00000000
00000000
10000000
00000000
,
10000000
00000000
01000000
00000000
00000000
00010000
00000000
00001000
,
00000000
00010000
00000000
00000100
00000000
00000000
00001000
00000000
,
00000000
00000000
00000010
00000000
00000000
00000010
00000000
00000000
,
00000100
00000000
00000000
00000100
00000000
00000000
00000100
00000000
,
00000001
00001000
00000001
00000100
,
00001000
00010000
00001000
00000000
,
00010000
00001000
00010000
01000000
,
10000000
00000000
10010000
00000000
,
10000000
00010000
10000000
01000000
,
00010000
00001000
00010000
00000000
,
00001000
00010000
00001000
00000000
,
00011000
00000000
00011000
00000000
,
00011000
00000000
00011000
00011000
,
00022000
00000000
00000000
00033000
,
00010000
01000000
10000000
01000000
,
00010000
01000000
10000000
01000000
,
00022000
00000000
00000000
00000000
00000000
00000000
00000000
00033000
,
00001000
00000100
00000001
00000100
,
00001000
00000100
00000001
00000100
,
00001000
00010000
00001000
00100000
,
00000000
00010000
00000000
00000000
10000000
00000000
00100000
00000000
,
01000000
00010000
00100000
00001000
,
00000000
00010000
00000000
00000000
00000100
00000000
00000000
00000000
,
00000010
00000001
00000100
00001000
,
00000000
00010000
00000000
00000000
00001000
00000000
00010000
00000000
,
00000000
01000000
00000000
10000000
00000000
00100000
00000000
10000000
,
00000000
01000000
00000000
00000000
11000000
00000000
00000000
00000000
,
10000000
01000000
00100000
01000000
,
10000000
01000000
00100000
00001000
,
00000100
00000001
00000010
00000001
,
00000100
00000001
00000010
00001000
,
00010000
00100000
01000000
00100000
,
00010000
00100000
01000000
00100000
,
10000000
01000000
00100000
00001000
,
00020000
00000000
00000000
00000000
00032000
00003000
00012000
00010000
,
00013000
00000000
00000000
01000000
00000000
00000000
10000000
00000000
,
00000000
10000000
01000000
00100000
,
00002000
00000000
00000000
00023000
00000000
00000000
00030200
00000000
,
00000300
00000000
00000010
00000000
,
00000001
00000000
00000000
00000100
00000000
00000000
00001000
00000000
,
00000000
00010000
00001000
00100000
,
00010000
00000000
00000000
01000000
00000000
00000000
00100000
00000000
,
00000000
10000000
01000000
00100000
,
10010000
00000000
00000000
20020000
00000000
00000000
00000000
00000000
,
00000000
30030000
00000000
00000000
01000000
00000000
00001000
00000000
,
00011000
00000000
00000000
00022000
00000000
00000000
00000000
00000000
,
00000000
00000000
00033000
00000000
,
00010000
00001000
00010000
00001000
00000000
00000000
00010000
00000000
,
00000200
00000000
00000000
00000320
00000000
00000000
00000031
00000000
,
00000200
00000000
00000000
00000000
,
00001300
00011000
00011000
00000000
00010000
00000000
01000000
00000000
,
10000000
00100000
00010000
00001000
,
00000100
00000001
00000010
00001000
,
00010000
01000000
10000000
00100000
,
00010000
00001000
00000100
00000100
,
00000001
00000001
00000010
00000010
,
00000100
00000100
00010000
00010000
,
00001000
00000000
00000000
00001000
00000000
00000000
00010000
00000000
00001000
00000000
00010000
00000000
,
00001000
00000000
00000000
00000000
00010000
00000000
00000000
00000000
00001000
00000000
00000000
00000000
00000000
00000000
00000000
00001000
00000000
00000000
00000000
00000000
00000000
00010000
00000000
00000000
,
00000000
00001000
00000000
00100000
00000000
00010000
00000000
10000000
,
00000000
00100000
00000000
00000000
00000000
10000000
00000000
10000000
,
00010000
00000000
00000000
00010000
00100000
00000000
00000000
00001000
,
00000000
00010000
00000000
00000000
00000000
00000100
00000000
00001000
,
00000000
00000010
00000000
00000100
00000000
00000001
00000000
00000000
,
00000010
00000000
00000000
00000000
00000000
00000100
00000000
00001000
,
00000000
00010000
00000000
00000000
00001000
00000000
00000000
00000010
,
00000000
00000000
00000000
00000100
00000000
00000000
00000000
00000000
00000000
00000000
00000000
00000000
00000000
00000000
00000000
00001000
00000000
00000000
00000000
00000000
00010000
00000000
00000000
00000000
,
00011000
00000000
00000000
00000000
;

//---------------dance-double - ----------------
#NOTEDATA:;
#CHARTNAME:;
#STEPSTYPE:dance-double;
#DESCRIPTION:;
#CHARTSTYLE:;
#DIFFICULTY:Medium;
#METER:7;
#RADARVALUES:0.506789,0.644244,0.256582,0.223115,0.027889,318.000000,295.000000,23.000000,20.000000,0.000000,0.000000,1.000000,0.000000,0.000000,0.506789,0.644244,0.256582,0.223115,0.027889,318.000000,295.000000,23.000000,20.000000,0.000000,0.000000,1.000000,0.000000,0.000000;
#CREDIT:;
#NOTES:
00000000
00000000
00000000
00000000
,
00000000
00000000
00000000
00000000
,
00000000
00000000
00000000
00000000
,
00000000
00000000
00000000
00000000
,
40000000
00000000
00000000
30000000
,
01000000
00000000
00010000
00001000
00000100
00000001
00000010
00001000
,
00010000
00000000
00001000
00000000
00000000
00100000
00000000
00010000
,
00000000
01000000
00000000
00100000
00000000
10000000
01000000
00000000
,
00100000
00000000
00001000
00000000
00000000
00010000
00000000
00000000
,
00000100
00000000
00000000
00001000
00000000
00000000
00000010
00000000
,
00000110
00000000
00000100
00000000
00000000
00000001
00000000
00000010
,
00000000
00001000
00000000
00010000
00000000
00001000
00000010
00000000
,
00000001
00000000
00000100
00000000
00000000
00001000
00000000
00000000
,
00010000
00000000
00000000
00100000
00000000
00000000
00010000
00000000
,
00002000
00003100
00002000
00013000
,
00001000
00010000
00000000
00001000
00000000
00010000
00001000
00000000
,
00020000
01030000
00020000
00031000
,
00010000
00001000
00000000
00000000
00010000
00001000
00000000
00000000
,
00020000
00030100
00002000
00003010
,
00000100
00000001
00000000
00000010
00000000
00000100
00001000
00000000
,
00000200
00000310
00000002
00000103
,
00000010
00000100
00000000
00000000
00000001
00001000
00000000
00000000
,
00000001
00000100
00001000
00010000
,
02000000
00000000
13000000
00000000
00100000
00010000
00001000
00000100
,
00001000
00010000
00100000
00010000
,
00001000
00000100
00001000
00010000
,
00012000
00000000
00003010
00000000
00000001
00000100
00001000
00010000
,
01000000
10000000
01000000
00010000
,
00001000
00000100
00000001
00000100
,
00001000
00000000
00010000
00001000
00000000
00100000
00010000
00100000
,
00000000
01000000
00000000
10000000
00100000
00000000
01000000
00000000
,
00001000
00000000
00010000
00001000
00000000
00001000
00000100
00001000
,
00000000
00010000
00000000
00000000
00011000
00000000
00000000
00000000
,
00010000
00000000
00000100
00001000
00000000
00000010
00000100
00000001
,
00000000
00000010
00000000
00000000
00000100
00000000
00010000
00000000
,
00000000
00001000
00010000
00001000
00000000
00010000
00001000
00010000
,
00000000
01000000
00000000
00000000
11000000
00000000
10000000
00000000
,
00100000
00010000
00001000
00000100
,
00000001
00000100
00001000
00000100
,
00000001
00000010
00001000
00010000
,
01000000
10000000
01000000
00010000
,
00001000
00000010
00000001
00000100
,
00001000
00010000
01000000
10000000
,
01000000
00000000
00010000
00000000
00001000
00000000
00010000
00001000
,
00020000
00000000
00000000
00000000
00032000
00000000
00003200
00002300
,
00013000
00000000
00001000
00010000
00000000
00001000
00010000
00000000
,
00000000
01000000
10000000
00100000
,
00010000
00000000
00000000
00001000
00000000
00000000
00000100
00000000
,
00000000
00000000
00000101
00000000
,
00001001
00000000
00000010
00000100
00000000
00000010
00000100
00000000
,
00000000
00000100
00001000
00010000
,
00100000
00000000
00000000
10000000
00000000
00000000
00100000
00000000
,
00000000
00010000
00001000
00010000
,
00011000
00000000
00000000
00002200
00000000
00000000
00000000
00000000
,
00000000
00003300
00000000
00000000
00010000
00000000
00001000
00000000
,
00110000
00000000
00000000
20020000
00000000
00000000
00000000
00000000
,
00000000
00000000
00000000
30030000
00000000
00000000
00000000
00000000
,
10000000
01000000
00010000
00001000
00000000
00000000
00001000
00010000
,
00002000
00000000
00000000
00003200
00000000
00000300
00000001
00000000
,
00000010
00001000
00010000
00100000
,
00011000
00100100
00011000
00000000
00011000
00000000
00010000
00000000
,
01000000
10000000
10010000
10000000
,
01000000
00010000
00011000
00001000
,
00000100
00000001
00001001
00000001
,
00000100
00001000
00011000
00001000
,
00100000
00010000
00101000
00100000
,
00001000
00010000
00011000
00010000
,
00001000
00000000
00000000
00000010
00000000
00000000
00000001
00000000
00000100
00000000
00001000
00000000
,
00010000
00000000
00000000
00000000
01000000
00000000
00000000
00000000
10000000
00000000
00000000
00000000
00000000
00000000
00000000
01000000
00000000
00000000
00000000
00000000
00000000
00010000
00000000
00000000
,
00000000
00001000
00000000
00000100
00000000
00000101
00000000
00000101
,
00000000
00001001
00000000
00000000
00000000
00000001
00001000
00000001
,
00001000
00000001
00000000
00001000
00000100
00000000
00000100
00010000
,
00000000
00010000
00001000
00000000
00000000
00001000
00000000
00100000
,
00010000
00100000
00000000
01000000
00000000
10000000
00100000
10000000
,
00100000
01000000
00000000
00000000
00000000
00001000
00010000
00001000
,
00000100
00001000
00000000
00000000
00010000
00001000
00010000
00001000
,
00000000
00000000
00000000
00010000
00000000
00000000
00000000
00000000
00000000
00000000
00000000
00000000
00000000
00000000
00000000
00010000
00000000
00000000
00001000
00000000
00010000
00000000
00000000
00000000
,
00001000
00000000
00000000
00000000
;

//---------------dance-double - ----------------
#NOTEDATA:;
#CHARTNAME:;
#STEPSTYPE:dance-double;
#DESCRIPTION:;
#CHARTSTYLE:;
#DIFFICULTY:Hard;
#METER:8;
#RADARVALUES:0.651814,0.730143,0.345828,0.211959,0.027889,409.000000,378.000000,31.000000,19.000000,0.000000,1.000000,1.000000,0.000000,0.000000,0.651814,0.730143,0.345828,0.211959,0.027889,409.000000,378.000000,31.000000,19.000000,0.000000,1.000000,1.000000,0.000000,0.000000;
#CREDIT:;
#NOTES:
// measure 0
00000000
00000000
00000000
00000000
,  // measure 1
00000000
00000000
00000000
00000000
,  // measure 2
00000000
00000000
00000000
00000000
,  // measure 3
00000000
00000000
00000000
00000000
,  // measure 4
40000000
00000000
00000000
30000000
,  // measure 5
01000000
00000000
00010000
00001000
00000100
00000001
00000010
00001000
,  // measure 6
00010000
00000000
00001000
00000000
00000000
00010000
00000000
00001000
,  // measure 7
00000000
00100000
00000000
00010000
00000000
01000000
00100000
00000000
,  // measure 8
10000000
00000000
01000000
00000000
00100000
00001000
00000000
00001000
,  // measure 9
00010000
00000000
00010000
00000100
00000000
00000100
00001000
00000000
,  // measure 10
00000010
00000000
00000100
00000000
00000000
00000001
00000000
00000010
,  // measure 11
00000000
00000100
00000000
00010000
00000000
00001000
00100000
00000000
,  // measure 12
00010000
00000000
01000000
00000000
00100000
10000000
00000000
10000000
,  // measure 13
01000000
00000000
01000000
00010000
00000000
00010000
00001000
00000000
,  // measure 14
00021000
00030100
00012000
01003000
,  // measure 15
00010000
00001000
00000000
00000100
00000000
00000001
00000010
00000000
,  // measure 16
00000200
00001300
00020000
00130000
,  // measure 17
00210000
00301000
00001020
00010030
,  // measure 18
00012000
00103000
00021000
00030010
,  // measure 19
00010000
00001000
00000000
00100000
00000000
00010000
01000000
00000000
,  // measure 20
00200000
00310000
00002000
00003100
,  // measure 21
00001200
00010300
02010000
03001000
,  // measure 22
00010000
00000000
00001000
00000000
00010000
00001000
00000100
00001000
,  // measure 23
00020000
00000000
00031000
00000000
00010000
00100000
10000000
01000000
,  // measure 24
00010000
00001000
00000100
00000000
00000100
00001000
00010000
00000000
,  // measure 25
00001000
00010000
01000000
00000000
01000000
00010000
00001000
00000000
,  // measure 26
00021000
00000000
00030010
00000000
00001000
00010000
00100000
10000000
,  // measure 27
01000000
00010000
00001000
00000000
00000010
00001000
00010000
00000000
,  // measure 28
00100000
00010000
00001000
00000000
00000100
00001000
00010000
00000000
,  // measure 29
00001000
00010000
00001000
00010000
00000100
00001000
00000100
00001000
,  // measure 30
00000010
00000100
00000001
00000010
00000100
00001000
00000100
00000000
,  // measure 31
00010000
00001000
00010000
00001000
00100000
00010000
00100000
00010000
,  // measure 32
10000000
00100000
01000000
00010000
00100000
00000000
00000000
00000000
,  // measure 33
01000000
10000000
01000000
10000000
00100000
01000000
00100000
01000000
,  // measure 34
00001000
00010000
00000100
00001000
00000010
00000100
00000001
00000000
,  // measure 35
00000000
00000001
00000010
00001000
00000000
00010000
01000000
10000000
,  // measure 36
00000000
01000000
00000000
00000000
00010000
00000000
00001000
00010000
,  // measure 37
00001000
00000000
00010000
00001000
00010000
00000000
00000100
00000000
,  // measure 38
00001000
00000010
00000100
00000001
,  // measure 39
00000010
00000000
00000100
00010000
00001000
00000000
00010000
00000000
,  // measure 40
01000000
10000000
00100000
01000000
,  // measure 41
00001000
00000000
00010000
00000100
00001000
00000000
00000010
00000000
,  // measure 42
00000100
00000000
00000000
00000001
00000000
00000000
00000010
00000000
,  // measure 43
00001000
00000000
00010000
00000000
00100000
00000000
00010000
00001000
,  // measure 44
00020000
00000000
00000000
00000000
00002000
00000000
00100100
00033000
,  // measure 45
00011000
00000000
00100000
00010000
00000000
10000000
00100000
00000000
,  // measure 46
01000000
00000000
00001000
00000000
00010000
00000100
00001000
00000000
,  // measure 47
00001100
00000000
00001000
00000010
00000000
00000100
00000001
00000000
,  // measure 48
00000010
00000000
00001000
00000000
00012000
00000000
00010000
00003000
,  // measure 49
00011000
00000000
00000010
00001000
00000000
00000001
00000010
00000000
,  // measure 50
00001000
00010000
01000000
10000000
,  // measure 51
00100000
00000000
01000000
00010000
00000000
00001000
00000100
00000000
,  // measure 52
00000010
00000000
00000001
00000000
00000100
00001000
00010000
00000000
,  // measure 53
00011000
00000000
00000000
00011000
00000000
00000000
00010000
00000000
,  // measure 54
00100000
00010000
00001000
00010000
,  // measure 55
00011000
00000000
00000000
00011000
00000000
00000000
00001000
00000000
,  // measure 56
00000010
00000000
00001000
00000000
00010000
00000100
00001000
00000100
,  // measure 57
00000010
00000001
00000100
00001000
00000000
00000000
00001000
00000100
,  // measure 58
00002000
00000000
00000000
00023000
00000000
00000000
00130000
00000000
,  // measure 59
10000000
01000000
00010000
01000000
,  // measure 60
10010000
00011000
00001001
00000000
00000011
00000000
00000101
00000000
,  // measure 61
00000001
00000100
00000010
00001000
00000100
00000000
00000100
00000000
,  // measure 62
00010000
00010000
00011000
00101000
,  // measure 63
00001000
00100000
00010000
01000000
00100000
00000000
00100000
00000000
,  // measure 64
10000000
10000000
11000000
01010000
,  // measure 65
01000000
00001000
00010000
00000100
00001000
00000000
00001000
00000000
,  // measure 66
00000101
00000011
00001010
00001100
,  // measure 67
00000100
00000000
00000000
00001000
00000000
00000000
00010000
00000000
00000000
01000000
00000000
00000000
00100000
00000000
00000000
00000000
10000000
00000000
00000000
00000000
01000000
00000000
00000000
00000000
,  // measure 68
00010000
00000000
00000000
00000000
00001000
00000000
00000000
00000000
00000100
00000000
00000000
00000000
00000000
00000000
00000000
00000001
00000000
00000000
00000010
00000000
00000000
00000100
00000000
00000000
,  // measure 69
00000000
00000100
00001000
00000010
00000000
00000010
00001000
00000100
,  // measure 70
00010000
00001000
00100000
00000000
00010000
01000000
00100000
10000000
,  // measure 71
01000000
00010000
01000000
10000000
01000000
00100000
00001000
00010000
,  // measure 72
00000100
00001000
00000100
00000000
00000000
00000010
00000000
00000001
,  // measure 73
00000100
00001000
00000100
00000001
00000000
00000001
00000010
00000100
,  // measure 74
00010000
00010000
00000000
00000000
00001000
00100000
00010000
01000000
,  // measure 75
00100000
10000000
01000000
00100000
00001000
00010000
00000100
00001000
,  // measure 76
00000010
00000000
00000000
00000100
00000000
00000000
00000001
00000000
00000000
00000010
00000000
00000000
00000100
00000000
00000000
00010000
00000000
00000000
00001000
00000000
00010000
00000000
00000000
00000000
,  // measure 77
00001000
00000000
00000000
00000000
;

//---------------dance-double - ----------------
#NOTEDATA:;
#CHARTNAME:;
#STEPSTYPE:dance-double;
#DESCRIPTION:;
#CHARTSTYLE:;
#DIFFICULTY:Challenge;
#METER:10;
#RADARVALUES:0.772933,0.995649,0.602410,0.156180,0.066934,485.000000,431.000000,54.000000,14.000000,1.000000,0.000000,1.000000,0.000000,0.000000,0.772933,0.995649,0.602410,0.156180,0.066934,485.000000,431.000000,54.000000,14.000000,1.000000,0.000000,1.000000,0.000000,0.000000;
#CREDIT:;
#OFFSET:-0.120000;
#BPMS:0.000000=232.501007
,16.000000=200.000000
,16.500000=160.000000
,17.000000=120.000999
,17.500000=110.000999
,18.000000=100.000999
,18.500000=90.000999
,19.000000=100.000999
,19.500000=105.000999
,20.000000=115.000999
,24.000000=230.001007
,92.000000=115.000000
,96.000000=230.001007
,104.000000=115.000000
,108.000000=230.001007
,178.000000=115.510002
,179.000000=57.759998
,180.000000=230.000000
,274.000000=460.000000
,338.000000=230.000000
,338.500000=115.000000
;
#STOPS:240.000000=0.260000
,240.500000=0.260000
;
#DELAYS:;
#WARPS:;
#TIMESIGNATURES:0.000000=4=4
;
#TICKCOUNTS:0.000000=4
;
#COMBOS:0.000000=1
;
#SPEEDS:0.000000=1.000000=0.000000=0
;
#SCROLLS:0.000000=1.000000
;
#FAKES:;
#LABELS:0.000000=Song Start
;
#NOTES:
00000000
00000000
00000000
00000000
,
00000000
00000000
00000000
00000000
,
00000000
00000000
00000000
00000000
,
00000000
00000000
00000000
00000000
,
40010000
00000000
00000000
30000000
,
02000000
00000000
03010000
01000000
20000000
30200000
00320000
00032000
,
00003100
00000000
00000001
00000010
00000000
00000100
00000000
00010000
,
00000000
00001000
00000000
00100000
00000000
00010000
01000000
00000000
,
01000000
00100000
10000000
00000000
10000000
01000000
00000000
01000000
,
00010000
00000000
00010000
00001000
00000000
00001000
00000100
00000000
,
00000101
00000000
00000001
00000000
00000010
00000100
00000000
00010000
,
00000000
00001000
00000000
00100000
00000000
00010000
01000000
00000000
,
00100000
10000000
00100000
00000000
00100000
00010000
00000000
00010000
,
00001000
00000000
00001000
00000010
00000000
00000010
00000001
00000000
,
00000102
00001003
00001200
00010300
,
00001000
00100000
00010000
01000000
00100000
10000000
01000000
00000000
,
11000000
00010000
01000000
00000000
01010000
00001000
00010000
00000000
,
00011000
00011000
00000000
00000000
00011000
00011000
00000000
00000000
,
00010200
00001300
00001002
00000103
,
00000001
00000100
00000010
00001000
00000100
00000001
00000100
00000000
,
00010100
00010000
00001000
00000000
00101000
00100000
00010000
00000000
,
10010000
10010000
00000000
00000000
10010000
10010000
00000000
00000000
,
10000000
00000000
01000000
00000000
00010000
00000000
00001000
00000000
00010000
00001000
00010000
00001000
00010000
00001000
00010000
00001000
,
00020000
00000000
00001000
00000000
00031000
00000100
00001000
00010000
,
00001000
00100000
00010000
01000000
00100000
00000000
10000000
01000000
,
00010000
00001000
00000100
00000000
00000001
00000010
00000100
00001000
,
00001200
00000000
00010000
00000000
00001300
00010000
01000000
00010000
,
00001000
00100000
00010000
01000000
00100000
00000000
10000000
01000000
,
00100000
00001000
00010000
00000000
00000100
00001000
00000010
00000100
,
00000001
00000010
00001000
00010000
01000000
10000000
00100000
01000000
,
00100000
10000000
01000000
10000000
00010000
00100000
00010000
00000000
,
00100000
00001000
00010000
00000100
00000001
00000100
00001000
00000010
,
00000100
00000000
00000001
00000000
00000010
00000000
00001000
00000000
00011000
00000000
00000000
00000000
00000000
00000000
00010000
00001000
,
00010000
00001000
00000100
00001000
00010000
00100000
10000000
01000000
,
00010000
00001000
00000100
00001000
00011000
00001000
00011000
00000000
,
00000000
00010000
00000100
00001100
00000000
00000100
00010000
00011000
,
00000000
00011000
00000000
00000000
00011000
00000000
00001000
00100000
,
00010000
00000000
01000000
00100000
10000000
00000000
01000000
00000000
,
00010000
00001000
00000100
00000001
,
00000010
00000000
00001000
00010000
00001000
00000000
00010000
00000000
,
00100000
10000000
00100000
00010000
,
00000100
00000000
00001000
00000010
00000100
00000000
00000001
00000000
,
00000010
00001000
00010000
00100000
,
10000000
01000000
00010000
00001000
00000100
00000001
00000100
00001000
,
00010000
00000000
01000000
00000000
10000000
00000000
01000000
00000000
00010000
00001000
00000100
00001000
00020000
00000000
00031000
00000000
,
00011000
00000000
00010000
00000100
00000000
00001000
00000010
00000000
,
00000100
00000000
00000001
00000000
00000010
00000001
00000010
00000000
,
00000001
00000010
00001000
00000001
00000100
00001000
00000001
00000000
,
00000100
00000000
00001000
00000000
00011000
00010000
00001000
00000000
,
00011000
00000000
00100000
00010000
00000000
10000000
00100000
00000000
,
10000000
01000000
00100000
00010000
,
10000000
01000000
00010000
10000000
00100000
00010000
10000000
00000000
,
00010000
00000000
00100000
00000000
00001000
00010000
00000100
00000000
,
00000100
00001000
00000010
00000100
00000001
00000000
00000010
00000000
,
00001000
00010000
00100000
10000000
,
01000000
00100000
00010000
10000000
00100000
00000000
01000000
00000000
,
00010000
00100000
00001000
00010000
00000010
00001000
00000001
00000010
,
00000100
00001000
01000000
10000000
00000000
00000000
01000000
00100000
,
00002000
00000000
00000000
00003200
00000000
00000000
00000301
00000000
,
00000010
00001000
00010000
00100000
,
00011000
00100100
00011000
00000000
00100100
00000000
00100100
00000000
,
00100000
00001000
00010000
00000100
00001100
00001000
00000001
00000000
,
00000101
00000001
00001000
00000000
00001100
00000000
00001100
00000000
,
00001000
00100000
00010000
01000000
01010000
00010000
01000000
00000000
,
11000000
10000000
01000000
00000000
01100000
00000000
01100000
00000000
,
01000000
00100000
00001000
00010000
00001100
00000010
00000100
00000000
,
00000011
00000100
00000010
00001000
00001100
00000000
00011000
00000000
,
00001000
00000000
00000000
00100000
00000000
00000000
00010000
00000000
00000000
01000000
00000000
00000000
01010000
00000000
00000000
00000000
01100000
00000000
00000000
00000000
10100000
00000000
00000000
00000000
,
11000000
00000000
01010000
00000000
00011000
00000000
00000000
00000000
00000000
00001100
00000000
00000000
,
00001000
00000010
00000M00
00000011
,
00000001
00000100
00000000
00001000
,
00010000
00100000
10000000
01000000
,
00000000
00000000
00000000
10000000
,
01000000
00010000
00001000
00000100
,
00000001
00000010
00001000
00000010
,
00000001
00001000
00000100
00000001
,
00001000
00000000
00000000
00000010
,
00000001
00000100
00001000
00010000
,
00100000
00010000
00000000
00100000
,
10000000
01000000
00100000
00010000
,
00000000
00000000
00000000
00010000
,
00000100
00001000
00000010
00000100
,
00000001
00000010
00001000
00010000
,
00100000
00010000
00001000
00000100
,
00001000
00000000
00000000
00000000
00000000
00000000
00010000
00000000
00000000
00000000
00000000
00000000
01000000
00000000
00000000
00010000
00000000
00000000
00001000
00000000
00010000
00000000
00000000
00000000
,
00001000
00000000
00000000
00000000
;

//---------------dance-single - ----------------
#NOTEDATA:;
#CHARTNAME:;
#STEPSTYPE:dance-single;
#DESCRIPTION:;
#CHARTSTYLE:;
#DIFFICULTY:Easy;
#METER:6;
#RADARVALUES:0.341047,0.429496,0.078090,0.167336,0.005578,214.000000,207.000000,7.000000,15.000000,0.000000,0.000000,0.000000,0.000000,0.000000,0.341047,0.429496,0.078090,0.167336,0.005578,214.000000,207.000000,7.000000,15.000000,0.000000,0.000000,0.000000,0.000000,0.000000;
#CREDIT:;
#NOTES:
0000
0000
0000
0000
,
0000
0000
0000
0000
,
0000
0000
0000
0000
,
0000
0000
0000
0000
,
2000
0000
0000
3000
,
0001
1000
0010
0100
,
0001
1000
0000
0001
,
1000
0001
1000
0100
,
0010
0000
0010
0000
0000
0010
0000
0000
,
0100
0000
0000
0100
0000
0000
0100
0000
,
1000
0001
0000
0001
,
1000
0001
1000
0001
,
1000
0000
0100
0000
0000
0100
0000
0000
,
0010
0000
0000
0010
0000
0000
0010
0000
,
0001
0010
0001
0010
,
0100
0000
0100
0000
,
1000
0100
1000
0100
,
0010
0000
0010
0000
,
0001
0100
0010
0100
,
0001
0000
0001
0000
,
1000
0100
0010
0100
,
1000
0000
1000
0000
,
1001
0000
1001
0000
,
2002
0000
0000
0000
0000
0000
0000
3003
,
1000
0010
0100
0002
,
0000
0000
0000
0003
,
0220
0000
0000
0000
0000
0000
0000
0330
,
0100
0010
1000
2000
,
0000
0000
0000
3000
,
0010
0100
0010
0000
,
0000
1000
0000
0000
1000
0000
0000
0000
,
0100
0010
0100
0000
,
0000
0010
0000
0000
0010
0000
0000
0000
,
0001
0100
0010
1000
,
0000
0100
0000
0000
0100
0000
0000
0000
,
0010
0001
1000
0010
,
0000
0100
0000
0000
0100
0000
0000
0000
,
0001
0100
0001
0100
,
0001
0100
0001
0100
,
0010
0100
0010
0100
,
0010
0100
0010
0100
,
0010
1000
0010
1000
,
0010
1000
0010
1000
,
0002
0000
0000
0000
,
2003
0000
0000
0000
0100
0000
3200
0010
,
0310
0000
0000
0010
0000
0000
0010
0000
,
0000
0001
0001
0000
,
0001
0000
0000
0001
0000
0000
0001
0000
,
0000
0000
1000
0000
,
1000
0000
0000
1000
0000
0000
1000
0000
,
0000
0010
0010
0000
,
0100
0000
0000
0100
0000
0000
0100
0000
,
0000
0000
0001
0010
,
0001
0000
0000
0002
0000
0000
0000
0000
,
0003
0000
1000
0010
,
1000
0000
0000
2000
0000
0000
0000
0000
,
0000
0000
3000
0000
,
1000
0000
0000
0010
0000
0000
0100
0000
,
0001
0000
0000
0010
0000
0000
0100
0000
,
2000
0000
0000
0000
,
3001
0100
0010
0000
1000
0000
1000
0000
,
1000
0000
0100
0100
,
0100
0000
0010
0010
,
0010
0000
0001
0001
,
0001
0000
0101
1000
,
0100
0000
1100
0001
,
0100
0000
1010
0001
,
0010
0000
0002
0000
,
2000
0000
0000
3003
0000
1000
0000
1000
,
0000
0001
0000
0001
0000
1000
0000
1000
,
0000
0001
0000
0000
0000
0000
0100
0000
,
0100
0001
0010
0100
,
0000
0100
0000
0000
0000
0000
0100
0000
,
1000
0100
0010
0100
,
1000
0100
0010
0001
,
0010
0100
0010
0001
,
0010
0000
0000
0000
0000
0000
0100
0000
0000
0000
0000
0000
0000
0000
0000
1000
0000
0000
0000
0000
0010
0000
0000
0000
,
0010
0000
0000
0000
;
